osu file format v14

[General]
AudioFilename: audio.mp3
AudioLeadIn: 0
PreviewTime: 43757
Countdown: 0
SampleSet: Soft
StackLeniency: 0.9
Mode: 0
LetterboxInBreaks: 0
WidescreenStoryboard: 1

[Editor]
DistanceSpacing: 1.2
BeatDivisor: 4
GridSize: 4
TimelineZoom: 1

[Metadata]
Title:GIRIGIRI (TV Size)
TitleUnicode:GIRIGIRI (TV Size)
Artist:Sonar Pocket
ArtistUnicode:ソナーポケット
Creator:Yudragen
Version:NORMAL
Source:ワールドトリガー
Tags:world trigger chaoticred opening 1 first anime japanese jpop pop 笑顔の理由。 egao no riyuu KAY Shunsuke Harada
BeatmapID:2397753
BeatmapSetID:1148452

[Difficulty]
HPDrainRate:3.5
CircleSize:3
OverallDifficulty:4
ApproachRate:5
SliderMultiplier:1.5
SliderTickRate:1

[Events]
//Background and Video events
0,0,"jin.jpg",0,0
//Break Periods
2,3594,6051
//Storyboard Layer 0 (Background)
//Storyboard Layer 1 (Fail)
//Storyboard Layer 2 (Pass)
//Storyboard Layer 3 (Foreground)
//Storyboard Layer 4 (Overlay)
//Storyboard Sound Samples

[TimingPoints]
2109,428.571428571429,4,2,1,60,1,0
2109,-111.111111111111,4,2,1,60,0,0
8966,-111.111111111111,4,2,1,70,0,0
17537,-125,4,2,1,50,0,0
29537,-125,4,2,1,60,0,0
31251,-125,4,2,1,70,0,0
38109,-111.111111111111,4,2,1,75,0,0
41537,-111.111111111111,4,2,1,80,0,0
43251,-111.111111111111,4,2,1,50,0,0
44966,-100,4,2,1,80,0,1
72394,-111.111111111111,4,2,1,75,0,0
83751,-111.111111111111,4,2,1,85,0,0
83966,-111.111111111111,4,2,1,90,0,0

[Colours]
Combo1 : 185,180,130
Combo2 : 86,122,182
Combo3 : 133,218,101
Combo4 : 175,235,213

[HitObjects]
259,43,2109,5,4,3:2:0:0:
218,112,2323,2,0,L|127:130,2,67.4999979400635,2|2|2,0:0|0:0|0:0,0:0:0:0:
285,167,2966,1,2,0:0:0:0:
422,81,3394,1,2,0:0:0:0:
484,46,7251,6,0,L|400:67,1,67.4999979400635,2|2,0:0|0:0,0:0:0:0:
360,117,7680,2,0,L|276:96,1,67.4999979400635,2|2,0:0|0:0,0:0:0:0:
249,32,8109,1,2,0:0:0:0:
80,11,8537,1,2,0:0:0:0:
50,170,8966,6,0,P|86:288|97:325,1,134.999995880127,0|0,3:2|3:0,0:0:0:0:
237,364,9823,2,0,P|257:295|278:226,1,134.999995880127,0|0,3:0|3:0,0:0:0:0:
399,129,10680,2,0,P|330:108|261:87,1,134.999995880127,0|0,3:0|3:0,0:0:0:0:
137,182,11537,2,0,P|68:202|0:223,1,134.999995880127,0|0,3:0|3:0,0:0:0:0:
125,331,12394,6,0,P|180:345|210:335,1,67.4999979400635,0|2,3:0|3:2,0:0:0:0:
251,291,12823,2,0,P|306:277|336:287,1,67.4999979400635,0|2,3:0|3:2,0:0:0:0:
389,310,13251,2,0,L|366:378,2,67.4999979400635,0|2|0,3:0|3:2|3:0,0:0:0:0:
456,264,13894,1,2,3:2:0:0:
410,196,14109,2,0,L|387:127,1,67.4999979400635,2|0,3:2|3:0,0:0:0:0:
427,61,14537,2,0,L|358:38,1,67.4999979400635,2|0,3:2|3:0,0:0:0:0:
287,68,14966,2,0,L|218:91,1,67.4999979400635,2|0,3:2|3:0,0:0:0:0:
165,31,15394,2,0,P|139:80|143:122,1,67.4999979400635,2|2,3:2|3:2,0:0:0:0:
46,336,17537,6,0,P|118:301|229:288,1,180,6|2,3:2|0:0,0:0:0:0:
279,338,18394,2,0,P|356:356|414:334,1,120,2|2,3:2|3:2,0:0:0:0:
480,346,19037,1,2,0:0:0:0:
480,261,19251,2,0,L|462:194,1,60,2|2,3:2|0:0,0:0:0:0:
382,171,19680,2,0,L|400:104,1,60,2|2,3:2|0:0,0:0:0:0:
357,39,20109,2,0,B|291:35|312:79|224:82,1,120,2|0,3:2|3:0,0:0:0:0:
104,61,20966,6,0,P|24:108|28:206,1,180,2|2,3:2|0:0,0:0:0:0:
78,242,21823,2,0,P|147:230|220:223,1,120,2|0,3:2|3:0,0:0:0:0:
263,266,22466,1,2,0:0:0:0:
325,214,22680,2,0,P|354:243|361:279,1,60,2|2,3:2|0:2,0:0:0:0:
433,296,23109,2,0,P|444:266|468:245,1,60,2|2,3:2|0:2,0:0:0:0:
501,176,23537,2,0,L|471:39,1,120,2|0,3:2|3:0,0:0:0:0:
335,33,24394,6,0,P|269:58|170:-13,1,180,2|2,3:2|0:0,0:0:0:0:
102,26,25251,2,0,P|92:76|78:158,1,120,2|0,3:2|3:0,0:0:0:0:
139,195,25894,1,2,0:0:0:0:
106,266,26109,2,0,P|49:282|30:301,1,60,2|2,3:2|0:2,0:0:0:0:
80,353,26537,2,0,P|137:369|152:387,1,60,2|2,3:2|0:2,0:0:0:0:
212,383,26966,2,0,P|274:356|344:350,1,120,2|0,3:2|3:0,0:0:0:0:
431,234,27823,6,0,P|487:245|522:290,2,90,2|2|2,3:2|0:0|0:0,0:0:0:0:
352,239,28680,2,0,P|359:188|366:171,1,60,2|2,3:2|0:2,0:0:0:0:
435,154,29109,2,0,P|432:122|423:91,1,60,2|2,3:2|0:2,0:0:0:0:
446,20,29537,2,0,P|516:-1|529:-3,2,60,0|2|0,3:0|3:0|3:3,0:0:0:0:
369,3,30180,1,2,3:0:0:0:
311,55,30394,2,0,P|331:125|334:138,2,60,0|2|0,3:0|3:0|3:0,0:0:0:0:
239,22,31037,1,4,3:0:0:0:
188,81,31251,6,0,P|118:72|74:117,1,120,4|2,3:2|3:2,0:0:0:0:
131,249,32109,2,0,P|184:281|245:268,1,120,2|2,3:2|3:2,0:0:0:0:
370,355,32966,2,0,P|388:254|397:220,1,120,2|2,3:2|3:2,0:0:0:0:
511,136,33823,2,0,P|502:72|487:10,1,120,2|2,3:2|3:2,0:0:0:0:
369,98,34680,5,0,3:2:0:0:
244,29,35109,2,0,P|183:18|112:4,1,120,2|2,3:2|3:2,0:0:0:0:
52,41,35751,1,2,0:0:0:0:
104,101,35966,2,0,P|79:142|77:169,1,60,2|2,3:2|0:0,0:0:0:0:
142,204,36394,2,0,P|167:245|169:272,1,60,2|2,3:2|0:2,0:0:0:0:
150,335,36823,2,0,P|55:356|10:372,2,120,2|2|2,3:2|3:2|3:2,0:0:0:0:
308,371,38109,6,0,P|358:319|344:234,1,134.999995880127,6|2,3:2|3:2,0:0:0:0:
326,184,38751,1,2,0:2:0:0:
279,115,38966,2,0,P|218:124|188:128,1,67.4999979400635,2|2,3:2|3:2,0:0:0:0:
184,206,39394,2,0,P|123:196|93:192,1,67.4999979400635,2|2,3:2|0:0,0:0:0:0:
50,246,39823,2,0,P|0:194|14:109,1,134.999995880127,2|2,0:2|3:2,0:0:0:0:
19,54,40466,1,2,0:2:0:0:
96,24,40680,2,0,P|109:86|114:122,2,67.4999979400635,2|2|2,3:2|3:2|3:2,0:0:0:0:
199,168,41537,5,4,3:2:0:0:
268,125,41751,1,2,3:2:0:0:
321,188,41966,2,0,P|306:232|302:265,1,67.4999979400635,2|2,3:2|3:2,0:0:0:0:
267,325,42394,2,0,P|233:332|202:344,1,67.4999979400635,2|2,3:2|3:2,0:0:0:0:
131,303,42823,2,0,P|87:288|54:284,2,67.4999979400635,2|2|2,3:2|3:2|0:0,0:0:0:0:
55,58,44966,6,0,B|145:30|137:111|227:93,1,150,6|8,3:2|3:2,0:0:0:0:
261,49,45609,1,2,0:0:0:0:
328,95,45823,1,2,3:2:0:0:
475,197,46251,2,0,P|479:233|464:267,1,75,10|2,3:2|0:0,0:0:0:0:
386,222,46680,2,0,B|304:225|341:293|226:301,1,150,2|10,3:2|3:2,0:0:0:0:
183,358,47323,2,0,P|142:304|36:317,1,150,2|2,0:0|0:0,0:0:0:0:
0,121,48180,1,2,0:2:0:0:
68,65,48394,6,0,P|141:82|213:100,1,150,2|8,3:2|3:2,0:0:0:0:
229,11,49037,1,2,0:0:0:0:
315,35,49251,2,0,P|367:22|474:-3,1,150,2|8,3:2|3:2,0:0:0:0:
512,76,49894,1,2,0:0:0:0:
475,155,50109,2,0,P|445:256|439:318,1,150,2|8,3:2|3:2,0:0:0:0:
267,329,50966,2,0,P|281:286|304:238,1,75,2|2,3:2|0:0,0:0:0:0:
243,183,51394,2,0,P|229:140|206:92,1,75,10|2,3:2|0:0,0:0:0:0:
262,35,51823,6,0,P|173:24|85:2,1,150,6|8,3:2|3:2,0:0:0:0:
31,47,52466,1,2,0:0:0:0:
94,111,52680,1,2,3:2:0:0:
39,281,53109,1,10,3:2:0:0:
119,319,53323,1,2,0:0:0:0:
183,262,53537,1,2,3:2:0:0:
363,258,53966,1,10,3:2:0:0:
366,351,54180,2,0,P|401:338|433:318,1,75,2|0,0:0|3:0,0:0:0:0:
488,257,54609,2,0,P|477:221|457:189,1,75,2|8,0:0|3:2,0:0:0:0:
497,120,55037,1,2,0:0:0:0:
430,71,55251,6,0,P|370:53|253:29,1,150,6|8,3:2|3:2,0:0:0:0:
211,72,55894,1,2,0:0:0:0:
130,54,56109,2,0,P|113:110|87:226,1,150,2|8,3:2|3:2,0:0:0:0:
127,273,56751,1,2,0:0:0:0:
194,320,56966,2,0,P|210:276|190:226,2,75,6|0|8,3:2|3:0|3:2,0:0:0:0:
364,379,57823,2,0,P|348:335|368:285,1,75,4|4,3:0|3:0,0:0:0:0:
423,253,58251,1,10,3:2:0:0:
480,322,58466,1,2,3:2:0:0:
491,52,59109,6,0,P|438:66|406:72,1,75,14|2,3:2|0:0,0:0:0:0:
369,145,59537,2,0,P|316:131|284:125,1,75,0|2,3:2|0:0,0:0:0:0:
240,65,59966,1,10,3:2:0:0:
178,119,60180,1,2,0:0:0:0:
96,106,60394,2,0,P|69:60|89:-22,2,112.5,2|2|2,3:2|0:0|0:0,0:0:0:0:
196,237,61466,1,2,0:0:0:0:
263,284,61680,2,0,P|277:318|288:354,1,75,10|2,3:2|0:0,0:0:0:0:
370,352,62109,6,0,P|418:335|455:326,1,75,2|2,3:2|0:0,0:0:0:0:
472,250,62537,2,0,P|435:239|400:226,1,75,10|2,3:2|0:0,0:0:0:0:
411,144,62966,1,2,3:2:0:0:
350,78,63180,1,2,0:0:0:0:
293,138,63394,2,0,P|230:161|190:168,1,75,10|2,3:2|0:0,0:0:0:0:
152,118,63823,2,0,P|166:63|192:13,2,112.5,2|2|2,3:2|0:0|0:0,0:0:0:0:
0,182,64894,1,2,0:0:0:0:
39,252,65109,2,0,P|59:306|67:329,1,75,10|2,3:2|0:0,0:0:0:0:
136,368,65537,6,0,P|182:340|214:338,1,75,14|2,3:2|0:0,0:0:0:0:
262,277,65966,2,0,P|308:305|340:307,1,75,10|2,3:2|0:0,0:0:0:0:
402,360,66394,1,10,3:2:0:0:
457,299,66609,1,2,0:0:0:0:
392,247,66823,2,0,P|379:192|374:161,1,75,8|2,3:2|3:2,0:0:0:0:
414,101,67251,2,0,P|475:55|526:66,2,112.5,10|2|2,3:2|0:0|0:0,0:0:0:0:
282,0,68323,1,2,0:0:0:0:
226,59,68537,2,0,P|216:120|212:153,1,75,10|2,3:2|0:0,0:0:0:0:
171,204,68966,5,10,3:2:0:0:
238,251,69180,1,2,0:0:0:0:
163,289,69394,2,0,P|139:371|138:385,1,75,10|2,3:2|0:0,0:0:0:0:
60,382,69823,2,0,P|51:345|37:310,1,75,10|2,3:2|0:0,0:0:0:0:
82,242,70251,1,10,3:2:0:0:
27,180,70466,2,0,P|78:112|225:123,1,225,6|8,3:2|3:2,0:0:0:0:
386,83,71537,2,0,P|441:96|476:98,1,75,4|4,3:0|3:0,0:0:0:0:
483,179,71966,2,0,P|470:234|468:269,1,75,12|0,3:2|3:0,0:0:0:0:
408,306,72394,6,0,P|360:258|273:267,1,134.999995880127,6|8,3:2|3:2,0:0:0:0:
233,307,73037,2,0,P|167:303|121:256,1,134.999995880127,2|2,0:0|0:3,0:0:0:0:
56,206,73680,1,8,3:2:0:0:
147,72,74109,2,0,P|228:103|298:110,1,134.999995880127,2|8,3:2|3:2,0:0:0:0:
330,49,74751,2,0,P|411:18|481:11,1,134.999995880127,2|2,0:0|0:3,0:0:0:0:
510,73,75394,1,8,3:2:0:0:
448,223,75823,6,0,B|381:216|393:264|314:261,1,134.999995880127,2|8,3:2|3:2,0:0:0:0:
262,316,76466,2,0,P|230:256|254:182,1,134.999995880127,0|2,0:0|0:3,0:0:0:0:
301,134,77109,1,8,3:2:0:0:
157,60,77537,1,0,3:0:0:0:
107,123,77751,2,0,P|63:109|23:96,2,67.4999979400635,2|10|2,0:0|3:2|0:0,0:0:0:0:
155,188,78394,2,0,P|165:226|153:262,1,67.4999979400635,2|0,3:2|0:0,0:0:0:0:
115,321,78823,2,0,P|156:352|191:355,1,67.4999979400635,10|2,3:2|0:3,0:0:0:0:
248,331,79251,6,0,P|346:307|390:343,1,134.999995880127,6|8,3:2|3:2,0:0:0:0:
437,366,79894,2,0,P|463:255|463:216,1,134.999995880127,2|2,0:0|0:3,0:0:0:0:
407,175,80537,1,8,3:2:0:0:
502,43,80966,2,0,P|440:62|357:73,1,134.999995880127,2|8,3:2|3:2,0:0:0:0:
296,110,81609,2,0,P|234:91|151:80,1,134.999995880127,2|2,0:0|0:3,0:0:0:0:
88,112,82251,1,8,3:2:0:0:
24,242,82680,6,0,P|81:229|145:295,1,134.999995880127,6|8,3:2|3:2,0:0:0:0:
201,323,83323,2,0,P|258:336|322:270,1,134.999995880127,2|2,3:2|3:0,0:0:0:0:
387,244,83966,1,8,3:2:0:0:
331,175,84180,1,8,3:2:0:0:
181,66,86109,5,4,0:2:0:0:
