osu file format v14

[General]
AudioFilename: audio.mp3
AudioLeadIn: 0
PreviewTime: 43757
Countdown: 0
SampleSet: Soft
StackLeniency: 0.9
Mode: 0
LetterboxInBreaks: 0
WidescreenStoryboard: 1

[Editor]
DistanceSpacing: 0.7
BeatDivisor: 4
GridSize: 4
TimelineZoom: 1

[Metadata]
Title:GIRIGIRI (TV Size)
TitleUnicode:GIRIGIRI (TV Size)
Artist:Sonar Pocket
ArtistUnicode:ソナーポケット
Creator:Yudragen
Version:INSANE
Source:ワールドトリガー
Tags:world trigger chaoticred opening 1 first anime japanese jpop pop 笑顔の理由。 egao no riyuu KAY Shunsuke Harada
BeatmapID:2397752
BeatmapSetID:1148452

[Difficulty]
HPDrainRate:5
CircleSize:4
OverallDifficulty:7
ApproachRate:9
SliderMultiplier:1.72
SliderTickRate:1

[Events]
//Background and Video events
0,0,"jin.jpg",0,0
//Break Periods
//Storyboard Layer 0 (Background)
//Storyboard Layer 1 (Fail)
//Storyboard Layer 2 (Pass)
//Storyboard Layer 3 (Foreground)
//Storyboard Layer 4 (Overlay)
//Storyboard Sound Samples

[TimingPoints]
2109,428.571428571429,4,2,1,60,1,0
2109,-166.666666666667,4,2,1,60,0,0
8966,-133.333333333333,4,2,1,70,0,0
17537,-200,4,2,1,50,0,0
29537,-153.846153846154,4,2,1,60,0,0
31251,-111.111111111111,4,2,1,70,0,0
38109,-86.9565217391304,4,2,1,75,0,0
41537,-80,4,2,1,80,0,0
43251,-400,4,2,1,50,0,0
44966,-76.9230769230769,4,2,1,80,0,1
72394,-83.3333333333333,4,2,1,75,0,0
83537,-66.6666666666667,4,2,1,85,0,0
83966,-55.5555555555556,4,2,1,90,0,0

[Colours]
Combo1 : 185,180,130
Combo2 : 86,122,182
Combo3 : 133,218,101
Combo4 : 175,235,213

[HitObjects]
459,45,2109,5,4,3:2:0:0:
398,87,2323,2,0,P|348:96|325:102,2,51.599998425293,2|2|2,0:0|0:0|0:0,0:0:0:0:
473,156,2966,2,0,P|455:232|449:274,1,103.199996850586,2|2,0:0|0:0,0:0:0:0:
116,113,4037,5,0,0:0:0:0:
116,113,4144,1,0,0:0:0:0:
116,113,4251,1,0,0:0:0:0:
181,169,4466,1,0,0:0:0:0:
181,169,4680,2,0,P|170:209|163:230,1,51.599998425293
251,217,5109,2,0,P|262:257|269:278,1,51.599998425293
294,339,5537,5,0,0:0:0:0:
407,59,7251,5,2,0:0:0:0:
407,59,7359,1,2,0:0:0:0:
407,59,7466,1,2,0:0:0:0:
339,106,7680,2,0,P|300:96|273:89,1,51.599998425293,2|2,0:0|0:0,0:0:0:0:
224,149,8109,2,0,P|262:182|269:241,1,103.199996850586,2|2,0:0|0:0,0:0:0:0:
1,18,8966,6,0,P|75:40|91:45,1,64.5000024604798,0|0,3:2|0:0,0:0:0:0:
131,106,9394,2,0,P|57:128|41:133,1,64.5000024604798,0|0,3:0|0:0,0:0:0:0:
15,196,9823,2,0,P|30:243|36:267,1,64.5000024604798,0|0,3:0|0:0,0:0:0:0:
102,324,10251,2,0,P|110:292|120:262,1,64.5000024604798,0|0,3:0|0:0,0:0:0:0:
259,184,10680,6,0,P|291:222|292:243,1,64.5000024604798,0|0,3:0|0:0,0:0:0:0:
241,298,11109,2,0,P|209:260|208:239,1,64.5000024604798,0|0,3:0|0:0,0:0:0:0:
336,141,11537,2,0,P|387:153|419:160,1,64.5000024604798,0|0,3:0|0:0,0:0:0:0:
260,95,11966,2,0,P|209:107|177:114,1,64.5000024604798,0|0,3:0|0:0,0:0:0:0:
43,29,12394,5,0,3:0:0:0:
43,29,12609,1,2,3:2:0:0:
101,97,12823,1,0,3:0:0:0:
101,97,13037,1,2,3:2:0:0:
41,159,13251,1,0,3:0:0:0:
112,204,13466,1,2,3:2:0:0:
55,269,13680,1,0,3:0:0:0:
88,346,13894,1,2,3:2:0:0:
220,252,14109,5,2,3:2:0:0:
237,260,14216,1,0,3:0:0:0:
254,268,14323,1,0,3:0:0:0:
271,276,14430,1,0,3:0:0:0:
287,286,14537,2,0,P|295:326|293:338,3,32.2500012302399,2|0|0|0,3:2|3:0|3:0|3:0,0:0:0:0:
357,244,14966,2,0,P|359:228|365:213,3,32.2500012302399,2|0|0|0,3:2|3:0|3:0|3:0,0:0:0:0:
418,149,15394,1,2,3:2:0:0:
401,141,15501,1,0,3:0:0:0:
384,133,15609,1,2,3:2:0:0:
367,125,15716,1,2,3:0:0:0:
50,46,17537,6,0,P|75:84|92:135,1,86,6|0,3:2|3:0,0:0:0:0:
160,166,18180,1,2,0:0:0:0:
160,166,18394,2,0,P|140:205|139:221,1,43,2|0,3:2|0:0,0:0:0:0:
194,271,18823,1,2,3:2:0:0:
194,271,19037,1,2,0:0:0:0:
135,333,19251,6,0,P|96:345|74:343,1,43,2|2,3:2|0:0,0:0:0:0:
206,372,19680,2,0,P|245:384|267:382,1,43,2|2,3:2|0:0,0:0:0:0:
317,336,20109,2,0,P|332:271|342:240,1,86,2|0,3:2|3:0,0:0:0:0:
403,201,20751,1,2,0:0:0:0:
335,155,20966,6,0,P|281:175|248:167,1,86,2|0,3:2|3:0,0:0:0:0:
192,114,21609,1,2,0:0:0:0:
192,114,21823,2,0,P|202:82|206:66,1,43,2|0,3:2|0:0,0:0:0:0:
263,9,22251,1,0,3:0:0:0:
311,76,22466,1,2,0:0:0:0:
391,24,22680,6,0,P|424:43|442:47,1,43,2|2,3:2|0:2,0:0:0:0:
487,109,23109,1,2,3:2:0:0:
487,109,23323,1,2,0:2:0:0:
422,165,23537,2,0,P|402:173|384:185,2,43,2|0|0,3:2|0:0|3:0,0:0:0:0:
496,211,24180,1,2,0:0:0:0:
437,269,24394,6,0,P|395:283|351:308,1,86,2|0,3:2|3:0,0:0:0:0:
290,353,25037,1,2,0:0:0:0:
290,353,25251,2,0,P|238:329|236:328,1,43,2|0,3:2|0:0,0:0:0:0:
208,271,25680,1,0,3:0:0:0:
143,319,25894,1,2,0:0:0:0:
79,252,26109,6,0,P|85:197|84:194,1,43,2|2,3:2|0:2,0:0:0:0:
132,142,26537,1,2,3:2:0:0:
50,112,26751,1,2,0:2:0:0:
132,142,26966,2,0,P|186:130|227:123,1,86,2|0,3:2|3:0,0:0:0:0:
298,79,27609,1,2,0:0:0:0:
298,79,27716,1,2,0:0:0:0:
298,79,27823,6,0,P|344:86|358:92,1,43,2|2,3:2|0:0,0:0:0:0:
401,52,28144,2,0,P|447:45|461:39,1,43,2|0,0:0|0:0,0:0:0:0:
504,80,28466,1,2,0:0:0:0:
422,161,28680,2,0,P|437:205|438:210,1,43,2|2,3:2|0:2,0:0:0:0:
389,279,29109,1,2,3:2:0:0:
463,327,29323,1,2,0:2:0:0:
348,370,29537,5,0,3:0:0:0:
281,265,29751,1,2,3:0:0:0:
281,265,29859,1,0,3:0:0:0:
281,265,29966,1,0,3:3:0:0:
170,298,30180,1,2,3:0:0:0:
170,298,30287,1,0,3:0:0:0:
170,298,30394,1,0,3:0:0:0:
57,208,30609,1,2,3:0:0:0:
57,208,30716,1,0,3:0:0:0:
57,208,30823,1,0,3:0:0:0:
194,148,31037,1,4,3:0:0:0:
97,24,31251,5,4,3:2:0:0:
97,24,31359,2,0,P|134:37|174:45,1,77.3999976379395,2|2,0:0|0:0,0:0:0:0:
242,16,31680,1,2,3:2:0:0:
242,16,31787,1,2,0:2:0:0:
242,16,31894,2,0,P|291:17|300:23,1,38.6999988189698,2|2,0:2|0:2,0:0:0:0:
342,60,32109,2,0,P|332:100|331:116,2,38.6999988189698,2|2|2,3:2|0:0|0:0,0:0:0:0:
491,146,32537,1,2,3:2:0:0:
344,245,32751,1,2,0:0:0:0:
344,245,32859,1,2,0:0:0:0:
344,245,32966,6,0,P|304:236|286:234,2,38.6999988189698,2|2|2,3:2|0:0|0:0,0:0:0:0:
501,374,33394,1,2,3:2:0:0:
501,374,33501,2,0,P|478:332|477:298,1,77.3999976379395,2|2,0:0|0:0,0:0:0:0:
506,230,33823,1,2,3:2:0:0:
506,230,33930,1,2,0:0:0:0:
506,230,34037,1,2,0:0:0:0:
353,363,34251,2,0,P|299:349|227:332,1,116.099996456909,2|0,3:2|0:0,0:0:0:0:
231,340,34680,5,0,3:2:0:0:
147,215,34894,1,2,0:2:0:0:
98,289,35109,1,2,3:2:0:0:
98,289,35323,1,2,0:2:0:0:
248,212,35537,2,0,P|264:148|270:120,1,77.3999976379395,2|2,3:2|0:0,0:0:0:0:
186,60,35966,1,2,3:2:0:0:
283,6,36180,1,2,0:0:0:0:
259,129,36394,6,0,P|250:166|240:204,1,77.3999976379395,2|2,3:2|0:2,0:0:0:0:
353,257,36823,1,2,3:2:0:0:
281,358,37037,1,2,0:0:0:0:
163,303,37251,1,2,3:2:0:0:
163,303,37466,1,2,0:0:0:0:
281,358,37680,2,0,P|326:347|402:332,1,116.099996456909,2|0,3:2|0:0,0:0:0:0:
412,342,38109,5,6,3:2:0:0:
412,342,38216,2,0,P|431:285|443:245,1,98.9000018863678,2|2,0:0|0:0,0:0:0:0:
497,184,38537,1,2,3:2:0:0:
497,184,38644,1,2,0:2:0:0:
497,184,38751,2,0,P|477:129|477:117,1,49.4500009431839,2|2,0:2|0:2,0:0:0:0:
502,59,38966,1,2,3:2:0:0:
502,59,39073,1,2,0:2:0:0:
502,59,39180,2,0,P|458:45|442:40,1,49.4500009431839,2|0,3:2|0:0,0:0:0:0:
385,101,39394,2,0,P|341:115|325:120,1,49.4500009431839,2|0,3:2|0:0,0:0:0:0:
261,81,39609,1,2,0:0:0:0:
261,81,39716,1,2,0:0:0:0:
261,81,39823,6,0,P|273:42|281:29,1,49.4500009431839,2|2,0:2|0:2,0:0:0:0:
187,130,40037,2,0,P|197:152|203:176,1,49.4500009431839,2|2,3:2|0:2,0:0:0:0:
276,229,40251,1,2,3:2:0:0:
294,252,40359,1,2,0:2:0:0:
301,280,40466,1,2,0:2:0:0:
292,308,40573,1,2,0:2:0:0:
269,326,40680,2,0,P|218:308|190:304,1,49.4500009431839,2|2,3:2|0:2,0:0:0:0:
152,353,40894,1,2,3:2:0:0:
50,233,41109,2,0,P|26:240|3:249,2,49.4500009431839,2|0|0,3:2|0:0|0:0,0:0:0:0:
176,141,41537,5,4,3:2:0:0:
176,141,41751,2,0,P|241:157|256:162,1,53.75,2|0,3:2|0:0,0:0:0:0:
300,130,41966,2,0,P|365:146|380:151,1,53.75,2|0,3:2|0:0,0:0:0:0:
499,244,42180,2,0,P|434:260|419:265,1,53.75,2|0,3:2|0:0,0:0:0:0:
375,233,42394,2,0,P|310:249|295:254,1,53.75,2|0,3:2|0:0,0:0:0:0:
270,372,42609,2,0,P|236:319|243:299,1,53.75,2|0,3:2|0:0,0:0:0:0:
161,306,42823,2,0,P|179:245|199:238,1,53.75,2|0,3:2|0:0,0:0:0:0:
126,190,43037,2,0,P|184:165|202:176,1,53.75,2|0,3:2|0:0,0:0:0:0:
215,90,43251,6,0,P|221:70|213:91,1,86,2|0,0:0|0:0,0:0:0:0:
449,71,44966,6,0,B|365:67|398:134|285:142,1,167.699992323304,6|0,3:2|0:0,0:0:0:0:
231,96,45394,2,0,P|207:41|197:21,1,55.8999974411012,8|0,3:2|0:0,0:0:0:0:
177,163,45609,2,0,P|165:188|154:214,1,55.8999974411012,2|0,0:0|0:0,0:0:0:0:
79,253,45823,1,2,3:2:0:0:
79,253,45930,1,0,0:0:0:0:
79,253,46037,1,2,0:3:0:0:
188,354,46251,2,0,P|232:341|256:335,1,55.8999974411012,10|0,3:2|0:0,0:0:0:0:
305,277,46466,2,0,P|349:290|373:296,1,55.8999974411012,2|0,0:0|0:0,0:0:0:0:
473,368,46680,6,0,P|450:303|446:203,1,167.699992323304,2|0,3:2|0:0,0:0:0:0:
496,137,47109,2,0,P|509:97|512:37,1,55.8999974411012,10|0,3:2|0:0,0:0:0:0:
449,25,47323,2,0,P|371:39|287:53,1,111.799994882202,2|0,0:0|3:0,0:0:0:0:
278,102,47644,1,0,0:0:0:0:
278,102,47751,1,2,0:0:0:0:
160,13,47966,1,8,3:2:0:0:
60,122,48180,2,0,P|85:179|89:197,1,55.8999974411012,2|0,0:0|0:0,0:0:0:0:
224,223,48394,5,2,3:2:0:0:
108,288,48609,1,2,0:3:0:0:
222,363,48823,1,8,3:2:0:0:
356,278,49037,6,0,P|327:292|285:304,1,55.8999974411012,2|0,0:0|0:0,0:0:0:0:
407,203,49251,1,2,3:2:0:0:
407,203,49359,1,0,0:0:0:0:
407,203,49466,1,2,0:3:0:0:
492,322,49680,1,8,3:2:0:0:
305,210,49894,5,2,0:0:0:0:
476,102,50109,1,2,3:2:0:0:
318,0,50323,1,2,0:3:0:0:
165,94,50537,1,8,3:2:0:0:
312,220,50751,6,0,P|335:192|336:167,1,55.8999974411012,2|0,0:0|0:0,0:0:0:0:
396,111,50966,2,0,P|383:77|362:63,1,55.8999974411012,2|0,3:2|0:0,0:0:0:0:
205,190,51180,2,0,P|199:225|210:247,1,55.8999974411012,2|0,0:0|0:0,0:0:0:0:
186,326,51395,2,0,P|214:348|239:349,1,55.8999974411012,10|0,3:2|0:0,0:0:0:0:
346,307,51609,2,0,P|387:288|414:279,1,55.8999974411012,2|0,0:0|0:0,0:0:0:0:
512,116,51823,6,0,P|477:170|372:146,1,167.699992323304,6|0,3:2|0:0,0:0:0:0:
372,75,52251,2,0,P|436:67|445:79,1,55.8999974411012,8|0,3:2|0:0,0:0:0:0:
295,125,52466,2,0,P|229:103|197:99,1,55.8999974411012,2|0,0:0|0:0,0:0:0:0:
116,9,52680,2,0,P|147:67|161:144,1,111.799994882202,0|0,3:0|0:3,0:0:0:0:
112,177,53001,1,0,0:0:0:0:
112,177,53109,2,0,P|81:246|78:269,1,55.8999974411012,10|0,3:2|0:0,0:0:0:0:
138,297,53323,1,2,0:0:0:0:
138,297,53430,1,0,0:0:0:0:
138,297,53537,6,0,P|207:304|263:317,1,111.799994882202,2|0,3:2|0:0,0:0:0:0:
396,226,53966,1,8,3:2:0:0:
257,145,54180,2,0,P|285:205|290:231,1,55.8999974411012,2|0,0:0|0:0,0:0:0:0:
371,81,54394,1,0,3:0:0:0:
371,81,54501,1,0,0:0:0:0:
371,81,54609,1,2,0:0:0:0:
241,9,54823,2,0,P|180:40|154:44,1,55.8999974411012,8|0,3:2|0:0,0:0:0:0:
69,14,55037,1,2,0:0:0:0:
69,14,55144,1,0,0:0:0:0:
69,14,55251,6,0,P|97:65|131:189,1,167.699992323304,6|0,3:2|0:0,0:0:0:0:
74,236,55680,2,0,P|50:288|61:327,1,55.8999974411012,8|0,3:2|0:0,0:0:0:0:
118,349,55894,2,0,P|176:327|210:322,1,55.8999974411012,2|0,0:0|0:0,0:0:0:0:
282,351,56109,1,2,3:2:0:0:
282,351,56216,1,0,0:0:0:0:
282,351,56323,2,0,P|255:306|253:284,1,55.8999974411012,2|0,0:3|0:0,0:0:0:0:
373,239,56537,2,0,P|347:284|329:297,1,55.8999974411012,8|0,3:2|0:0,0:0:0:0:
230,216,56751,2,0,P|282:215|302:224,1,55.8999974411012,2|0,0:0|0:0,0:0:0:0:
454,314,56966,6,0,P|466:237|485:171,1,111.799994882202,6|0,3:2|3:0,0:0:0:0:
510,136,57287,1,0,3:0:0:0:
510,136,57394,2,0,P|496:94|492:60,1,55.8999974411012,8|0,3:2|0:0,0:0:0:0:
440,22,57609,1,0,3:0:0:0:
440,22,57716,1,0,3:0:0:0:
440,22,57823,2,0,P|377:48|358:50,1,55.8999974411012,4|4,3:0|3:0,0:0:0:0:
232,14,58037,1,4,3:0:0:0:
159,9,58144,1,4,3:0:0:0:
125,73,58251,1,8,3:2:0:0:
228,200,58466,5,2,3:2:0:0:
228,200,58573,1,2,0:0:0:0:
228,200,58680,1,2,0:0:0:0:
373,273,58948,2,0,P|361:281|348:285,2,27.9499987205506,8|8|8,3:0|3:0|3:0,0:0:0:0:
415,207,59109,6,0,P|452:282|443:308,1,111.799994882202,14|2,3:2|0:0,0:0:0:0:
326,201,59430,1,2,0:0:0:0:
326,201,59537,2,0,P|349:149|368:139,1,55.8999974411012,0|0,3:2|0:0,0:0:0:0:
259,254,59751,2,0,P|242:231|238:204,1,55.8999974411012,2|0,0:0|0:0,0:0:0:0:
268,127,59966,1,10,3:2:0:0:
154,274,60180,1,2,0:0:0:0:
8,112,60394,6,0,P|78:132|128:139,1,111.799994882202,2|2,3:2|0:3,0:0:0:0:
156,61,60716,2,0,P|226:41|276:34,1,111.799994882202,2|0,0:0|0:0,0:0:0:0:
377,7,61037,2,0,P|349:61|351:83,1,55.8999974411012,2|0,0:0|0:0,0:0:0:0:
404,131,61251,1,0,3:0:0:0:
404,131,61359,1,0,0:0:0:0:
404,131,61466,1,2,0:0:0:0:
504,225,61680,1,10,3:2:0:0:
379,284,61894,1,2,0:0:0:0:
280,190,62109,6,0,P|210:218|187:225,1,55.8999974411012,2|0,3:2|0:0,0:0:0:0:
94,251,62323,1,2,0:0:0:0:
94,251,62430,1,2,0:0:0:0:
94,251,62537,2,0,P|120:261|145:272,1,55.8999974411012,10|0,3:2|0:0,0:0:0:0:
258,358,62751,1,2,0:0:0:0:
258,358,62859,1,2,0:0:0:0:
258,358,62966,2,0,P|248:332|237:307,1,55.8999974411012,2|0,3:2|0:0,0:0:0:0:
137,170,63180,2,0,P|147:144|158:119,1,55.8999974411012,2|0,0:0|0:0,0:0:0:0:
105,40,63394,1,10,3:2:0:0:
228,212,63609,1,2,0:0:0:0:
359,42,63823,6,0,P|422:69|484:85,1,111.799994882202,2|2,3:2|0:3,0:0:0:0:
512,154,64144,2,0,P|454:203|456:259,1,111.799994882202,2|0,0:0|0:0,0:0:0:0:
512,294,64466,2,0,P|498:346|485:359,1,55.8999974411012,2|0,0:0|0:0,0:0:0:0:
422,379,64680,1,0,3:0:0:0:
422,379,64787,1,0,0:0:0:0:
422,379,64894,1,2,0:0:0:0:
324,230,65109,1,10,3:2:0:0:
191,341,65323,1,2,0:0:0:0:
85,181,65537,6,0,P|139:204|153:207,1,55.8999974411012,14|0,3:2|0:0,0:0:0:0:
241,91,65751,1,2,0:0:0:0:
241,91,65859,1,2,0:0:0:0:
241,91,65966,2,0,P|194:126|184:136,1,55.8999974411012,10|0,3:2|0:0,0:0:0:0:
241,274,66180,1,2,0:0:0:0:
241,274,66287,1,2,0:0:0:0:
241,274,66394,2,0,P|233:215|229:202,1,55.8999974411012,10|0,3:2|0:0,0:0:0:0:
317,164,66609,2,0,P|376:182|408:190,1,55.8999974411012,2|0,0:0|0:0,0:0:0:0:
441,74,66823,2,0,P|414:81|387:90,1,55.8999974411012,8|0,3:2|0:0,0:0:0:0:
324,29,67037,1,2,3:2:0:0:
324,29,67144,1,0,3:0:0:0:
324,29,67251,6,0,P|254:20|201:73,1,111.799994882202,10|2,3:2|0:3,0:0:0:0:
206,129,67573,2,0,P|136:138|83:85,1,111.799994882202,2|0,0:0|0:0,0:0:0:0:
33,67,67894,2,0,P|12:117|12:147,1,55.8999974411012,2|0,0:0|0:0,0:0:0:0:
56,194,68109,1,8,3:2:0:0:
56,194,68216,1,0,0:0:0:0:
56,194,68323,1,2,0:0:0:0:
198,251,68537,1,10,3:2:0:0:
84,354,68751,1,2,0:0:0:0:
84,354,68859,1,0,3:0:0:0:
84,354,68966,6,0,P|162:368|177:370,1,55.8999974411012,10|0,3:2|0:0,0:0:0:0:
206,262,69180,2,0,P|284:248|299:246,1,55.8999974411012,2|0,0:0|0:0,0:0:0:0:
379,372,69394,2,0,P|365:294|363:279,1,55.8999974411012,10|0,3:2|0:0,0:0:0:0:
483,213,69609,2,0,P|478:240|472:267,1,55.8999974411012,2|0,0:0|0:0,0:0:0:0:
352,180,69823,2,0,P|356:152|362:125,1,55.8999974411012,10|0,3:2|0:0,0:0:0:0:
458,26,70037,2,0,P|463:53|468:80,1,55.8999974411012,2|0,0:0|0:0,0:0:0:0:
344,170,70251,2,0,P|348:142|354:115,1,55.8999974411012,10|0,3:2|0:0,0:0:0:0:
270,17,70466,5,6,3:2:0:0:
270,17,70573,1,0,3:0:0:0:
270,17,70680,2,0,L|213:40,1,55.8999974411012,0|0,3:0|3:0,0:0:0:0:
157,104,70894,1,8,3:0:0:0:
157,104,71001,1,0,3:0:0:0:
157,104,71109,2,0,L|100:81,3,55.8999974411012,8|0|0|0,3:2|3:0|3:0|3:0,0:0:0:0:
29,126,71537,1,4,3:0:0:0:
36,164,71644,1,4,3:0:0:0:
44,202,71751,1,4,3:0:0:0:
51,241,71859,1,4,3:0:0:0:
59,279,71966,1,12,3:2:0:0:
240,208,72180,1,0,3:0:0:0:
240,208,72287,1,0,3:0:0:0:
240,208,72394,6,0,P|325:236|391:270,1,154.799995275879,6|0,3:2|0:0,0:0:0:0:
429,333,72823,2,0,P|463:285|459:261,1,51.599998425293,8|0,3:2|0:0,0:0:0:0:
447,213,73037,1,2,0:0:0:0:
332,354,73251,1,0,3:0:0:0:
332,354,73359,1,0,0:0:0:0:
332,354,73466,1,2,0:3:0:0:
173,259,73680,1,8,3:2:0:0:
313,157,73894,2,0,L|322:96,1,51.599998425293
265,38,74109,6,0,B|182:30|207:83|109:88,1,154.799995275879,2|0,3:2|0:0,0:0:0:0:
51,51,74537,1,8,3:2:0:0:
191,159,74751,1,2,0:0:0:0:
191,159,74859,1,0,0:0:0:0:
191,159,74966,1,0,3:0:0:0:
45,234,75180,2,0,P|29:292|29:310,1,51.599998425293,2|0,0:3|0:0,0:0:0:0:
127,371,75394,2,0,P|121:345|111:321,1,51.599998425293,8|0,3:2|0:0,0:0:0:0:
32,372,75609,1,2,0:3:0:0:
190,254,75823,6,0,P|268:258|298:354,1,154.799995275879,2|0,3:2|0:0,0:0:0:0:
358,375,76251,2,0,P|417:354|445:349,1,51.599998425293,8|0,3:2|0:0,0:0:0:0:
483,375,76466,1,0,0:0:0:0:
376,196,76680,1,0,3:0:0:0:
376,196,76787,1,0,0:0:0:0:
376,196,76894,2,0,L|406:270,1,51.599998425293,2|0,0:3|0:0,0:0:0:0:
471,167,77109,2,0,L|490:119,1,51.599998425293,8|0,3:2|0:0,0:0:0:0:
429,44,77323,2,0,L|381:63,1,51.599998425293,2|0,0:3|0:0,0:0:0:0:
289,25,77537,5,0,3:0:0:0:
197,158,77751,2,0,L|140:138,1,51.599998425293,2|0,0:0|0:0,0:0:0:0:
91,252,77966,2,0,L|148:232,1,51.599998425293,10|0,3:2|0:0,0:0:0:0:
192,310,78180,1,2,0:0:0:0:
55,162,78394,1,2,3:2:0:0:
55,162,78501,1,0,0:0:0:0:
55,162,78609,1,0,0:0:0:0:
271,103,78823,2,0,P|319:120|381:136,1,103.199996850586,10|2,3:2|0:3,0:0:0:0:
452,152,79144,1,0,0:0:0:0:
452,152,79251,6,0,P|358:171|340:297,1,206.399993701172,6|8,3:2|3:2,0:0:0:0:
197,344,79894,1,2,0:0:0:0:
197,344,80001,1,0,0:0:0:0:
197,344,80109,2,0,P|237:326|263:321,1,51.599998425293,0|0,3:0|0:0,0:0:0:0:
316,262,80323,2,0,P|291:254|268:242,1,51.599998425293,2|0,0:2|0:0,0:0:0:0:
118,384,80537,1,8,3:2:0:0:
0,203,80751,1,2,0:3:0:0:
0,203,80859,1,0,3:0:0:0:
0,203,80966,6,0,P|74:193|128:294,1,154.799995275879,2|0,3:2|0:0,0:0:0:0:
184,190,81394,2,0,P|170:126|172:101,1,51.599998425293,8|0,3:2|0:0,0:0:0:0:
204,69,81609,1,2,0:0:0:0:
311,209,81823,1,0,3:0:0:0:
311,209,81930,1,0,0:0:0:0:
311,209,82037,1,2,0:3:0:0:
410,79,82251,2,0,P|355:59|334:43,1,51.599998425293,8|0,3:2|0:0,0:0:0:0:
302,14,82466,1,2,0:3:0:0:
302,14,82573,1,0,3:0:0:0:
302,14,82680,5,6,3:2:0:0:
507,148,82894,1,0,3:0:0:0:
310,298,83109,1,8,3:2:0:0:
111,154,83323,1,2,3:2:0:0:
384,106,83537,5,0,3:0:0:0:
384,106,83644,1,0,3:0:0:0:
384,106,83751,1,2,3:0:0:0:
224,194,83966,1,8,3:2:0:0:
512,345,84180,1,8,3:2:0:0:
184,67,86109,5,4,0:2:0:0:
