osu file format v14

[General]
AudioFilename: audio.mp3
AudioLeadIn: 0
PreviewTime: 43757
Countdown: 0
SampleSet: Soft
StackLeniency: 0.9
Mode: 0
LetterboxInBreaks: 0
WidescreenStoryboard: 0

[Editor]
DistanceSpacing: 0.7
BeatDivisor: 4
GridSize: 4
TimelineZoom: 2.5

[Metadata]
Title:GIRIGIRI (TV Size)
TitleUnicode:GIRIGIRI (TV Size)
Artist:Sonar Pocket
ArtistUnicode:ソナーポケット
Creator:Yudragen
Version:BRINK
Source:ワールドトリガー
Tags:world trigger chaoticred opening 1 first anime japanese jpop pop 笑顔の理由。 egao no riyuu KAY Shunsuke Harada
BeatmapID:2397750
BeatmapSetID:1148452

[Difficulty]
HPDrainRate:6
CircleSize:5
OverallDifficulty:7.5
ApproachRate:9.3
SliderMultiplier:1.8
SliderTickRate:1

[Events]
//Background and Video events
0,0,"jin.jpg",0,0
//Break Periods
//Storyboard Layer 0 (Background)
//Storyboard Layer 1 (Fail)
//Storyboard Layer 2 (Pass)
//Storyboard Layer 3 (Foreground)
//Storyboard Layer 4 (Overlay)
//Storyboard Sound Samples

[TimingPoints]
2109,428.571428571429,4,2,1,60,1,0
2109,-133.333333333333,4,2,1,60,0,0
8966,-111.111111111111,4,2,1,70,0,0
17537,-166.666666666667,4,2,1,50,0,0
29537,-125,4,2,1,60,0,0
31251,-100,4,2,1,70,0,0
38109,-83.3333333333333,4,2,1,75,0,0
41537,-71.4285714285714,4,2,1,80,0,0
43251,-200,4,2,1,50,0,0
44966,-66.6666666666667,4,2,1,80,0,1
72394,-71.4285714285714,4,2,1,75,0,0
83537,-62.5,4,2,1,85,0,0
83966,-47.6190476190476,4,2,1,90,0,0

[Colours]
Combo1 : 185,180,130
Combo2 : 86,122,182
Combo3 : 133,218,101
Combo4 : 175,235,213

[HitObjects]
408,55,2109,5,4,3:2:0:0:
377,117,2323,2,0,P|390:195|393:209,2,67.5000025749208,2|2|2,0:0|0:0|0:0,0:0:0:0:
277,60,2966,2,0,B|211:50|229:101|153:102,1,135.000005149842,2|2,0:0|0:0,0:0:0:0:
103,156,3609,2,0,P|129:205|141:239,1,67.5000025749208
56,353,4037,5,0,0:0:0:0:
56,353,4144,1,0,0:0:0:0:
56,353,4251,1,0,0:0:0:0:
108,302,4466,1,0,0:0:0:0:
144,364,4680,2,0,P|204:352|240:344,1,67.5000025749208
304,311,5109,1,0,0:0:0:0:
278,377,5323,1,0,0:0:0:0:
295,304,5537,6,0,P|289:270|284:237,2,67.5000025749208
336,191,6180,1,0,0:0:0:0:
209,150,6394,2,0,P|272:136|344:105,1,135.000005149842
385,61,7037,1,0,0:0:0:0:
500,158,7251,6,0,L|492:188,1,16.8750006437302,2|0,0:0|0:0,0:0:0:0:
502,167,7359,2,0,L|494:197,1,16.8750006437302,2|0,0:0|0:0,0:0:0:0:
504,176,7466,2,0,L|496:206,1,16.8750006437302,2|0,0:0|0:0,0:0:0:0:
411,261,7680,1,2,0:0:0:0:
505,314,7894,1,2,0:0:0:0:
420,377,8109,2,0,P|359:359|296:343,1,101.250003862381,2|0,0:0|0:0,0:0:0:0:
314,355,8537,2,0,P|295:331|301:283,1,67.5000025749208,2|0,0:0|0:0,0:0:0:0:
217,197,8966,6,0,B|256:214|256:214|297:196,1,80.9999975280763,0|0,3:2|0:0,0:0:0:0:
327,125,9394,2,0,B|291:109|291:109|252:126,1,80.9999975280763,0|0,3:0|0:0,0:0:0:0:
371,200,9823,2,0,P|385:266|391:290,1,80.9999975280763,0|0,3:0|0:0,0:0:0:0:
174,125,10251,2,0,P|188:59|194:35,1,80.9999975280763,0|0,3:0|0:0,0:0:0:0:
46,139,10680,5,0,3:0:0:0:
128,236,10894,1,0,0:0:0:0:
128,236,11001,1,0,0:0:0:0:
128,236,11109,1,0,3:0:0:0:
17,298,11323,1,0,0:0:0:0:
116,383,11537,2,0,P|168:367|195:360,2,80.9999975280763,0|0|0,3:0|0:0|3:0,0:0:0:0:
214,252,12180,1,0,0:0:0:0:
304,384,12394,5,0,3:0:0:0:
350,285,12609,1,2,3:2:0:0:
478,325,12823,5,0,3:0:0:0:
432,226,13037,1,2,3:2:0:0:
225,264,13251,5,0,3:0:0:0:
271,165,13466,1,2,3:2:0:0:
512,167,13680,5,0,3:0:0:0:
466,68,13894,1,2,3:2:0:0:
383,140,14109,5,2,3:2:0:0:
368,120,14216,1,0,3:0:0:0:
358,98,14323,1,0,3:0:0:0:
355,74,14430,1,0,3:0:0:0:
282,56,14537,5,2,3:2:0:0:
257,53,14644,1,0,3:0:0:0:
235,44,14751,1,0,3:0:0:0:
216,29,14859,1,0,3:0:0:0:
160,87,14966,5,2,3:2:0:0:
140,102,15073,1,0,3:0:0:0:
118,111,15180,1,0,3:0:0:0:
94,114,15287,1,0,3:0:0:0:
55,183,15394,5,2,3:2:0:0:
51,207,15501,1,0,3:0:0:0:
42,229,15609,1,2,3:2:0:0:
27,248,15716,1,2,3:0:0:0:
138,345,17537,6,0,P|178:328|255:313,1,107.999996704102,6|0,3:2|3:0,0:0:0:0:
294,358,18180,1,2,0:0:0:0:
367,286,18394,2,0,P|407:303|484:318,1,107.999996704102,2|2,3:2|3:2,0:0:0:0:
512,264,19037,1,2,0:0:0:0:
350,205,19251,5,2,3:2:0:0:
302,155,19466,1,2,0:0:0:0:
364,120,19680,1,2,3:2:0:0:
416,173,19894,1,2,0:0:0:0:
512,22,20109,2,0,B|453:18|471:54|400:53,1,107.999996704102,2|0,3:2|3:0,0:0:0:0:
348,8,20751,1,2,0:0:0:0:
215,172,20966,6,0,P|201:109|192:53,1,107.999996704102,2|0,3:2|3:0,0:0:0:0:
244,21,21609,1,2,0:0:0:0:
101,129,21823,2,0,P|91:182|79:234,1,107.999996704102,2|0,3:2|3:0,0:0:0:0:
20,200,22466,1,2,0:0:0:0:
130,338,22680,5,2,3:2:0:0:
193,300,22894,1,2,0:2:0:0:
198,370,23109,1,2,3:2:0:0:
193,300,23323,1,2,0:2:0:0:
302,358,23537,2,0,P|352:338|372:334,2,53.9999983520508,2|0|0,3:2|0:0|3:0,0:0:0:0:
378,249,24180,1,2,0:0:0:0:
470,361,24394,6,0,P|481:287|494:233,1,107.999996704102,2|0,3:2|3:0,0:0:0:0:
456,194,25037,1,2,0:0:0:0:
512,77,25251,2,0,P|468:99|410:87,1,107.999996704102,2|0,3:2|3:0,0:0:0:0:
370,38,25894,1,2,0:0:0:0:
264,171,26109,5,2,3:2:0:0:
232,107,26323,1,2,0:2:0:0:
284,60,26537,1,2,3:2:0:0:
241,10,26751,1,2,0:2:0:0:
149,132,26966,2,0,P|107:146|41:173,1,107.999996704102,2|0,3:2|3:0,0:0:0:0:
24,259,27609,1,2,0:0:0:0:
24,259,27716,1,2,0:0:0:0:
24,259,27823,6,0,P|60:277|72:285,1,53.9999983520508,2|2,3:2|0:0,0:0:0:0:
117,343,28144,2,0,P|81:361|69:369,1,53.9999983520508,2|0,0:0|0:0,0:0:0:0:
2,356,28466,1,2,0:0:0:0:
156,258,28680,5,2,3:2:0:0:
211,312,28894,1,2,0:2:0:0:
275,277,29109,1,2,3:2:0:0:
340,304,29323,1,2,0:2:0:0:
416,172,29537,6,0,P|399:224|393:255,1,72,0|2,3:0|3:0,0:0:0:0:
395,240,29859,1,0,3:0:0:0:
395,240,29966,1,0,3:3:0:0:
300,138,30180,1,2,3:0:0:0:
300,138,30287,1,0,3:0:0:0:
300,138,30394,1,0,3:0:0:0:
437,57,30609,1,2,3:0:0:0:
417,47,30716,1,0,3:0:0:0:
397,38,30823,1,0,3:0:0:0:
512,170,31037,1,4,3:0:0:0:
340,304,31251,5,4,3:2:0:0:
322,324,31359,2,0,P|273:334|233:348,1,90,2|2,0:0|0:0,0:0:0:0:
177,296,31680,1,2,3:2:0:0:
192,274,31787,1,2,0:2:0:0:
199,248,31894,1,2,0:2:0:0:
192,221,32001,1,2,0:2:0:0:
173,201,32109,2,0,L|123:224,2,45,2|2|2,3:2|0:0|0:0,0:0:0:0:
18,112,32537,1,2,3:2:0:0:
155,33,32751,2,0,L|195:51,1,45,2|2,0:0|0:0,0:0:0:0:
301,31,32966,5,2,3:2:0:0:
280,48,33073,1,2,0:0:0:0:
273,74,33180,1,2,0:0:0:0:
319,200,33394,1,2,3:2:0:0:
342,214,33501,2,0,P|385:203|426:184,1,90,2|2,0:0|0:0,0:0:0:0:
483,232,33823,1,2,3:2:0:0:
504,249,33930,1,2,0:0:0:0:
511,275,34037,1,2,0:0:0:0:
305,346,34251,1,2,3:2:0:0:
305,346,34466,2,0,P|348:357|389:376,1,90,0|0,0:0|3:2,0:0:0:0:
174,312,34894,5,2,0:2:0:0:
127,239,35109,1,2,3:2:0:0:
199,185,35323,1,2,0:2:0:0:
254,263,35537,1,2,3:2:0:0:
103,144,35751,2,0,P|54:159|13:170,2,90,2|2|2,0:0|3:2|0:0,0:0:0:0:
307,78,36394,5,2,3:2:0:0:
232,24,36609,1,2,0:2:0:0:
217,109,36823,1,2,3:2:0:0:
394,14,37037,2,0,P|443:29|484:40,2,90,2|2|2,0:0|3:2|0:0,0:0:0:0:
508,138,37680,2,0,P|458:178|465:265,1,135,2|0,3:2|0:0,0:0:0:0:
411,321,38109,5,6,3:2:0:0:
411,321,38216,2,0,P|365:308|304:288,1,107.999996704102,2|2,0:0|0:0,0:0:0:0:
250,352,38537,1,2,3:2:0:0:
217,328,38644,1,2,0:2:0:0:
203,289,38751,1,2,0:2:0:0:
212,249,38859,1,2,0:2:0:0:
239,218,38966,1,2,3:2:0:0:
304,193,39073,1,2,0:2:0:0:
246,146,39180,2,0,P|193:131|159:120,1,53.9999983520508,2|0,3:2|0:0,0:0:0:0:
128,74,39394,2,0,P|181:59|215:51,1,53.9999983520508,2|0,3:2|0:0,0:0:0:0:
245,9,39609,1,2,0:0:0:0:
275,20,39716,1,2,0:0:0:0:
380,22,39823,5,2,0:2:0:0:
351,45,39930,1,2,0:2:0:0:
337,80,40037,1,2,3:2:0:0:
340,117,40144,1,2,0:2:0:0:
367,151,40251,1,2,3:2:0:0:
392,179,40359,1,2,0:2:0:0:
401,215,40466,1,2,0:2:0:0:
392,252,40573,1,2,0:2:0:0:
366,279,40680,1,2,3:2:0:0:
306,239,40787,1,2,0:2:0:0:
266,299,40894,2,0,P|208:321|181:329,1,53.9999983520508,2|0,3:2|0:0,0:0:0:0:
129,224,41109,1,2,3:2:0:0:
129,224,41216,1,0,0:0:0:0:
129,224,41323,2,0,P|187:246|214:254,1,53.9999983520508
331,52,41537,5,4,3:2:0:0:
331,52,41751,2,0,P|283:38|239:26,1,62.9999980773926,2|0,3:2|0:0,0:0:0:0:
393,233,41966,2,0,P|441:219|485:207,1,62.9999980773926,2|0,3:2|0:0,0:0:0:0:
275,156,42180,2,0,P|261:204|249:248,1,62.9999980773926,2|0,3:2|0:0,0:0:0:0:
468,101,42394,2,0,P|454:53|442:9,1,62.9999980773926,2|0,3:2|0:0,0:0:0:0:
264,161,42609,2,0,P|250:209|238:253,1,62.9999980773926,2|0,3:2|0:0,0:0:0:0:
474,91,42823,2,0,P|460:43|448:-1,1,62.9999980773926,2|0,3:2|0:0,0:0:0:0:
359,154,43037,2,0,P|360:116|386:143,1,94.499997116089,2|0,3:2|0:0,0:0:0:0:
386,142,43251,6,0,B|487:179|422:220|519:266,1,180,2|2,0:0|0:0,0:0:0:0:
312,332,44966,6,0,B|241:331|262:382|188:384,2,135.000005149842,6|2|8,3:2|0:3|3:2,0:0:0:0:
238,208,45501,1,0,0:0:0:0:
224,223,45609,2,0,P|203:301|200:329,1,67.5000025749208,2|0,0:0|0:0,0:0:0:0:
0,129,45823,1,2,3:2:0:0:
57,90,45930,1,0,0:0:0:0:
104,145,46037,2,0,P|137:137|169:126,1,67.5000025749208,2|0,0:3|0:0,0:0:0:0:
305,0,46251,2,0,P|276:15|264:66,1,67.5000025749208,10|0,3:2|0:0,0:0:0:0:
314,174,46466,2,0,P|343:159|355:108,1,67.5000025749208,2|0,0:0|0:0,0:0:0:0:
512,19,46680,6,0,P|478:131|455:233,1,202.500007724762,2|0,3:2|0:0,0:0:0:0:
502,372,47109,2,0,P|520:335|494:297,1,67.5000025749208,8|0,3:2|0:0,0:0:0:0:
403,321,47323,2,0,P|311:349|250:377,1,135.000005149842,2|0,0:0|3:0,0:0:0:0:
176,336,47644,1,0,0:0:0:0:
185,326,47751,2,0,P|200:278|214:243,1,67.5000025749208,2|0,0:0|0:0,0:0:0:0:
137,189,47966,2,0,P|122:141|108:106,1,67.5000025749208,8|0,3:2|0:0,0:0:0:0:
307,106,48180,2,0,L|191:143,1,67.5000025749208,2|0,0:0|0:0,0:0:0:0:
117,1,48394,6,0,P|212:24|273:38,2,135.000005149842,2|2|8,3:2|0:3|3:2,0:0:0:0:
39,68,48930,1,0,0:0:0:0:
25,83,49037,2,0,L|-12:199,1,67.5000025749208,2|0,0:0|0:0,0:0:0:0:
122,294,49251,2,0,P|99:199|85:138,2,135.000005149842,2|2|8,3:2|0:3|3:2,0:0:0:0:
18,384,49787,1,0,0:0:0:0:
1,372,49894,2,0,P|19:344|52:336,1,67.5000025749208,2|0,0:0|0:0,0:0:0:0:
188,233,50109,6,0,B|267:223|239:281|336:276,2,135.000005149842,2|2|8,3:2|0:3|3:2,0:0:0:0:
298,181,50644,1,0,0:0:0:0:
311,166,50751,2,0,P|334:95|333:67,1,67.5000025749208,2|0,0:0|0:0,0:0:0:0:
220,43,50966,2,0,P|227:75|242:106,1,67.5000025749208,2|0,3:2|0:0,0:0:0:0:
390,215,51180,2,0,P|463:193|491:187,1,67.5000025749208,2|0,0:0|0:0,0:0:0:0:
317,287,51394,2,0,P|244:265|216:259,1,67.5000025749208,10|0,3:2|0:0,0:0:0:0:
434,378,51609,2,0,P|412:305|406:277,1,67.5000025749208,2|0,0:0|0:0,0:0:0:0:
178,180,51823,6,0,P|161:245|139:309,2,135.000005149842,6|2|8,3:2|0:3|3:2,0:0:0:0:
60,260,52359,1,0,0:0:0:0:
47,243,52466,2,0,P|25:170|19:142,1,67.5000025749208,2|0,0:0|0:0,0:0:0:0:
133,44,52680,1,0,3:0:0:0:
186,84,52787,1,0,0:0:0:0:
239,43,52894,2,0,P|284:47|306:60,1,67.5000025749208,2|0,0:3|0:0,0:0:0:0:
450,112,53109,2,0,B|460:80|460:80|445:36,1,67.5000025749208,10|0,3:2|0:0,0:0:0:0:
346,167,53323,2,0,B|336:199|336:199|351:243,1,67.5000025749208,2|0,0:0|0:0,0:0:0:0:
511,304,53537,6,0,B|404:286|442:377|329:378,1,202.500007724762,2|0,3:2|0:0,0:0:0:0:
224,240,53966,2,0,P|270:305|263:326,1,67.5000025749208,8|0,3:2|0:0,0:0:0:0:
162,384,54180,2,0,P|140:303|117:231,1,135.000005149842,2|0,0:0|3:0,0:0:0:0:
15,245,54501,1,0,0:0:0:0:
1,260,54609,2,0,P|23:179|46:107,1,135.000005149842,2|8,0:0|3:2,0:0:0:0:
121,29,54930,1,0,0:0:0:0:
138,39,55037,2,0,P|160:76|135:129,1,67.5000025749208,2|0,0:0|0:0,0:0:0:0:
327,144,55251,6,0,P|248:150|222:217,2,135.000005149842,6|2|8,3:2|0:3|3:2,0:0:0:0:
384,81,55787,1,0,0:0:0:0:
398,95,55894,2,0,P|419:168|423:184,1,67.5000025749208,2|0,0:0|0:0,0:0:0:0:
339,312,56109,1,2,3:2:0:0:
389,267,56216,1,0,0:0:0:0:
406,341,56323,2,0,P|295:318|250:313,1,135.000005149842,2|8,0:3|3:2,0:0:0:0:
152,240,56644,1,0,0:0:0:0:
136,253,56751,2,0,P|119:289|131:341,1,67.5000025749208,2|0,0:0|0:0,0:0:0:0:
253,214,56966,6,0,P|267:162|285:116,1,67.5000025749208,6|0,3:2|0:0,0:0:0:0:
374,87,57180,1,0,3:0:0:0:
432,122,57287,1,0,3:0:0:0:
468,65,57394,2,0,P|459:32|449:0,1,67.5000025749208,8|0,3:2|0:0,0:0:0:0:
296,0,57609,1,0,3:0:0:0:
251,55,57716,1,0,3:0:0:0:
165,73,57823,5,4,3:0:0:0:
102,47,57930,1,4,3:0:0:0:
38,69,58037,1,4,3:0:0:0:
3,126,58144,1,4,3:0:0:0:
8,193,58251,2,0,P|61:178|90:174,1,67.5000025749208,8|0,3:2|0:0,0:0:0:0:
211,238,58466,5,2,3:2:0:0:
148,292,58573,1,2,0:0:0:0:
226,318,58680,1,2,0:0:0:0:
336,247,58947,5,8,3:0:0:0:
333,238,59001,1,8,3:0:0:0:
330,229,59054,1,8,3:0:0:0:
327,219,59109,6,0,L|346:128,1,67.5000025749208,14|0,3:2|0:0,0:0:0:0:
512,58,59323,1,2,0:0:0:0:
471,4,59430,1,2,0:0:0:0:
440,64,59537,2,0,L|459:155,1,67.5000025749208,0|0,3:2|0:0,0:0:0:0:
349,64,59751,2,0,L|274:43,1,67.5000025749208,2|0,0:0|0:0,0:0:0:0:
434,230,59966,2,0,L|509:209,1,67.5000025749208,10|0,3:2|0:0,0:0:0:0:
336,71,60180,2,0,L|261:50,1,67.5000025749208,2|0,0:0|0:0,0:0:0:0:
94,74,60394,6,0,P|176:91|182:176,1,135.000005149842,2|2,3:2|0:3,0:0:0:0:
262,175,60716,2,0,P|272:201|256:241,1,67.5000025749208,2|8,0:0|3:2,0:0:0:0:
82,207,60930,1,0,0:0:0:0:
73,202,61037,2,0,P|110:284|123:328,1,135.000005149842,2|0,0:0|3:0,0:0:0:0:
192,381,61359,1,0,0:0:0:0:
199,372,61466,2,0,P|259:356|288:346,1,67.5000025749208,2|0,0:0|0:0,0:0:0:0:
376,302,61680,2,0,P|316:286|287:276,1,67.5000025749208,10|0,3:2|0:0,0:0:0:0:
410,384,61894,2,0,P|470:368|499:358,1,67.5000025749208,2|0,0:0|0:0,0:0:0:0:
491,216,62109,6,0,P|475:251|482:300,1,67.5000025749208,2|0,3:2|0:0,0:0:0:0:
286,145,62323,1,2,0:0:0:0:
331,91,62430,1,2,0:0:0:0:
375,145,62537,2,0,P|391:180|384:229,1,67.5000025749208,10|0,3:2|0:0,0:0:0:0:
512,12,62751,1,2,0:0:0:0:
462,59,62859,1,2,0:0:0:0:
406,20,62966,2,0,P|337:-2|309:-8,1,67.5000025749208,2|0,3:2|0:0,0:0:0:0:
255,57,63180,2,0,P|222:66|190:77,1,67.5000025749208,2|0,0:0|0:0,0:0:0:0:
24,88,63394,2,0,B|12:58|12:58|26:25,1,67.5000025749208,10|0,3:2|0:0,0:0:0:0:
118,169,63609,2,0,B|132:202|132:202|120:231,1,67.5000025749208,2|0,0:0|0:0,0:0:0:0:
44,352,63823,6,0,P|149:326|204:322,1,135.000005149842,2|2,3:2|0:3,0:0:0:0:
258,348,64144,2,0,B|277:319|277:319|259:268,1,67.5000025749208,2|8,0:0|3:2,0:0:0:0:
219,170,64359,1,0,0:0:0:0:
210,163,64466,2,0,B|277:138|277:138|322:183,1,135.000005149842,2|0,0:0|3:0,0:0:0:0:
405,224,64787,1,0,0:0:0:0:
410,235,64894,2,0,P|445:252|497:225,1,67.5000025749208,2|0,0:0|0:0,0:0:0:0:
512,128,65109,2,0,P|478:125|449:140,1,67.5000025749208,10|0,3:2|0:0,0:0:0:0:
341,27,65323,2,0,P|376:44|428:17,1,67.5000025749208,2|0,0:0|0:0,0:0:0:0:
314,195,65537,6,0,P|306:162|296:130,1,67.5000025749208,14|0,3:2|0:0,0:0:0:0:
96,51,65751,1,2,0:0:0:0:
141,0,65859,1,2,0:0:0:0:
177,56,65966,2,0,P|166:88|159:120,1,67.5000025749208,10|0,3:2|0:0,0:0:0:0:
57,292,66180,1,2,0:0:0:0:
3,252,66287,1,2,0:0:0:0:
44,198,66394,2,0,P|91:217|139:231,1,67.5000025749208,10|0,3:2|0:0,0:0:0:0:
237,338,66609,2,0,P|205:349|174:362,1,67.5000025749208,2|0,0:0|0:0,0:0:0:0:
174,122,66823,2,0,P|194:197|209:292,1,135.000005149842,8|2,3:2|3:2,0:0:0:0:
292,123,67144,1,0,3:0:0:0:
332,177,67251,6,0,B|416:201|359:222|465:256,1,135.000005149842,10|2,3:2|0:3,0:0:0:0:
506,203,67573,2,0,P|522:180|488:131,1,67.5000025749208,2|8,0:0|3:2,0:0:0:0:
484,326,67787,1,0,0:0:0:0:
494,332,67894,2,0,P|417:357|343:403,1,135.000005149842,2|8,0:0|3:2,0:0:0:0:
246,240,68216,1,0,0:0:0:0:
261,252,68323,2,0,P|283:285|282:347,1,67.5000025749208,2|0,0:0|0:0,0:0:0:0:
162,206,68537,2,0,P|179:170|233:140,1,67.5000025749208,10|0,3:2|0:0,0:0:0:0:
170,307,68751,2,0,P|130:309|77:277,1,67.5000025749208,2|0,0:0|3:0,0:0:0:0:
0,171,68966,6,0,L|28:275,1,67.5000025749208,10|0,3:2|0:0,0:0:0:0:
98,102,69180,2,0,L|70:206,1,67.5000025749208,2|0,0:0|0:0,0:0:0:0:
151,1,69394,2,0,L|179:105,1,67.5000025749208,10|0,3:2|0:0,0:0:0:0:
265,23,69609,2,0,L|237:127,1,67.5000025749208,2|0,0:0|0:0,0:0:0:0:
331,87,69823,2,0,L|359:191,1,67.5000025749208,10|0,3:2|0:0,0:0:0:0:
438,28,70037,2,0,L|410:132,1,67.5000025749208,2|0,0:0|0:0,0:0:0:0:
500,123,70251,2,0,L|523:223,1,67.5000025749208,10|0,3:2|0:0,0:0:0:0:
361,367,70466,5,6,3:2:0:0:
315,317,70573,1,0,3:0:0:0:
349,259,70680,1,0,3:0:0:0:
415,270,70787,1,0,3:0:0:0:
426,336,70894,1,8,3:0:0:0:
373,377,71001,1,0,3:0:0:0:
306,361,71109,1,8,3:2:0:0:
259,312,71216,1,0,3:0:0:0:
197,283,71323,1,0,3:0:0:0:
133,305,71430,1,0,3:0:0:0:
89,356,71537,5,4,3:0:0:0:
130,294,71644,1,4,3:0:0:0:
105,223,71751,1,4,3:0:0:0:
55,166,71859,1,4,3:0:0:0:
10,225,71966,1,12,3:2:0:0:
168,63,72180,5,0,3:0:0:0:
233,78,72287,1,0,3:0:0:0:
298,93,72394,6,0,P|380:72|460:52,2,125.999996154785,6|2|8,3:2|0:3|3:2,0:0:0:0:
261,163,72930,1,0,0:0:0:0:
274,176,73037,2,0,P|292:216|284:259,1,62.9999980773926,2|0,0:0|0:0,0:0:0:0:
407,337,73251,1,0,3:0:0:0:
398,319,73359,1,0,0:0:0:0:
385,333,73466,2,0,P|331:315|269:311,1,62.9999980773926,2|0,0:3|0:0,0:0:0:0:
250,353,73680,2,0,P|190:375|108:380,1,125.999996154785,8|0,3:2|0:0,0:0:0:0:
13,247,74001,1,0,0:0:0:0:
24,231,74109,6,0,P|47:180|51:133,1,62.9999980773926,2|0,3:2|0:0,0:0:0:0:
125,232,74323,2,0,P|134:262|149:289,1,62.9999980773926,2|0,0:3|0:0,0:0:0:0:
253,190,74537,2,0,P|193:171|161:160,1,62.9999980773926,8|0,3:2|0:0,0:0:0:0:
126,96,74751,1,2,0:0:0:0:
136,80,74859,1,0,0:0:0:0:
151,91,74966,2,0,P|210:72|242:61,1,62.9999980773926,0|0,3:0|0:0,0:0:0:0:
324,8,75180,2,0,P|308:40|322:86,1,62.9999980773926,2|0,0:3|0:0,0:0:0:0:
416,168,75394,2,0,P|432:136|383:50,1,125.999996154785,8|2,3:2|0:3,0:0:0:0:
343,212,75716,1,0,0:0:0:0:
354,226,75823,6,0,P|386:290|393:318,1,62.9999980773926,2|0,3:2|0:0,0:0:0:0:
436,375,76037,2,0,P|449:346|466:320,1,62.9999980773926,2|0,0:3|0:0,0:0:0:0:
293,302,76251,2,0,B|224:308|259:357|160:360,1,125.999996154785,8|0,3:2|0:0,0:0:0:0:
76,280,76573,1,0,0:0:0:0:
69,297,76680,2,0,L|41:404,1,62.9999980773926,0|0,3:0|0:0,0:0:0:0:
170,268,76894,2,0,L|154:207,1,62.9999980773926,2|0,0:3|0:0,0:0:0:0:
0,97,77109,2,0,P|61:139|111:128,1,125.999996154785,8|2,3:2|0:3,0:0:0:0:
179,63,77430,1,0,0:0:0:0:
193,51,77537,6,0,P|233:44|268:69,1,62.9999980773926,0|0,3:0|0:0,0:0:0:0:
366,125,77751,2,0,B|375:92|375:92|358:53,1,62.9999980773926,2|0,0:0|0:0,0:0:0:0:
272,166,77966,2,0,B|263:199|263:199|280:238,1,62.9999980773926,10|0,3:2|0:0,0:0:0:0:
421,292,78180,2,0,P|381:285|346:310,1,62.9999980773926,2|0,0:0|0:0,0:0:0:0:
298,366,78394,1,2,3:2:0:0:
280,359,78501,1,0,0:0:0:0:
262,352,78609,1,0,0:0:0:0:
244,345,78716,1,0,0:0:0:0:
224,337,78823,2,0,B|147:329|175:382|62:381,1,125.999996154785,10|2,3:2|0:3,0:0:0:0:
0,288,79144,1,0,0:0:0:0:
17,279,79251,6,0,P|73:297|102:297,1,62.9999980773926,6|0,3:2|0:0,0:0:0:0:
132,227,79466,2,0,P|188:209|217:209,1,62.9999980773926,2|0,0:3|0:0,0:0:0:0:
275,95,79680,2,0,P|257:151|257:180,1,62.9999980773926,8|0,3:2|0:0,0:0:0:0:
347,269,79894,2,0,P|341:238|328:209,1,62.9999980773926,2|0,0:0|0:0,0:0:0:0:
157,97,80109,1,0,3:0:0:0:
170,110,80216,1,0,0:0:0:0:
160,125,80323,2,0,B|126:129|126:129|85:103,1,62.9999980773926,2|0,0:3|0:0,0:0:0:0:
219,17,80537,2,0,P|272:12|348:-2,1,125.999996154785,8|2,3:2|0:3,0:0:0:0:
460,64,80859,1,0,3:0:0:0:
448,78,80966,6,0,P|432:174|429:254,1,125.999996154785,2|2,3:2|0:3,0:0:0:0:
489,354,81287,1,0,0:0:0:0:
498,337,81394,2,0,P|409:299|359:359,1,125.999996154785,8|2,3:2|0:0,0:0:0:0:
257,384,81716,1,0,0:0:0:0:
268,368,81823,2,0,P|288:302|286:266,1,62.9999980773926,0|0,3:0|0:0,0:0:0:0:
317,164,82037,2,0,P|323:194|336:223,1,62.9999980773926,2|0,0:3|0:0,0:0:0:0:
193,305,82251,2,0,P|146:265|85:275,1,125.999996154785,8|2,3:2|0:3,0:0:0:0:
204,176,82573,1,0,3:0:0:0:
142,150,82680,6,0,P|73:180|-7:191,1,125.999996154785,6|0,3:2|3:0,0:0:0:0:
181,6,83001,1,0,0:0:0:0:
231,53,83109,2,0,P|248:93|272:135,1,62.9999980773926,8|0,3:2|0:0,0:0:0:0:
350,240,83323,2,0,P|364:211|376:182,1,62.9999980773926,2|0,3:2|0:0,0:0:0:0:
512,32,83537,1,8,3:2:0:0:
451,1,83644,1,0,3:0:0:0:
412,54,83751,2,0,P|386:76|343:75,1,72,0|0,3:0|0:0,0:0:0:0:
74,146,83966,6,0,P|118:162|162:181,1,94.499997116089,8|0,3:2|0:0,0:0:0:0:
350,350,84180,2,0,P|305:366|262:384,1,94.499997116089,8|0,3:2|0:0,0:0:0:0:
334,45,86109,5,4,0:2:0:0:
