osu file format v14

[General]
AudioFilename: World Trigger Opening Theme (TV Edit).mp3
AudioLeadIn: 0
PreviewTime: 43771
Countdown: 0
SampleSet: Normal
StackLeniency: 0.7
Mode: 0
LetterboxInBreaks: 0
WidescreenStoryboard: 1

[Editor]
DistanceSpacing: 1
BeatDivisor: 2
GridSize: 4
TimelineZoom: 1

[Metadata]
Title:GIRIGIRI (TV size)
TitleUnicode:GIRIGIRI (TV size)
Artist:Sonar Pocket
ArtistUnicode:ソナーポケット
Creator:Bere
Version:Normal
Source:ワールドトリガー
Tags:world trigger anime op tv size Sayanzi Underforest
BeatmapID:807419
BeatmapSetID:353653

[Difficulty]
HPDrainRate:4.5
CircleSize:3.5
OverallDifficulty:5
ApproachRate:5
SliderMultiplier:1
SliderTickRate:2

[Events]
//Background and Video events
0,0,"bnINGJ9.jpg",0,0
Video,0,"World Trigger Opening GIRIGIRI by Sonar Pocket.avi"
//Break Periods
//Storyboard Layer 0 (Background)
//Storyboard Layer 1 (Fail)
//Storyboard Layer 2 (Pass)
//Storyboard Layer 3 (Foreground)
//Storyboard Sound Samples

[TimingPoints]
1986,428.571428571429,4,1,0,50,1,0
31128,-100,4,2,0,80,0,0
44843,-100,4,2,0,50,0,1
72271,-100,4,1,0,50,0,0
84486,-100,4,1,0,50,0,0

[Colours]
Combo1 : 24,15,196
Combo2 : 128,128,255
Combo3 : 128,0,255

[HitObjects]
308,172,1986,6,0,P|396:279|297:367,1,300,0|0,0:0|0:0,0:0:0:0:
296,268,3700,1,0,0:0:0:0:
212,216,4128,1,0,0:0:0:0:
284,144,4557,1,0,0:0:0:0:
212,76,4986,1,0,0:0:0:0:
128,24,5414,6,0,P|184:180|280:148,1,300
340,72,7128,2,0,P|404:72|436:112,2,100
356,172,8414,1,0,0:0:0:0:
256,168,8843,5,0,0:0:0:0:
300,256,9271,1,8,0:0:0:0:
212,304,9700,2,8,P|252:356|308:360,1,100
352,292,10557,1,0,0:0:0:0:
404,208,10986,2,8,P|404:140|376:100,1,100
316,44,11843,1,8,0:0:0:0:
216,60,12271,5,8,0:0:0:0:
116,76,12700,1,8,0:0:0:0:
92,172,13128,2,8,P|128:208|196:216,1,100
260,272,13986,2,8,P|212:316|156:316,1,100
96,264,14843,1,8,0:0:0:0:
40,184,15271,1,0,0:0:0:0:
100,104,15700,6,0,B|172:164|292:56|400:156,1,300
476,100,17414,2,4,P|508:144|496:220,1,100
424,240,18271,1,0,0:0:0:0:
324,232,18700,1,0,0:0:0:0:
288,324,19128,5,0,0:0:0:0:
196,364,19557,2,0,P|168:368|124:368,2,50
168,268,20414,1,0,0:0:0:0:
128,176,20843,2,0,P|132:112|164:92,1,100
244,44,21700,2,0,P|352:60|360:60,1,100
400,144,22557,6,0,P|436:192|440:244,1,100
436,280,23200,1,0,0:0:0:0:
392,304,23414,2,0,P|348:340|280:328,1,100
208,364,24271,2,0,P|144:344|116:304,1,100
212,268,25128,2,0,P|244:224|224:164,1,100
240,76,25986,5,0,0:0:0:0:
144,100,26414,1,0,0:0:0:0:
100,124,26628,1,0,0:0:0:0:
84,172,26843,2,0,P|89:221|135:264,1,100
192,200,27700,1,0,0:0:0:0:
212,300,28128,2,0,P|284:328|336:324,1,100
396,284,28986,1,0,0:0:0:0:
416,192,29414,6,0,P|384:56|304:48,1,200
336,136,30700,1,0,0:0:0:0:
256,192,31128,1,4,0:0:0:0:
164,236,31557,1,8,0:0:0:0:
252,284,31986,2,0,P|316:276|344:212,1,100
328,148,32843,5,8,0:0:0:0:
236,112,33271,1,8,0:0:0:0:
136,116,33700,1,8,0:0:0:0:
84,204,34128,2,8,P|100:256|148:296,1,100
228,320,34986,1,8,0:0:0:0:
300,252,35414,2,0,P|389:279|427:254,1,100
452,204,36271,5,8,0:0:0:0:
424,108,36700,1,8,0:0:0:0:
320,108,37128,1,8,0:0:0:0:
244,44,37557,2,8,P|196:40|156:84,1,100
136,172,38414,1,8,0:0:0:0:
52,228,38843,2,0,P|36:252|44:292,2,50,0|8|0,0:0|0:0|0:0,0:0:0:0:
140,276,39700,6,8,P|200:272|236:228,2,100
156,176,40986,2,8,P|176:128|236:112,1,100
316,104,41843,2,8,P|372:116|400:160,1,100
472,216,42700,1,8,0:0:0:0:
476,316,43128,2,8,P|440:356|380:344,1,100
300,328,43986,1,0,0:0:0:0:
252,240,44414,1,0,0:0:0:0:
320,164,44843,1,4,0:0:0:0:
312,64,45271,1,8,0:0:0:0:
216,92,45700,1,8,0:0:0:0:
280,168,46128,1,8,0:0:0:0:
356,232,46557,5,8,0:0:0:0:
288,304,46986,2,8,P|228:320|180:292,1,100
128,232,47843,2,8,P|104:176|124:128,1,100
184,68,48700,2,8,P|260:52|320:80,1,100
368,104,49557,2,8,P|428:172|412:200,1,100
420,268,50414,6,0,L|372:292,2,50,8|0|8,0:0|0:0|0:0,0:0:0:0:
392,228,51057,2,0,L|344:252,2,50,0|8|0,0:0|0:0|0:0,0:0:0:0:
420,188,51700,2,12,P|424:136|368:92,1,100
296,76,52557,1,8,0:0:0:0:
212,132,52986,1,8,0:0:0:0:
284,200,53414,5,8,0:0:0:0:
220,276,53843,2,8,P|312:300|388:220,1,200
400,188,54914,1,0,0:0:0:0:
424,144,55128,2,12,P|392:104|328:92,1,100
300,112,55771,1,0,0:0:0:0:
256,136,55986,2,12,P|199:107|157:133,1,100
128,148,56628,1,0,0:0:0:0:
92,184,56843,6,12,B|144:332|284:232,1,200
276,160,58128,2,8,P|284:112|252:56,2,100,8|8|12,0:0|0:0|0:0,0:0:0:0:
180,132,59414,1,8,0:0:0:0:
116,212,59843,2,8,P|52:176|56:140,2,100
124,260,60914,2,0,B|128:348|248:348,1,150
320,312,61986,5,8,0:0:0:0:
420,308,62414,1,8,0:0:0:0:
420,208,62843,1,8,0:0:0:0:
320,188,63271,1,8,0:0:0:0:
272,276,63700,2,8,P|228:304|164:288,2,100
272,184,64986,1,8,0:0:0:0:
184,184,65414,5,12,0:0:0:0:
252,244,65843,1,8,0:0:0:0:
296,164,66271,1,8,0:0:0:0:
384,184,66700,2,8,P|388:116|332:88,2,100
400,228,67771,2,0,P|384:296|304:328,1,150
232,324,68843,6,8,P|176:304|120:244,2,100
320,276,70128,2,0,P|364:232|352:144,2,150,0|8|0,0:0|0:0|0:0,0:0:0:0:
280,184,71843,1,0,0:0:0:0:
288,84,72271,2,8,B|248:44|192:40|140:68|120:116,1,200
216,144,73557,1,8,0:0:0:0:
224,244,73986,2,8,B|268:280|324:284|376:256|396:208,1,200
300,176,75271,1,8,0:0:0:0:
372,104,75700,2,8,B|328:68|272:64|220:92|204:144,2,200
456,160,77843,1,8,0:0:0:0:
464,260,78271,1,8,0:0:0:0:
364,268,78700,1,8,0:0:0:0:
368,168,79128,6,12,B|368:120|294:64|208:100|191:150,1,200
276,208,80414,1,8,0:0:0:0:
364,256,80843,2,8,B|280:361|167:253,1,200
276,220,82128,1,8,0:0:0:0:
200,160,82557,6,8,B|240:124|292:104|348:140|368:196,2,200
100,176,84700,1,0,0:0:0:0:
104,76,85128,1,0,0:0:0:0:
20,128,85557,1,0,0:0:0:0:
16,228,85986,5,4,0:0:0:0:
