osu file format v14

[General]
AudioFilename: World Trigger Opening Theme (TV Edit).mp3
AudioLeadIn: 0
PreviewTime: 43771
Countdown: 0
SampleSet: Normal
StackLeniency: 0.7
Mode: 0
LetterboxInBreaks: 0
WidescreenStoryboard: 1

[Editor]
DistanceSpacing: 1.7
BeatDivisor: 4
GridSize: 4
TimelineZoom: 1

[Metadata]
Title:GIRIGIRI (TV size)
TitleUnicode:GIRIGIRI (TV size)
Artist:Sonar Pocket
ArtistUnicode:ソナーポケット
Creator:Bere
Version:Insane
Source:ワールドトリガー
Tags:world trigger anime op tv size Sayanzi Underforest
BeatmapID:806967
BeatmapSetID:353653

[Difficulty]
HPDrainRate:6
CircleSize:4
OverallDifficulty:7
ApproachRate:9
SliderMultiplier:1.5
SliderTickRate:1

[Events]
//Background and Video events
0,0,"bnINGJ9.jpg",0,0
Video,0,"World Trigger Opening GIRIGIRI by Sonar Pocket.avi"
//Break Periods
//Storyboard Layer 0 (Background)
//Storyboard Layer 1 (Fail)
//Storyboard Layer 2 (Pass)
//Storyboard Layer 3 (Foreground)
//Storyboard Sound Samples

[TimingPoints]
1986,428.571428571429,4,2,0,50,1,0
31128,-66.6666666666667,4,2,0,100,0,0
44843,-66.6666666666667,4,1,0,75,0,1
72271,-66.6666666666667,4,1,0,75,0,0
84486,-66.6666666666667,4,1,0,75,0,0

[Colours]
Combo1 : 24,15,196
Combo2 : 128,128,255
Combo3 : 128,0,255

[HitObjects]
256,116,1986,5,0,0:0:0:0:
120,180,2200,1,0,0:0:0:0:
204,304,2414,1,0,0:0:0:0:
256,116,2628,1,0,0:0:0:0:
328,248,2843,1,0,0:0:0:0:
180,228,3057,1,0,0:0:0:0:
316,172,3271,6,0,P|364:108|324:36,1,150
208,44,3914,2,0,L|170:44,1,37.5
140,100,4128,2,0,L|232:100,1,75
252,152,4450,1,0,0:0:0:0:
316,140,4557,2,0,P|312:184|276:220,1,75
288,272,4878,2,0,L|228:272,1,37.5
160,180,5200,1,0,0:0:0:0:
284,200,5414,6,0,P|360:168|404:96,1,150
280,72,6057,1,0,0:0:0:0:
156,44,6271,1,0,0:0:0:0:
152,172,6486,1,0,0:0:0:0:
240,264,6700,2,0,P|284:276|324:264,1,75
392,172,7128,6,0,L|348:172,1,37.5
292,172,7343,1,0,0:0:0:0:
248,52,7557,2,0,P|212:60|172:96,1,75
108,188,7986,1,0,0:0:0:0:
168,300,8200,1,0,0:0:0:0:
296,304,8414,2,0,P|340:276|356:224,1,75
244,188,8843,5,0,0:0:0:0:
352,120,9057,1,0,0:0:0:0:
236,64,9271,1,8,0:0:0:0:
324,188,9486,1,0,0:0:0:0:
340,32,9700,1,8,0:0:0:0:
232,136,9914,1,0,0:0:0:0:
84,168,10128,6,8,P|120:248|192:276,1,150,8|10,0:0|0:0,0:0:0:0:
324,280,10771,1,8,0:0:0:0:
340,260,10878,1,0,0:0:0:0:
356,236,10986,1,0,0:0:0:0:
336,88,11200,2,0,L|352:48,2,37.5,0|2|0,0:0|0:0|0:0,0:0:0:0:
196,36,11628,1,0,0:0:0:0:
180,60,11736,1,0,0:0:0:0:
164,80,11843,1,8,0:0:0:0:
224,212,12057,1,0,0:0:0:0:
260,68,12271,6,8,P|324:100|360:180,1,150,8|10,0:0|0:0,0:0:0:0:
272,296,12914,1,0,0:0:0:0:
124,292,13128,1,8,0:0:0:0:
208,164,13343,1,0,0:0:0:0:
332,252,13557,1,8,0:0:0:0:
208,332,13771,1,0,0:0:0:0:
272,196,13986,5,8,0:0:0:0:
420,192,14200,1,0,0:0:0:0:
340,316,14414,1,8,0:0:0:0:
196,268,14628,1,0,0:0:0:0:
276,156,14843,1,8,0:0:0:0:
356,264,15057,1,0,0:0:0:0:
240,332,15271,1,4,0:0:0:0:
104,332,15486,6,0,P|72:292|72:252,1,75,0|10,0:0|0:0,0:0:0:0:
104,140,15914,2,0,P|140:108|192:96,1,75,0|2,0:0|0:0,0:0:0:0:
196,212,16343,1,0,0:0:0:0:
112,320,16557,2,0,P|144:348|200:360,1,75,0|2,0:0|0:0,0:0:0:0:
292,292,16986,2,0,P|316:252|328:212,1,75,0|2,0:0|0:0,0:0:0:0:
404,108,17414,6,0,P|328:88|248:128,1,150,4|0,0:0|0:0,0:0:0:0:
132,120,18057,1,2,0:0:0:0:
208,48,18271,2,0,P|236:100|200:204,1,150,0|2,0:0|0:0,0:0:0:0:
156,288,18914,1,2,0:0:0:0:
284,288,19128,5,0,0:0:0:0:
216,185,19343,1,2,0:0:0:0:
88,264,19557,1,0,0:0:0:0:
216,340,19771,1,2,0:0:0:0:
328,240,19986,2,0,P|376:184|392:96,1,150,0|2,0:0|0:0,0:0:0:0:
248,76,20628,1,2,0:0:0:0:
100,104,20843,6,0,P|124:176|208:208,1,150,0|2,0:0|0:0,0:0:0:0:
336,208,21486,1,2,0:0:0:0:
476,208,21700,2,0,P|460:280|384:332,1,150,0|2,0:0|0:0,0:0:0:0:
252,352,22343,1,2,0:0:0:0:
124,272,22557,5,0,0:0:0:0:
256,200,22771,1,2,0:0:0:0:
252,48,22986,1,0,0:0:0:0:
384,116,23200,1,2,0:0:0:0:
384,116,23414,2,0,P|408:196|348:268,1,150,0|2,0:0|0:0,0:0:0:0:
224,252,24057,1,2,0:0:0:0:
303,188,24271,6,0,P|329:261|268:339,1,150,0|2,0:0|0:0,0:0:0:0:
224,252,24914,1,2,0:0:0:0:
164,156,25128,2,0,P|113:224|130:306,1,150,0|2,0:0|0:0,0:0:0:0:
212,352,25771,1,2,0:0:0:0:
76,348,25986,5,0,0:0:0:0:
80,212,26200,1,2,0:0:0:0:
88,76,26414,1,0,0:0:0:0:
176,176,26628,1,2,0:0:0:0:
196,312,26843,2,0,P|256:352|334:348,1,150,0|2,0:0|0:0,0:0:0:0:
448,276,27486,1,2,0:0:0:0:
448,240,27593,1,0,0:0:0:0:
444,204,27701,6,0,P|448:164|416:124,1,75,0|2,0:0|0:0,0:0:0:0:
300,204,28128,1,0,0:0:0:0:
272,68,28343,1,2,0:0:0:0:
172,160,28557,1,0,0:0:0:0:
304,140,28771,1,2,0:0:0:0:
116,52,28986,1,0,0:0:0:0:
224,220,29200,1,2,0:0:0:0:
440,176,29414,5,0,0:0:0:0:
344,328,29628,1,0,0:0:0:0:
368,148,29843,1,0,0:0:0:0:
276,304,30057,1,0,0:0:0:0:
296,124,30271,1,0,0:0:0:0:
212,284,30486,1,0,0:0:0:0:
232,104,30700,1,0,0:0:0:0:
144,260,30914,1,0,0:0:0:0:
160,80,31128,5,4,0:0:0:0:
0,168,31343,5,0,0:0:0:0:
36,196,31450,1,0,0:0:0:0:
80,208,31557,1,8,0:0:0:0:
120,188,31664,1,0,0:0:0:0:
160,168,31771,1,0,0:0:0:0:
204,164,31878,1,0,0:0:0:0:
248,188,31986,1,8,0:0:0:0:
376,308,32200,1,0,0:0:0:0:
420,140,32414,1,8,0:0:0:0:
272,60,32628,1,8,0:0:0:0:
220,84,32736,1,0,0:0:0:0:
172,112,32843,5,8,0:0:0:0:
24,232,33057,1,8,0:0:0:0:
56,276,33164,1,0,0:0:0:0:
92,320,33271,1,0,0:0:0:0:
212,204,33486,1,8,0:0:0:0:
328,324,33700,1,8,0:0:0:0:
304,156,33914,1,8,0:0:0:0:
236,312,34128,5,8,0:0:0:0:
196,308,34236,1,0,0:0:0:0:
164,288,34343,1,8,0:0:0:0:
132,264,34450,1,0,0:0:0:0:
92,176,34557,1,8,0:0:0:0:
252,72,34771,5,0,0:0:0:0:
420,76,34985,1,8,0:0:0:0:
324,216,35200,1,0,0:0:0:0:
204,68,35414,1,8,0:0:0:0:
396,72,35628,1,0,0:0:0:0:
316,244,35842,1,8,0:0:0:0:
184,112,36057,1,0,0:0:0:0:
352,120,36271,5,8,0:0:0:0:
256,260,36486,1,0,0:0:0:0:
96,212,36700,1,8,0:0:0:0:
228,120,36914,1,0,0:0:0:0:
356,236,37128,1,0,0:0:0:0:
340,260,37236,1,0,0:0:0:0:
324,280,37343,1,8,0:0:0:0:
132,296,37557,1,8,0:0:0:0:
116,276,37664,1,0,0:0:0:0:
100,252,37772,1,0,0:0:0:0:
152,68,37986,5,12,0:0:0:0:
344,60,38200,1,8,0:0:0:0:
416,64,38307,2,0,P|444:84|440:128,1,56.2500021457673,0|2,0:0|0:0,0:0:0:0:
432,296,38628,1,0,0:0:0:0:
408,328,38736,1,0,0:0:0:0:
376,348,38843,1,8,0:0:0:0:
260,224,39057,1,0,0:0:0:0:
128,332,39271,1,8,0:0:0:0:
72,172,39486,1,0,0:0:0:0:
88,136,39593,1,0,0:0:0:0:
120,112,39700,5,8,0:0:0:0:
268,32,39914,1,0,0:0:0:0:
416,116,40128,2,0,P|448:140|456:168,1,56.2500021457673,8|2,0:0|0:0,0:0:0:0:
456,240,40343,1,0,0:0:0:0:
312,328,40557,1,8,0:0:0:0:
148,304,40771,1,0,0:0:0:0:
148,304,40986,1,8,0:0:0:0:
256,24,41414,5,8,0:0:0:0:
368,192,41628,1,0,0:0:0:0:
260,364,41843,1,8,0:0:0:0:
144,192,42057,1,0,0:0:0:0:
260,52,42271,1,8,0:0:0:0:
392,188,42486,1,0,0:0:0:0:
252,320,42700,1,8,0:0:0:0:
108,196,42914,1,0,0:0:0:0:
108,196,43128,6,8,B|48:152|40:60|122:40|160:40,1,225.000008583069,8|10,0:0|0:0,0:0:0:0:
348,36,43771,1,0,0:0:0:0:
236,208,43986,1,0,0:0:0:0:
48,208,44200,1,0,0:0:0:0:
236,208,44414,1,0,0:0:0:0:
432,324,44628,1,0,0:0:0:0:
436,140,44843,6,4,B|432:72|376:20|296:20|248:48,1,225.000008583069,4|14,0:0|0:0,0:0:0:0:
108,132,45486,1,0,0:0:0:0:
108,296,45700,2,8,P|198:355|304:304,1,225.000008583069,8|10,0:0|0:0,0:0:0:0:
416,184,46343,1,0,0:0:0:0:
276,88,46557,5,8,0:0:0:0:
184,216,46771,1,0,0:0:0:0:
332,228,46986,2,0,P|308:304|240:344,1,112.500004291535,8|2,0:0|0:0,0:0:0:0:
140,348,47414,2,8,P|48:296|68:180,1,225.000008583069,8|10,0:0|0:0,0:0:0:0:
156,80,48057,6,0,P|208:48|272:68,1,112.500004291535,0|10,0:0|0:0,0:0:0:0:
340,176,48486,1,0,0:0:0:0:
212,256,48700,1,8,0:0:0:0:
388,328,48914,1,0,0:0:0:0:
388,328,49128,2,0,P|444:272|460:216,1,112.500004291535,8|2,0:0|0:0,0:0:0:0:
336,156,49557,1,8,0:0:0:0:
168,280,49771,1,0,0:0:0:0:
168,280,49986,6,0,P|148:200|152:140,1,112.500004291535,8|2,0:0|0:0,0:0:0:0:
280,84,50414,1,8,0:0:0:0:
460,28,50628,1,0,0:0:0:0:
480,64,50736,1,0,0:0:0:0:
480,104,50843,2,0,P|464:164|420:220,1,112.500004291535,8|2,0:0|0:0,0:0:0:0:
404,236,51164,1,0,0:0:0:0:
372,260,51271,1,8,0:0:0:0:
276,328,51486,1,0,0:0:0:0:
336,220,51700,6,0,B|248:160|204:276|108:168,1,225.000008583069,12|10,0:0|0:0,0:0:0:0:
16,84,52343,1,0,0:0:0:0:
108,136,52557,2,0,L|208:60,1,112.500004291535,8|2,0:0|0:0,0:0:0:0:
332,124,52986,1,8,0:0:0:0:
260,252,53200,6,0,L|152:280,1,112.500004291535,0|10,0:0|0:0,0:0:0:0:
32,192,53628,1,0,0:0:0:0:
184,92,53843,1,8,0:0:0:0:
332,212,54057,2,0,L|408:116,1,112.500004291535,0|10,0:0|0:0,0:0:0:0:
216,144,54486,1,0,0:0:0:0:
40,140,54700,1,8,0:0:0:0:
84,316,54914,1,0,0:0:0:0:
120,332,55021,1,0,0:0:0:0:
160,344,55128,5,8,0:0:0:0:
320,328,55343,2,0,P|380:292|408:224,1,112.500004291535,0|10,0:0|0:0,0:0:0:0:
420,112,55770,1,0,0:0:0:0:
388,88,55877,1,0,0:0:0:0:
348,84,55985,1,12,0:0:0:0:
212,68,56200,2,0,P|144:80|124:136,1,112.500004291535,0|10,0:0|0:0,0:0:0:0:
132,252,56628,1,0,0:0:0:0:
156,284,56736,1,0,0:0:0:0:
192,272,56843,5,12,0:0:0:0:
296,224,57057,1,0,0:0:0:0:
380,120,57271,1,8,0:0:0:0:
236,100,57486,1,0,0:0:0:0:
372,200,57700,1,8,0:0:0:0:
312,32,57914,1,0,0:0:0:0:
220,184,58128,1,8,0:0:0:0:
116,52,58343,1,8,0:0:0:0:
200,60,58450,6,0,L|260:72,1,56.2500021457673,0|2,0:0|0:0,0:0:0:0:
200,228,58771,1,0,0:0:0:0:
340,324,58986,1,12,0:0:0:0:
376,312,59093,1,0,0:0:0:0:
408,292,59200,1,0,0:0:0:0:
440,268,59307,1,0,0:0:0:0:
460,232,59414,1,8,0:0:0:0:
304,168,59628,1,0,0:0:0:0:
156,88,59843,1,8,0:0:0:0:
156,88,60057,1,0,0:0:0:0:
204,252,60271,6,8,P|272:336|376:252,1,225.000008583069,8|10,0:0|0:0,0:0:0:0:
232,188,60914,1,0,0:0:0:0:
408,220,61128,1,8,0:0:0:0:
416,28,61343,1,0,0:0:0:0:
244,136,61557,1,8,0:0:0:0:
152,292,61771,1,0,0:0:0:0:
72,116,61986,5,8,0:0:0:0:
260,64,62200,1,8,0:0:0:0:
356,64,62307,2,0,P|388:60|416:80,1,56.2500021457673,0|2,0:0|0:0,0:0:0:0:
260,192,62628,1,0,0:0:0:0:
452,196,62843,1,8,0:0:0:0:
272,264,63057,1,0,0:0:0:0:
88,208,63271,1,8,0:0:0:0:
212,356,63486,1,0,0:0:0:0:
384,276,63700,6,0,P|384:208|328:156,1,112.500004291535,8|2,0:0|0:0,0:0:0:0:
156,32,64128,1,8,0:0:0:0:
192,188,64343,2,0,P|251:169|280:104,1,112.500004291535,0|10,0:0|0:0,0:0:0:0:
80,112,64771,1,0,0:0:0:0:
100,296,64985,1,8,0:0:0:0:
296,184,65200,1,0,0:0:0:0:
140,24,65414,5,12,0:0:0:0:
108,248,65628,1,8,0:0:0:0:
188,260,65736,2,0,P|220:280|252:268,1,56.2500021457673,0|2,0:0|0:0,0:0:0:0:
240,120,66057,1,8,0:0:0:0:
320,116,66164,2,0,P|352:104|376:116,1,56.2500021457673,0|2,0:0|0:0,0:0:0:0:
356,284,66486,1,0,0:0:0:0:
436,136,66700,1,8,0:0:0:0:
308,24,66914,1,0,0:0:0:0:
156,100,67128,5,8,0:0:0:0:
244,260,67343,1,0,0:0:0:0:
408,332,67557,1,8,0:0:0:0:
408,332,67771,2,0,P|400:268|376:228,1,112.500004291535
220,164,68200,1,0,0:0:0:0:
220,164,68414,1,8,0:0:0:0:
52,188,68628,1,0,0:0:0:0:
156,324,68842,5,8,0:0:0:0:
296,328,69057,1,0,0:0:0:0:
408,236,69271,1,8,0:0:0:0:
404,68,69486,1,0,0:0:0:0:
216,104,69700,1,8,0:0:0:0:
44,192,69914,1,0,0:0:0:0:
224,192,70128,2,0,P|232:260|296:304,1,112.500004291535,8|2,0:0|0:0,0:0:0:0:
388,164,70557,6,0,L|424:108,2,56.2500021457673,8|2|2,0:0|0:0|0:0,0:0:0:0:
480,328,70986,1,8,0:0:0:0:
436,340,71093,1,0,0:0:0:0:
392,348,71200,1,0,0:0:0:0:
348,352,71307,1,0,0:0:0:0:
304,352,71414,1,8,0:0:0:0:
260,348,71521,1,0,0:0:0:0:
216,336,71628,1,0,0:0:0:0:
184,304,71736,1,0,0:0:0:0:
176,260,71843,1,8,0:0:0:0:
196,220,71950,1,0,0:0:0:0:
228,188,72057,1,0,0:0:0:0:
356,52,72271,5,12,0:0:0:0:
212,140,72486,1,0,0:0:0:0:
68,228,72700,1,8,0:0:0:0:
236,316,72914,1,0,0:0:0:0:
424,280,73128,1,8,0:0:0:0:
448,244,73236,1,0,0:0:0:0:
436,200,73343,1,0,0:0:0:0:
324,48,73557,1,8,0:0:0:0:
148,120,73771,1,0,0:0:0:0:
328,184,73986,5,8,0:0:0:0:
196,44,74200,1,0,0:0:0:0:
160,232,74414,1,8,0:0:0:0:
184,264,74521,1,0,0:0:0:0:
228,248,74628,1,0,0:0:0:0:
332,88,74843,1,8,0:0:0:0:
416,260,75057,1,0,0:0:0:0:
272,312,75271,2,0,P|224:348|160:320,1,112.500004291535,8|2,0:0|0:0,0:0:0:0:
76,196,75700,5,8,0:0:0:0:
56,156,75807,1,0,0:0:0:0:
76,116,75914,1,0,0:0:0:0:
268,132,76128,1,8,0:0:0:0:
444,204,76343,1,0,0:0:0:0:
268,280,76557,1,8,0:0:0:0:
224,244,76664,1,0,0:0:0:0:
188,200,76771,1,0,0:0:0:0:
224,92,76986,1,8,0:0:0:0:
340,44,77200,6,0,P|404:96|408:136,1,112.500004291535,0|10,0:0|0:0,0:0:0:0:
268,80,77628,1,0,0:0:0:0:
152,168,77843,1,8,0:0:0:0:
272,248,78057,1,0,0:0:0:0:
416,268,78271,2,0,P|404:320|360:360,1,112.500004291535,8|2,0:0|0:0,0:0:0:0:
216,356,78700,2,0,P|172:328|152:264,1,112.500004291535,8|2,0:0|0:0,0:0:0:0:
116,112,79128,5,12,0:0:0:0:
256,64,79343,1,0,0:0:0:0:
420,108,79557,1,8,0:0:0:0:
268,168,79771,1,0,0:0:0:0:
324,328,79986,1,8,0:0:0:0:
288,344,80093,1,0,0:0:0:0:
248,332,80201,1,0,0:0:0:0:
144,200,80414,1,8,0:0:0:0:
244,64,80629,1,0,0:0:0:0:
404,116,80843,5,8,0:0:0:0:
280,232,81057,1,0,0:0:0:0:
152,340,81272,1,8,0:0:0:0:
188,356,81379,1,0,0:0:0:0:
228,344,81487,1,0,0:0:0:0:
384,280,81700,5,8,0:0:0:0:
272,152,81914,1,0,0:0:0:0:
96,192,82129,1,8,0:0:0:0:
268,216,82343,1,0,0:0:0:0:
324,56,82558,5,8,0:0:0:0:
288,40,82665,1,0,0:0:0:0:
248,52,82771,1,0,0:0:0:0:
104,140,82986,1,8,0:0:0:0:
136,260,83200,1,0,0:0:0:0:
244,292,83414,1,8,0:0:0:0:
328,216,83628,1,0,0:0:0:0:
256,188,83843,1,8,0:0:0:0:
256,188,84057,1,0,0:0:0:0:
256,188,84271,5,0,0:0:0:0:
296,24,84486,2,0,B|212:24,1,56.2500021457673
296,84,84700,2,0,L|164:84,1,112.500004291535
240,144,85021,2,0,L|176:144,1,56.2500021457673
180,224,85236,1,0,0:0:0:0:
176,304,85343,2,0,L|268:304,1,56.2500021457673
288,360,85557,2,0,P|314:300|279:234,1,112.500004291535
256,192,85986,12,0,88986,0:0:0:0:
