osu file format v14

[General]
AudioFilename: World Trigger Opening Theme (TV Edit).mp3
AudioLeadIn: 0
PreviewTime: 43771
Countdown: 0
SampleSet: Normal
StackLeniency: 0.7
Mode: 0
LetterboxInBreaks: 0
WidescreenStoryboard: 1

[Editor]
DistanceSpacing: 1.2
BeatDivisor: 4
GridSize: 4
TimelineZoom: 1

[Metadata]
Title:GIRIGIRI (TV size)
TitleUnicode:GIRIGIRI (TV size)
Artist:Sonar Pocket
ArtistUnicode:ソナーポケット
Creator:Bere
Version:Hard
Source:ワールドトリガー
Tags:world trigger anime op tv size Sayanzi Underforest
BeatmapID:796677
BeatmapSetID:353653

[Difficulty]
HPDrainRate:6
CircleSize:4
OverallDifficulty:6.5
ApproachRate:8
SliderMultiplier:1.4
SliderTickRate:1

[Events]
//Background and Video events
0,0,"bnINGJ9.jpg",0,0
Video,0,"World Trigger Opening GIRIGIRI by Sonar Pocket.avi"
//Break Periods
//Storyboard Layer 0 (Background)
//Storyboard Layer 1 (Fail)
//Storyboard Layer 2 (Pass)
//Storyboard Layer 3 (Foreground)
//Storyboard Sound Samples

[TimingPoints]
1986,428.571428571429,4,2,0,40,1,0
31128,-71.4285714285714,4,2,0,50,0,0
44843,-71.4285714285714,4,1,0,50,0,1
72271,-71.4285714285714,4,1,0,60,0,0
84486,-100,4,1,0,60,0,0

[Colours]
Combo1 : 24,15,196
Combo2 : 128,128,255
Combo3 : 128,0,255

[HitObjects]
416,152,1986,5,0,0:0:0:0:
380,232,2200,2,0,P|364:276|328:304,1,70
284,220,2628,1,0,0:0:0:0:
280,316,2843,2,0,B|184:300|188:208,1,140
364,32,3914,6,0,L|424:36,2,35
364,116,4343,2,0,L|424:112,2,35
368,200,4771,2,0,L|432:200,2,35
348,280,5200,1,0,0:0:0:0:
288,224,5414,6,0,B|273:221|273:221|233:197|233:197|193:221|193:221|161:225,3,140
216,64,7128,2,0,L|284:64,2,35
180,140,7557,2,0,P|170:173|152:228,1,70
240,224,7986,2,0,P|225:271|208:312,1,70
300,292,8414,2,0,P|320:264|344:228,1,70
404,180,8843,6,0,L|368:168|332:156,1,70
336,72,9271,2,0,P|260:110|240:164,1,140,8|8,0:0|0:0,0:0:0:0:
220,240,9914,1,0,0:0:0:0:
232,324,10128,2,0,P|164:304|136:228,1,140,8|8,0:0|0:0,0:0:0:0:
76,184,10771,6,0,L|24:180,2,35,0|0|8,0:0|0:0|0:0,0:0:0:0:
144,132,11200,1,0,0:0:0:0:
200,196,11414,1,8,0:0:0:0:
264,144,11628,1,0,0:0:0:0:
348,156,11843,2,0,L|424:108,2,70,8|0|8,0:0|0:0|0:0,0:0:0:0:
400,224,12486,6,0,P|395:258|369:280,1,70,0|8,0:0|0:0,0:0:0:0:
304,224,12914,2,0,P|299:258|275:283,1,70,0|8,0:0|0:0,0:0:0:0:
192,280,13343,1,0,0:0:0:0:
136,340,13557,1,8,0:0:0:0:
64,296,13771,1,0,0:0:0:0:
36,216,13986,5,8,0:0:0:0:
72,140,14200,1,0,0:0:0:0:
132,200,14414,1,8,0:0:0:0:
184,268,14628,1,0,0:0:0:0:
252,216,14843,1,8,0:0:0:0:
308,152,15057,1,0,0:0:0:0:
240,104,15271,1,8,0:0:0:0:
296,44,15486,6,0,L|372:68,1,70,0|8,0:0|0:0,0:0:0:0:
432,112,15914,2,0,L|432:196,2,70
360,156,16557,2,0,B|272:140|253:177|253:177|224:184|224:184|240:212|240:212|208:236,1,210
268,296,17414,6,0,B|144:368|100:244,1,210,4|6,0:0|0:0,0:0:0:0:
188,236,18271,2,2,P|268:192|320:216,1,140,0|0,0:0|0:0,0:0:0:0:
364,268,18914,6,2,P|392:228|380:180,1,70
388,124,19343,1,2,0:0:0:0:
312,88,19557,1,0,0:0:0:0:
228,96,19771,1,2,0:0:0:0:
240,180,19986,2,2,B|324:140|360:224,1,140,0|0,0:0|0:0,0:0:0:0:
388,292,20628,1,2,0:0:0:0:
308,316,20843,6,2,B|224:228|96:300,1,210,0|0,0:0|0:0,0:0:0:0:
68,360,21700,2,2,P|40:300|64:224,1,140
128,184,22343,6,2,L|204:192,1,70
164,268,22771,2,2,L|240:264,1,70
316,280,23200,1,2,0:0:0:0:
388,240,23414,2,2,P|360:208|264:208,1,140,0|0,0:0|0:0,0:0:0:0:
212,140,24057,1,2,0:0:0:0:
124,152,24271,6,2,P|148:204|232:220,1,140,0|0,0:0|0:0,0:0:0:0:
304,252,24914,1,2,0:0:0:0:
304,336,25128,2,2,B|388:340|396:236,1,140,0|0,0:0|0:0,0:0:0:0:
400,168,25771,6,2,L|328:160,1,70
272,100,26200,2,2,L|228:156,1,70
164,208,26628,1,2,0:0:0:0:
80,224,26843,2,2,P|104:272|188:292,1,140,0|0,0:0|0:0,0:0:0:0:
252,244,27486,2,2,L|292:248,1,35
328,252,27700,5,0,0:0:0:0:
376,320,27914,2,2,B|436:248|376:180,1,140,0|0,0:0|0:0,0:0:0:0:
300,196,28557,2,2,L|240:244,1,70
176,284,28986,2,2,P|167:222|202:146,1,140
256,192,29628,12,0,30914,0:0:0:0:
64,88,31128,6,4,L|76:196,1,97.9999970092774
120,296,31557,2,8,P|195:350|300:364,1,195.999994018555
412,348,32200,2,0,P|468:332|496:272,1,97.9999970092774
472,184,32628,6,0,P|432:136|368:152,1,97.9999970092774,0|8,0:0|0:0,0:0:0:0:
368,248,33057,2,0,P|312:280|240:256,1,97.9999970092774,0|8,0:0|0:0,0:0:0:0:
208,184,33486,2,0,P|272:180|304:120,1,97.9999970092774,0|8,0:0|0:0,0:0:0:0:
240,52,33914,1,0,0:0:0:0:
124,44,34128,2,0,L|20:48,1,97.9999970092774,8|0,0:0|0:0,0:0:0:0:
28,164,34557,5,8,0:0:0:0:
144,152,34771,1,0,0:0:0:0:
248,120,34986,2,0,P|220:184|244:236,1,97.9999970092774,8|0,0:0|0:0,0:0:0:0:
340,188,35414,1,8,0:0:0:0:
448,144,35628,2,0,P|456:188|420:272,1,97.9999970092774,0|8,0:0|0:0,0:0:0:0:
400,348,36057,6,0,P|354:365|307:358,1,97.9999970092774,0|8,0:0|0:0,0:0:0:0:
328,240,36486,2,0,P|348:188|324:124,1,97.9999970092774
308,36,36914,2,0,P|249:13|201:29,1,97.9999970092774,0|8,0:0|0:0,0:0:0:0:
200,136,37343,1,0,0:0:0:0:
144,240,37557,6,8,B|156:188|156:188|116:152|144:88|144:88|108:36,1,195.999994018555,2|4,0:0|0:0,0:0:0:0:
28,128,38200,2,0,P|29:180|62:229,1,97.9999970092774
80,332,38628,2,0,P|128:354|195:315,1,97.9999970092774
260,268,39057,1,0,0:0:0:0:
324,168,39271,1,0,0:0:0:0:
368,280,39486,6,0,P|412:236|428:176,1,97.9999970092774
472,96,39914,1,0,0:0:0:0:
368,44,40128,1,0,0:0:0:0:
252,32,40343,2,0,P|196:24|144:44,1,97.9999970092774
140,152,40771,1,0,0:0:0:0:
24,156,40986,2,0,P|28:196|72:248,1,97.9999970092774
20,352,41414,5,0,0:0:0:0:
116,284,41628,2,0,L|136:388,2,97.9999970092774,0|8|0,0:0|0:0|0:0,0:0:0:0:
212,212,42271,2,0,P|252:180|292:144,3,97.9999970092774,8|0|8|0,0:0|0:0|0:0|0:0,0:0:0:0:
348,248,43128,6,0,P|396:180|364:70,1,195.999994018555,8|0,0:0|0:0,0:0:0:0:
260,32,43771,2,0,L|216:132,1,97.9999970092774,0|8,0:0|0:0,0:0:0:0:
120,60,44200,2,0,L|64:152,1,97.9999970092774,0|8,0:0|0:0,0:0:0:0:
180,180,44628,1,0,0:0:0:0:
76,236,44843,6,4,B|128:336|248:276,1,195.999994018555,4|12,0:0|0:0,0:0:0:0:
360,252,45486,1,0,0:0:0:0:
448,328,45700,2,8,P|488:268|444:160,1,195.999994018555
328,156,46343,1,0,0:0:0:0:
284,44,46557,6,0,P|236:36|200:84,1,97.9999970092774,8|0,0:0|0:0,0:0:0:0:
156,176,46986,1,8,0:0:0:0:
56,112,47200,2,0,P|28:168|68:232,1,97.9999970092774,0|8,0:0|0:0,0:0:0:0:
104,296,47628,2,0,B|204:312,1,97.9999970092774,0|8,0:0|0:0,0:0:0:0:
296,240,48057,1,0,0:0:0:0:
348,348,48271,6,8,B|464:292|404:168,1,195.999994018555,0|0,0:0|0:0,0:0:0:0:
300,152,48914,1,0,0:0:0:0:
412,116,49128,2,8,B|368:-8|224:48,1,195.999994018555,0|0,0:0|0:0,0:0:0:0:
200,136,49771,1,0,0:0:0:0:
100,196,49986,6,8,B|168:308|300:224,1,195.999994018555,0|0,0:0|0:0,0:0:0:0:
360,292,50628,1,0,0:0:0:0:
448,216,50843,1,8,0:0:0:0:
372,128,51057,1,0,0:0:0:0:
288,48,51271,1,8,0:0:0:0:
288,164,51486,1,0,0:0:0:0:
172,164,51700,6,12,B|144:40|12:72,1,195.999994018555
60,184,52343,1,0,0:0:0:0:
60,300,52557,2,8,B|116:416|232:336,1,195.999994018555
156,244,53200,1,0,0:0:0:0:
68,168,53414,6,8,P|156:132|244:184,1,195.999994018555
348,228,54057,1,0,0:0:0:0:
456,184,54271,2,8,P|376:120|256:160,1,195.999994018555
256,192,54914,1,0,0:0:0:0:
202,274,55128,6,12,B|120:180|213:104,1,195.999994018555
256,192,55771,1,0,0:0:0:0:
310,274,55986,2,12,B|392:180|299:104,1,195.999994018555
404,52,56628,1,0,0:0:0:0:
412,168,56843,1,12,0:0:0:0:
192,92,57271,1,8,0:0:0:0:
332,284,57700,1,8,0:0:0:0:
292,52,58128,1,8,0:0:0:0:
176,64,58343,6,0,P|168:132|216:172,1,97.9999970092774,0|8,0:0|0:0,0:0:0:0:
280,224,58771,1,0,0:0:0:0:
168,268,58986,1,12,0:0:0:0:
272,320,59200,2,0,P|308:360|372:360,1,97.9999970092774,0|8,0:0|0:0,0:0:0:0:
392,256,59628,2,0,P|448:248|480:196,1,97.9999970092774,0|8,0:0|0:0,0:0:0:0:
388,136,60057,2,0,L|360:88,1,48.9999985046387
316,56,60271,1,8,0:0:0:0:
200,48,60486,1,0,0:0:0:0:
248,156,60700,1,8,0:0:0:0:
352,208,60914,2,0,P|320:256|264:272,1,97.9999970092774,0|8,0:0|0:0,0:0:0:0:
228,376,61343,2,0,P|174:343|152:292,1,97.9999970092774,0|8,0:0|0:0,0:0:0:0:
196,204,61771,6,0,P|132:200|96:144,1,97.9999970092774,0|8,0:0|0:0,0:0:0:0:
112,60,62200,1,0,0:0:0:0:
228,72,62414,1,8,0:0:0:0:
280,176,62628,2,0,P|276:236|320:280,1,97.9999970092774,0|8,0:0|0:0,0:0:0:0:
400,208,63057,1,0,0:0:0:0:
400,92,63271,1,8,0:0:0:0:
284,116,63486,1,0,0:0:0:0:
348,20,63700,6,0,L|248:4,1,97.9999970092774,8|0,0:0|0:0,0:0:0:0:
156,76,64128,2,0,P|144:136|180:204,1,97.9999970092774,8|0,0:0|0:0,0:0:0:0:
272,168,64557,1,8,0:0:0:0:
376,220,64771,1,0,0:0:0:0:
268,264,64986,1,8,0:0:0:0:
372,320,65200,1,0,0:0:0:0:
488,320,65414,6,4,P|484:267|445:227,1,97.9999970092774,12|4,0:0|0:0,0:0:0:0:
396,132,65843,1,8,0:0:0:0:
248,180,66057,1,0,0:0:0:0:
240,296,66271,2,0,P|285:338|344:344,1,97.9999970092774,8|0,0:0|0:0,0:0:0:0:
424,292,66700,1,8,0:0:0:0:
368,188,66914,1,0,0:0:0:0:
296,96,67128,5,8,0:0:0:0:
180,76,67343,2,0,P|136:52|80:64,1,97.9999970092774,0|8,0:0|0:0,0:0:0:0:
36,160,67771,2,0,L|100:252,1,97.9999970092774,0|8,0:0|0:0,0:0:0:0:
164,332,68200,2,0,L|59:332,2,97.9999970092774,0|8|0,0:0|0:0|0:0,0:0:0:0:
256,256,68843,6,0,L|360:256,2,97.9999970092774,8|0|8,0:0|0:0|0:0,0:0:0:0:
216,144,69486,2,0,L|80:148,2,97.9999970092774,0|8|0,0:0|0:0|0:0,0:0:0:0:
300,224,70128,1,8,0:0:0:0:
316,108,70343,1,0,0:0:0:0:
420,56,70557,6,0,L|480:140,2,97.9999970092774,8|0|8,0:0|0:0|0:0,0:0:0:0:
388,168,71200,1,0,0:0:0:0:
436,276,71414,2,0,L|340:316,2,97.9999970092774,8|0|8,0:0|0:0|0:0,0:0:0:0:
324,240,72057,1,0,0:0:0:0:
224,180,72271,5,12,0:0:0:0:
128,112,72486,1,0,0:0:0:0:
132,228,72700,1,8,0:0:0:0:
220,304,72914,1,0,0:0:0:0:
336,304,73128,1,8,0:0:0:0:
332,188,73343,1,0,0:0:0:0:
264,92,73557,6,0,P|228:52|164:32,2,97.9999970092774,0|0|8,0:0|0:0|0:0,0:0:0:0:
160,148,74200,5,0,0:0:0:0:
260,212,74414,1,8,0:0:0:0:
224,324,74628,1,0,0:0:0:0:
112,292,74843,1,8,0:0:0:0:
56,184,75057,1,0,0:0:0:0:
120,76,75271,2,0,P|160:44|232:20,1,97.9999970092774,8|0,0:0|0:0,0:0:0:0:
236,140,75700,5,8,0:0:0:0:
236,140,75914,1,0,0:0:0:0:
236,140,76128,1,8,0:0:0:0:
332,208,76343,1,0,0:0:0:0:
336,324,76557,1,8,0:0:0:0:
220,324,76771,1,0,0:0:0:0:
220,208,76986,1,8,0:0:0:0:
140,296,77200,1,0,0:0:0:0:
144,180,77414,5,8,0:0:0:0:
252,116,77628,1,0,0:0:0:0:
252,116,77843,1,8,0:0:0:0:
252,116,78057,1,0,0:0:0:0:
360,148,78271,2,0,P|324:200|268:224,1,97.9999970092774,8|0,0:0|0:0,0:0:0:0:
152,148,78700,2,0,P|188:200|244:224,1,97.9999970092774,8|0,0:0|0:0,0:0:0:0:
256,328,79128,5,12,0:0:0:0:
372,324,79343,1,0,0:0:0:0:
304,228,79557,1,8,0:0:0:0:
248,124,79771,1,0,0:0:0:0:
364,124,79986,1,8,0:0:0:0:
396,236,80200,1,0,0:0:0:0:
280,256,80414,1,8,0:0:0:0:
296,136,80628,1,0,0:0:0:0:
260,20,80843,6,0,P|212:60|208:192,2,195.999994018555,8|8|8,0:0|0:0|0:0,0:0:0:0:
372,56,81914,1,0,0:0:0:0:
424,160,82128,1,8,0:0:0:0:
388,272,82343,1,0,0:0:0:0:
280,228,82557,5,8,0:0:0:0:
104,72,82986,1,8,0:0:0:0:
164,300,83414,1,8,0:0:0:0:
256,76,83843,6,8,P|332:112|340:240,1,195.999994018555
252,196,84486,1,0,0:0:0:0:
252,196,84700,1,0,0:0:0:0:
252,196,84914,1,0,0:0:0:0:
168,232,85128,2,0,P|200:340|300:320,1,210
240,268,85986,1,0,0:0:0:0:
