osu file format v14

[General]
AudioFilename: audio.mp3
AudioLeadIn: 0
PreviewTime: 79530
Countdown: 1
SampleSet: Soft
StackLeniency: 0.7
Mode: 0
LetterboxInBreaks: 0
WidescreenStoryboard: 0

[Editor]
Bookmarks: 60312,75312,80312,140312
DistanceSpacing: 0.9
BeatDivisor: 8
GridSize: 4
TimelineZoom: 3

[Metadata]
Title:HAY TRAO CHO ANH ft. Snoop Dogg
TitleUnicode:HÃY TRAO CHO ANH ft. Snoop Dogg
Artist:Son Tung M-TP
ArtistUnicode:Sơn Tùng M-TP
Creator:MoonLightOri
Version:Deceit
Source:
Tags:pop vietnamese edm future bass vpop son tung sep tung tung nui vietnam snoop dogg
BeatmapID:2088750
BeatmapSetID:998648

[Difficulty]
HPDrainRate:5
CircleSize:3.8
OverallDifficulty:8.7
ApproachRate:9.3
SliderMultiplier:1.2
SliderTickRate:1

[Events]
//Background and Video events
0,0,"hay traochoanh.jpg",0,0
//Break Periods
//Storyboard Layer 0 (Background)
//Storyboard Layer 1 (Fail)
//Storyboard Layer 2 (Pass)
//Storyboard Layer 3 (Foreground)
//Storyboard Sound Samples

[TimingPoints]
312,312.5,4,2,1,40,1,0
312,-100,4,2,1,40,0,0
9374,-250,4,2,1,40,0,0
10312,-100,4,1,1,44,0,0
20312,-80,4,1,1,55,0,0
39687,-80,4,1,1,60,0,0
40312,-80,4,3,1,60,0,0
58202,-80,4,1,1,5,0,0
58280,-80,4,1,1,60,0,0
59062,-71.4285714285714,4,1,1,63,0,0
60312,-80,4,1,1,55,0,0
64062,-80,4,3,1,55,0,0
65780,-80,4,1,1,55,0,0
69062,-80,4,3,1,55,0,0
70312,-80,4,3,1,60,0,0
70780,-80,4,1,1,60,0,0
74843,-80,4,1,1,5,0,0
74921,-80,4,1,1,60,0,0
75312,-80,4,3,1,61,0,0
76562,-80,4,3,1,63,0,0
77655,-80,4,3,1,65,0,0
79062,-55.5555555555556,4,1,1,60,0,0
79296,-55.5555555555556,4,1,1,60,0,0
79608,-55.5555555555556,4,1,1,5,0,0
79687,-55.5555555555556,4,1,1,60,0,0
80116,-55.5555555555556,4,1,1,60,0,0
80233,-66.6666666666667,4,1,1,60,0,0
80312,-80,4,1,1,60,0,1
89530,-80,4,1,1,60,0,0
90312,-80,4,1,1,60,0,1
99062,-80,4,1,1,60,0,0
100312,-100,4,1,1,55,0,0
109999,-83.3333333333333,4,1,1,55,0,0
119530,-83.3333333333333,4,3,1,55,0,0
120312,-80,4,3,1,60,0,0
135702,-80,4,3,1,5,0,0
135780,-80,4,3,1,60,0,0
138202,-80,4,1,1,5,0,0
138280,-80,4,1,1,60,0,0
139062,-66.6666666666667,4,1,1,63,0,0
140312,-80,4,1,1,55,0,0
144062,-80,4,3,1,55,0,0
145780,-80,4,1,1,55,0,0
149062,-80,4,3,1,55,0,0
150312,-80,4,3,1,60,0,0
150780,-80,4,1,1,60,0,0
155312,-80,4,3,1,61,0,0
156562,-80,4,3,1,63,0,0
157655,-80,4,3,1,65,0,0
159062,-55.5555555555556,4,1,1,60,0,0
159296,-55.5555555555556,4,1,1,60,0,0
159530,-55.5555555555556,4,1,1,60,0,0
159608,-55.5555555555556,4,1,1,5,0,0
159687,-55.5555555555556,4,1,1,60,0,0
159921,-55.5555555555556,4,1,1,60,0,0
160116,-55.5555555555556,4,1,1,60,0,0
160233,-55.5555555555556,4,1,1,60,0,0
160312,-80,4,1,1,60,0,1
169530,-80,4,1,1,60,0,0
170312,-80,4,1,1,60,0,1
179062,-80,4,2,1,63,0,0

[HitObjects]
240,122,312,6,2,B|316:125|316:125|350:106|350:106|427:109,2,180
145,169,1562,6,2,L|134:293,1,120
249,320,2030,6,2,L|256:232,1,60
369,184,2499,1,2,0:0:0:0:
115,44,2812,6,2,P|62:108|120:185,2,180
139,114,4062,1,8,0:0:0:0:
316,70,4687,6,2,L|396:62,1,60
453,194,4999,2,2,L|445:123,1,60
346,290,5312,6,2,L|156:310,2,180
184,219,6562,6,2,L|174:99,1,120
291,97,7030,6,2,L|299:181,1,60
171,59,7499,1,2,0:0:0:0:
407,44,7812,6,2,B|414:119|414:119|438:150|438:150|445:227,2,180
362,184,9062,1,8,0:0:0:0:
282,288,9374,6,2,L|230:298,2,48
414,65,10312,6,0,L|346:80,1,60
325,84,10624,1,0,0:0:0:0:
179,63,10780,1,0,0:0:0:0:
179,63,10937,2,8,P|163:124|181:196,1,120
136,288,11405,5,0,0:0:0:0:
136,288,11562,2,8,B|218:258|188:314|305:292,1,120
408,220,12030,1,0,0:0:0:0:
408,220,12187,2,8,P|371:190|339:118,1,120
320,54,12655,2,8,P|298:80|248:109,1,60
193,146,12968,5,0,0:0:0:0:
193,146,13124,1,0,0:0:0:0:
104,98,13280,1,0,0:0:0:0:
104,98,13437,2,8,B|89:92|89:92|70:78|70:78|83:126|81:170,1,120
222,116,13905,5,0,0:0:0:0:
222,116,14062,2,8,B|302:89|282:143|380:118,1,120
260,186,14530,1,0,0:0:0:0:
420,47,14687,2,8,P|445:113|438:152,1,60
338,124,14999,2,8,P|326:193|340:230,1,60
417,267,15312,6,8,B|331:245|360:298|260:285,1,120
181,246,15780,1,0,0:0:0:0:
181,246,15937,2,8,P|159:189|162:121,1,120
317,198,16405,1,0,0:0:0:0:
317,198,16562,2,8,P|339:165|343:119,1,60
411,184,16874,5,0,0:0:0:0:
271,102,17030,1,0,0:0:0:0:
445,63,17187,2,8,B|432:49|424:24|424:24|412:76|384:114,1,120
440,184,17655,6,0,L|418:258,1,60
313,284,17968,1,0,0:0:0:0:
313,284,18124,2,0,L|335:210,1,60
203,296,18437,2,8,B|147:290|156:349|87:329,1,120
137,212,19062,6,2,L|132:184,14,15
154,237,19687,2,0,P|183:241|212:234,1,60
280,135,19999,2,0,P|242:127|208:136,1,75
354,264,20312,6,2,P|362:218|358:183,1,75
442,245,20624,1,0,0:0:0:0:
341,77,20780,1,0,0:0:0:0:
186,192,20937,2,8,P|147:204|77:213,1,75
200,56,21249,5,0,0:0:0:0:
157,320,21405,1,0,0:0:0:0:
14,111,21562,2,8,P|26:47|83:79,1,150
164,143,22030,6,8,P|133:166|92:178,1,75
249,214,22343,1,8,0:0:0:0:
78,65,22499,1,0,0:0:0:0:
32,277,22655,1,0,0:0:0:0:
277,71,22812,6,2,P|313:97|358:110,1,75
467,140,23125,1,0,0:0:0:0:
358,16,23281,1,0,0:0:0:0:
287,180,23437,2,8,P|257:206|217:222,1,75
470,336,23749,5,0,0:0:0:0:
394,131,23905,1,0,0:0:0:0:
282,256,24062,2,8,B|191:236|217:308|122:293,1,150
251,333,24530,5,0,0:0:0:0:
140,171,24687,2,8,P|125:128|144:89,1,75
39,208,24999,1,0,0:0:0:0:
244,141,25155,1,0,0:0:0:0:
72,64,25312,6,2,P|142:33|199:72,1,150
256,22,25780,1,0,0:0:0:0:
114,179,25937,2,8,P|100:217|77:249,1,75
175,320,26249,5,0,0:0:0:0:
228,132,26405,1,0,0:0:0:0:
297,303,26562,2,8,P|374:292|415:195,1,150
452,330,27030,5,2,0:0:0:0:
351,124,27187,1,0,0:0:0:0:
226,314,27343,1,2,0:0:0:0:
451,148,27499,1,0,0:0:0:0:
337,337,27655,1,2,0:0:0:0:
239,107,27812,2,0,P|209:78|152:61,1,75
285,25,28124,5,0,0:0:0:0:
116,98,28280,1,0,0:0:0:0:
129,242,28437,2,8,B|233:231|181:297|295:296,1,150
368,312,28905,2,0,P|368:269|341:221,1,75
301,92,29218,5,0,0:0:0:0:
236,147,29374,2,8,P|206:174|158:186,1,75
154,93,29687,1,0,0:0:0:0:
250,253,29843,1,0,0:0:0:0:
361,68,29999,2,8,P|426:85|451:146,1,112.5
471,169,30312,6,2,B|372:164|415:210|319:214,1,150
447,257,30780,1,0,0:0:0:0:
369,49,30937,1,0,0:0:0:0:
327,296,31093,1,0,0:0:0:0:
259,74,31249,2,8,P|220:58|179:54,1,75
382,108,31562,5,2,0:0:0:0:
173,187,31718,1,0,0:0:0:0:
420,208,31874,1,0,0:0:0:0:
158,187,32030,1,0,0:0:0:0:
420,93,32187,2,8,P|426:128|421:174,1,75
448,273,32499,2,0,B|383:257|397:302|310:285,1,112.5
294,303,32812,6,2,P|271:226|232:169,1,150
202,292,33280,1,0,0:0:0:0:
241,75,33437,1,0,0:0:0:0:
340,269,33593,1,0,0:0:0:0:
235,58,33749,2,0,P|193:45|148:46,1,75
90,199,34062,6,8,L|76:104,2,75
212,295,34530,6,8,L|315:308,2,75
409,188,34999,6,0,L|435:108,1,75
439,100,35233,1,0,0:0:0:0:
443,89,35312,2,2,P|399:78|368:34,1,75
269,157,35624,6,2,P|309:183|317:225,1,75
310,227,35858,1,0,0:0:0:0:
301,235,35937,2,8,B|224:209|237:289|132:241,1,150
268,310,36405,1,0,0:0:0:0:
85,134,36562,6,8,L|155:103,1,75
183,112,36796,2,8,L|105:147,1,75
105,176,37030,1,8,0:0:0:0:
105,176,37108,1,8,0:0:0:0:
105,176,37187,2,8,B|192:171|155:227|251:244,1,150
107,262,37655,1,0,0:0:0:0:
255,103,37812,6,8,P|294:85|347:81,1,75
454,241,38124,1,0,0:0:0:0:
400,294,38280,2,8,P|320:323|270:268,1,150
355,55,38749,5,0,0:0:0:0:
271,29,38905,1,0,0:0:0:0:
185,41,39062,2,0,P|151:65|125:111,1,75
57,171,39374,2,0,P|101:177|156:213,1,75
59,264,39687,5,2,0:0:0:0:
205,110,39843,1,2,0:0:0:0:
59,264,39999,5,2,0:0:0:0:
205,110,40155,1,2,0:0:0:0:
178,291,40312,2,2,P|206:319|255:328,1,75
394,267,40624,1,0,0:0:0:0:
433,78,40780,5,0,0:0:0:0:
356,93,40937,2,2,P|324:120|304:156,1,75
354,202,41249,2,8,B|268:203|301:262|208:270,1,150,8|2,0:0|0:0,0:0:0:0:
128,220,41718,6,0,P|132:175|145:141,1,75
94,291,42030,1,0,0:0:0:0:
183,75,42187,1,0,0:0:0:0:
326,245,42343,1,0,0:0:0:0:
175,57,42499,2,8,P|149:80|135:122,1,75
110,303,42812,5,2,0:0:0:0:
205,142,42968,2,8,P|260:80|367:98,1,150
196,19,43437,1,0,0:0:0:0:
465,96,43593,1,0,0:0:0:0:
287,154,43749,6,8,P|319:179|358:189,1,75
437,253,44062,2,8,P|405:278|366:288,1,75
380,56,44530,6,8,L|413:51,2,18.75
360,77,44687,2,0,P|374:115|369:169,1,75
408,221,44999,2,0,B|340:222|374:270|284:270,1,112.5
287,276,45312,1,2,0:0:0:0:
438,325,45468,2,0,P|469:350|519:364,1,75
449,174,45780,5,2,0:0:0:0:
263,48,45937,1,0,0:0:0:0:
207,284,46093,1,0,0:0:0:0:
301,197,46249,2,0,P|337:171|354:125,1,75
356,275,46562,5,2,0:0:0:0:
242,117,46718,2,0,P|228:82|227:44,1,75
138,101,47030,5,2,0:0:0:0:
372,115,47187,1,2,0:0:0:0:
140,208,47343,1,2,0:0:0:0:
370,221,47499,2,2,P|383:255|384:293,1,75
283,278,47812,6,8,B|245:291|245:291|196:289,1,75
137,208,48124,2,8,B|175:192|175:192|224:197,1,75
198,72,48437,1,0,0:0:0:0:
283,278,48593,1,0,0:0:0:0:
339,42,48749,2,8,P|365:98|423:161,1,112.5
414,154,49062,1,0,0:0:0:0:
159,83,49530,6,8,L|140:85,2,18.75
187,88,49687,2,0,P|204:125|204:172,1,75
348,224,49999,2,8,P|342:263|294:317,1,75
411,322,50312,5,2,0:0:0:0:
249,134,50468,2,8,P|225:103|230:35,1,75
261,297,50780,1,2,0:0:0:0:
320,70,50937,1,0,0:0:0:0:
186,283,51093,1,0,0:0:0:0:
331,54,51249,2,8,P|368:37|407:33,1,75
223,99,51562,5,2,0:0:0:0:
400,164,51718,2,0,P|437:181|476:185,1,75
201,65,52030,1,2,0:0:0:0:
333,276,52187,1,0,0:0:0:0:
389,39,52343,1,0,0:0:0:0:
194,195,52499,2,8,P|159:219|79:233,1,75
95,311,52812,5,2,0:0:0:0:
130,101,52968,2,0,P|125:60|106:19,1,75
24,125,53280,1,2,0:0:0:0:
278,67,53437,1,2,0:0:0:0:
45,214,53593,1,2,0:0:0:0:
300,157,53749,2,2,B|376:153|344:207|428:205,1,112.5,2|8,0:0|0:0,0:0:0:0:
421,210,54062,1,0,0:0:0:0:
300,232,54218,6,8,P|274:268|213:291,1,75
111,215,54530,2,8,L|78:210,3,18.75
199,115,54843,1,8,0:0:0:0:
252,237,54999,1,8,0:0:0:0:
342,151,55155,1,8,0:0:0:0:
401,251,55312,6,0,P|378:321|287:287,1,187.5
291,259,55780,2,8,B|309:219|309:219|307:160,1,75
195,44,56093,1,0,0:0:0:0:
105,78,56249,2,8,B|136:120|136:120|261:129,1,150
418,165,56874,6,0,P|390:199|344:221,1,75
423,285,57187,1,0,0:0:0:0:
365,63,57343,1,0,0:0:0:0:
292,309,57499,1,0,0:0:0:0:
244,85,57655,1,0,0:0:0:0:
198,252,57812,6,2,B|103:241|137:158|26:157,1,187.5
22,121,58280,6,2,P|50:73|154:90,1,150
105,242,58749,5,0,0:0:0:0:
254,67,58905,1,0,0:0:0:0:
413,121,59062,6,2,L|447:232,1,83.9999974365235
235,161,59374,2,2,L|230:276,1,83.9999974365235
437,131,59687,6,2,L|471:242,1,83.9999974365235
216,178,59999,2,2,L|210:292,1,83.9999974365235
79,225,60312,6,8,B|167:228|132:285|225:293,1,150
201,190,60780,1,0,0:0:0:0:
90,325,60937,1,0,0:0:0:0:
201,190,61093,1,0,0:0:0:0:
90,325,61249,2,8,P|51:342|1:348,1,75
261,169,61562,6,8,P|260:93|348:89,1,150
356,253,62030,1,0,0:0:0:0:
400,94,62187,1,0,0:0:0:0:
356,253,62343,1,0,0:0:0:0:
400,94,62499,2,8,P|422:57|457:28,1,75
249,299,62812,6,8,B|211:327|211:327|84:273,1,150
47,258,63280,1,0,0:0:0:0:
87,76,63437,1,0,0:0:0:0:
166,225,63593,1,0,0:0:0:0:
86,59,63749,2,8,B|116:29|116:29|173:26,1,75
260,154,64062,6,2,P|272:107|330:73,1,75
406,194,64374,2,2,P|394:241|336:275,1,75
239,141,64687,6,2,P|261:100|331:84,1,75
429,207,64999,2,2,P|407:248|350:263,1,75
249,89,65312,6,8,B|166:93|201:148|91:167,1,150
282,229,65780,1,0,0:0:0:0:
117,73,65937,1,0,0:0:0:0:
282,229,66093,1,0,0:0:0:0:
117,73,66249,2,8,P|76:61|28:61,1,75
101,240,66562,6,8,P|130:313|212:263,1,150
209,115,67030,1,0,0:0:0:0:
319,339,67187,1,0,0:0:0:0:
209,115,67343,1,0,0:0:0:0:
319,339,67499,2,8,P|364:334|419:297,1,75
372,158,67812,6,8,B|393:133|411:130|411:130|359:129|288:90,1,150
289,256,68280,1,0,0:0:0:0:
366,42,68437,1,0,0:0:0:0:
451,234,68593,1,0,0:0:0:0:
367,27,68749,1,0,0:0:0:0:
287,268,68905,1,0,0:0:0:0:
63,93,69062,6,2,B|96:63|96:63|168:54,1,75
227,145,69374,2,2,B|194:175|194:175|122:184,1,75
44,74,69687,6,2,B|83:51|83:51|150:54,1,75
248,163,69999,2,2,B|209:186|209:186|142:183,1,75
249,80,70312,6,2,B|346:80|295:147|425:140,1,150
153,98,70780,1,0,0:0:0:0:
251,259,70937,1,0,0:0:0:0:
249,80,71093,1,0,0:0:0:0:
138,256,71249,2,8,P|119:292|77:315,1,75
300,318,71562,6,8,P|380:302|384:217,1,150
379,51,72030,1,0,0:0:0:0:
177,153,72187,1,0,0:0:0:0:
410,144,72343,1,0,0:0:0:0:
191,52,72499,2,8,P|151:38|109:38,1,75
63,91,72812,6,2,P|93:166|111:270,1,150
15,207,73280,1,0,0:0:0:0:
204,97,73437,2,8,P|251:93|306:71,1,75
246,229,73749,1,0,0:0:0:0:
350,64,73905,1,0,0:0:0:0:
439,257,74062,2,8,P|406:276|369:284,1,75
153,274,74374,5,0,0:0:0:0:
374,208,74530,1,0,0:0:0:0:
199,175,74687,2,8,P|185:129|188:89,1,75
192,54,74921,2,8,B|221:77|221:77|303:87,1,112.5
332,93,75312,5,2,0:0:0:0:
245,313,75468,1,0,0:0:0:0:
238,70,75624,5,0,0:0:0:0:
346,311,75780,1,0,0:0:0:0:
354,63,75937,5,2,0:0:0:0:
183,270,76093,1,0,0:0:0:0:
155,45,76249,5,0,0:0:0:0:
367,235,76405,1,0,0:0:0:0:
282,30,76562,5,2,0:0:0:0:
282,30,76640,1,2,0:0:0:0:
282,30,76718,1,2,0:0:0:0:
253,291,76874,5,2,0:0:0:0:
55,101,77030,1,0,0:0:0:0:
262,308,77187,5,2,0:0:0:0:
217,43,77343,1,0,0:0:0:0:
132,268,77499,1,2,0:0:0:0:
103,31,77655,5,2,0:0:0:0:
103,31,77733,1,2,0:0:0:0:
103,31,77811,1,2,0:0:0:0:
241,302,77968,5,2,0:0:0:0:
260,9,78124,1,0,0:0:0:0:
0,157,78280,1,2,0:0:0:0:
320,256,78437,5,2,0:0:0:0:
320,256,78515,1,2,0:0:0:0:
320,256,78593,1,2,0:0:0:0:
145,32,78749,5,2,0:0:0:0:
114,318,78905,1,2,0:0:0:0:
339,146,79062,6,8,B|313:99|313:99|306:43,1,107.999996704102,8|0,0:0|0:0,0:0:0:0:
310,48,79296,2,8,B|382:35,1,53.9999983520508,8|0,0:0|0:0,0:0:0:0:
190,161,79530,6,8,B|213:229,1,53.9999983520508,8|0,0:0|0:0,0:0:0:0:
190,161,79687,2,8,B|163:164|163:164|73:143,1,107.999996704102,8|0,0:0|0:0,0:0:0:0:
95,63,79921,6,8,L|189:70,1,80.9999975280763,8|0,0:0|0:0,0:0:0:0:
176,70,80116,2,8,L|82:89,1,80.9999975280763,8|0,0:0|0:0,0:0:0:0:
97,87,80312,6,2,P|97:131|113:190,1,75
154,260,80624,1,0,0:0:0:0:
232,52,80780,1,0,0:0:0:0:
392,198,80937,2,8,P|411:240|424:294,1,75
210,187,81249,6,0,B|244:167|244:167|319:159,1,75
371,50,81562,2,2,B|337:70|337:70|262:78,1,75
267,236,81874,1,0,0:0:0:0:
153,66,82030,1,0,0:0:0:0:
76,238,82187,2,8,P|79:278|98:317,1,75
167,192,82499,2,0,P|164:154|150:120,1,75
139,32,82812,6,2,B|233:25|193:88|311:77,1,150
450,145,83280,1,0,0:0:0:0:
288,225,83437,2,8,P|253:236|187:230,1,75
120,141,83749,2,0,P|155:130|221:136,1,75
276,303,84062,2,0,P|354:281|348:191,1,150
293,43,84530,6,8,L|326:38,2,18.75
270,57,84687,2,0,B|267:83|267:83|231:137,1,75
227,152,84921,2,0,B|238:202|238:202|281:236,2,93.75
129,209,85468,5,0,0:0:0:0:
333,138,85624,2,2,P|368:161|406:311,1,150
302,318,86093,2,8,P|294:271|293:230,1,75
184,309,86405,1,0,0:0:0:0:
315,49,86562,2,10,P|323:96|324:137,1,75
393,303,86874,1,0,0:0:0:0:
234,106,87030,2,8,P|182:55|88:63,1,150
38,144,87499,2,0,P|69:165|137:188,1,75
160,290,87812,2,0,P|195:300|267:301,1,75
262,87,88124,5,0,0:0:0:0:
346,335,88280,2,8,P|384:295|397:241,1,75
468,342,88593,1,0,0:0:0:0:
404,98,88749,2,0,P|363:90|320:92,1,75
247,179,89062,2,0,P|288:187|331:185,1,75
247,342,89374,1,0,0:0:0:0:
162,198,89530,6,8,L|150:212,2,18.75
164,172,89687,2,0,B|167:146|167:146|145:84,1,75
136,66,89921,2,0,B|93:37|93:37|38:43,2,93.75
63,231,90468,1,0,0:0:0:0:
257,89,90624,2,10,P|296:75|349:75,1,75
422,289,90937,1,0,0:0:0:0:
254,191,91093,2,8,P|215:177|162:177,1,75
67,277,91405,1,0,0:0:0:0:
148,60,91562,6,2,B|242:53|202:116|320:105,1,150
347,273,92030,1,0,0:0:0:0:
432,95,92187,2,0,P|442:50|435:-8,1,75
340,197,92499,2,8,P|330:152|337:94,1,75
429,280,92812,6,2,P|397:349|323:344,1,150
120,280,93280,1,0,0:0:0:0:
296,169,93437,2,0,P|335:154|395:152,1,75
452,78,93749,2,8,P|413:63|353:61,1,75
154,70,94062,2,0,P|132:146|128:249,1,150
299,62,94530,6,8,L|332:57,2,18.75
280,79,94687,2,0,P|290:109|287:153,1,75
305,170,94921,2,0,P|327:212|375:242,2,93.75
354,11,95468,1,0,0:0:0:0:
446,194,95624,2,10,P|453:243|402:303,1,75
354,11,95937,1,0,0:0:0:0:
279,169,96093,2,0,P|259:208|231:230,1,75
160,342,96405,1,0,0:0:0:0:
56,131,96562,6,2,P|93:59|165:65,1,150
164,237,97030,2,8,P|168:194|197:151,1,75
338,82,97343,2,0,P|333:124|304:167,1,75
456,17,97655,1,0,0:0:0:0:
460,214,97812,6,2,P|410:288|330:304,1,150
189,163,98280,2,8,B|235:150|235:150|279:149,1,75
134,257,98593,1,0,0:0:0:0:
247,74,98749,2,2,B|205:51|205:51|91:63,1,150
234,146,99687,6,0,L|257:140,5,18.75
140,202,99999,6,0,L|121:206,5,18.75,0|0|0|8|0|0,0:0|0:0|0:0|0:0|0:0|0:0,0:0:0:0:
253,257,100312,5,2,0:0:0:0:
294,297,100468,1,0,0:0:0:0:
353,296,100624,1,0,0:0:0:0:
392,254,100780,1,0,0:0:0:0:
398,196,100937,1,2,0:0:0:0:
364,148,101093,1,0,0:0:0:0:
321,218,101249,5,0,0:0:0:0:
244,93,101405,2,0,L|228:22,1,60,0|8,0:0|0:0,0:0:0:0:
147,151,101718,2,0,L|165:220,1,60,8|0,0:0|0:0,0:0:0:0:
97,293,102030,2,8,B|148:296|148:296|204:322|204:322|264:326,1,150,8|0,0:0|0:0,0:0:0:0:
268,326,102499,1,0,0:0:0:0:
398,242,102655,6,2,L|386:163,1,60
373,83,102968,1,2,0:0:0:0:
335,37,103124,1,0,0:0:0:0:
277,26,103280,1,0,0:0:0:0:
225,55,103436,1,0,0:0:0:0:
78,97,103593,5,2,0:0:0:0:
89,155,103749,1,0,0:0:0:0:
101,214,103905,1,0,0:0:0:0:
116,273,104062,2,8,L|130:340,1,60
312,265,104374,1,0,0:0:0:0:
384,309,104530,2,8,B|397:268|397:268|368:138,1,165,8|0,0:0|0:0,0:0:0:0:
365,125,104999,1,0,0:0:0:0:
244,42,105155,6,2,L|178:55,1,60
92,106,105468,1,2,0:0:0:0:
58,154,105624,1,0,0:0:0:0:
64,212,105780,1,0,0:0:0:0:
108,252,105936,1,0,0:0:0:0:
146,342,106093,5,2,0:0:0:0:
205,334,106249,1,0,0:0:0:0:
265,327,106405,1,0,0:0:0:0:
324,318,106562,2,8,L|389:306,1,60
406,171,106874,1,0,0:0:0:0:
329,186,107030,2,8,B|217:208|217:208|234:171,1,150,8|0,0:0|0:0,0:0:0:0:
246,154,107499,1,0,0:0:0:0:
126,312,107655,5,2,0:0:0:0:
116,252,107811,1,0,0:0:0:0:
107,193,107967,1,0,0:0:0:0:
98,134,108123,1,0,0:0:0:0:
225,42,108280,1,0,0:0:0:0:
237,119,108437,2,8,L|246:185,1,60,8|0,0:0|0:0,0:0:0:0:
179,293,108749,5,8,0:0:0:0:
234,314,108905,1,8,0:0:0:0:
293,307,109061,1,8,0:0:0:0:
341,273,109218,2,8,P|370:256|384:230,1,60,8|0,0:0|0:0,0:0:0:0:
464,82,109530,2,8,P|416:47|360:69,1,120
339,105,109999,2,2,L|328:200,1,71.9999978027344
300,308,110312,6,2,L|175:293,1,107.999996704102,2|0,0:0|0:0,0:0:0:0:
172,292,110624,1,0,0:0:0:0:
89,205,110780,2,0,L|80:119,1,71.9999978027344
114,343,111093,1,0,0:0:0:0:
176,183,111249,2,8,L|198:47,1,107.999996704102,8|0,0:0|0:0,0:0:0:0:
198,49,111562,1,0,0:0:0:0:
81,133,111718,1,0,0:0:0:0:
301,113,111874,6,2,L|395:102,1,71.9999978027344
449,217,112187,2,8,L|308:202,1,107.999996704102,8|0,0:0|0:0,0:0:0:0:
323,203,112499,1,0,0:0:0:0:
242,350,112655,1,0,0:0:0:0:
178,164,112812,2,2,L|155:76,1,71.9999978027344
64,78,113124,2,8,L|64:205,1,107.999996704102,8|0,0:0|0:0,0:0:0:0:
64,208,113437,1,0,0:0:0:0:
159,94,113593,1,0,0:0:0:0:
216,275,113749,6,2,L|297:264,1,71.9999978027344
375,294,114062,2,2,L|359:191,1,71.9999978027344
274,66,114374,5,8,0:0:0:0:
404,47,114530,1,8,0:0:0:0:
288,174,114687,5,2,0:0:0:0:
418,155,114843,1,2,0:0:0:0:
288,174,114999,1,2,0:0:0:0:
418,155,115155,1,2,0:0:0:0:
376,293,115312,2,8,L|296:303,1,71.9999978027344
217,346,115624,2,8,B|213:293|213:293|186:244|186:244|183:181,1,143.999995605469
157,62,116093,5,2,0:0:0:0:
238,55,116249,2,0,L|330:48,1,71.9999978027344
450,154,116562,2,8,L|311:147,1,107.999996704102,8|0,0:0|0:0,0:0:0:0:
317,146,116874,1,8,0:0:0:0:
465,168,117187,6,8,L|326:161,1,107.999996704102,8|0,0:0|0:0,0:0:0:0:
332,160,117499,1,8,0:0:0:0:
307,60,117812,5,8,0:0:0:0:
405,242,117968,1,8,0:0:0:0:
307,60,118124,2,8,P|284:23|249:7,1,71.9999978027344,8|0,0:0|0:0,0:0:0:0:
190,242,118437,6,8,L|180:129,1,107.999996704102,8|0,0:0|0:0,0:0:0:0:
178,108,118749,1,8,0:0:0:0:
272,170,118905,1,0,0:0:0:0:
175,255,119062,6,8,L|165:142,1,107.999996704102,8|0,0:0|0:0,0:0:0:0:
163,121,119374,1,8,0:0:0:0:
260,137,119530,5,2,0:0:0:0:
93,320,119687,1,2,0:0:0:0:
260,137,119843,1,2,0:0:0:0:
93,320,119999,2,2,P|63:283|51:239,1,71.9999978027344
184,348,120312,1,0,0:0:0:0:
257,162,120468,2,8,P|271:122|275:78,1,75
323,243,120780,5,2,0:0:0:0:
364,49,120937,1,0,0:0:0:0:
456,245,121093,1,0,0:0:0:0:
360,36,121249,2,0,P|323:26|276:26,1,75
101,109,121562,5,2,0:0:0:0:
228,194,121718,2,8,P|265:204|312:204,1,75
74,116,122030,5,2,0:0:0:0:
152,312,122187,1,0,0:0:0:0:
198,93,122343,1,0,0:0:0:0:
160,324,122499,2,0,P|204:324|262:304,1,75
359,333,122812,5,2,0:0:0:0:
421,157,122968,2,8,P|422:95|367:47,1,112.5,8|0,0:0|0:0,0:0:0:0:
372,44,123280,1,0,0:0:0:0:
283,234,123437,1,0,0:0:0:0:
252,32,123593,1,0,0:0:0:0:
357,225,123749,2,8,P|411:250|467:233,1,112.5
477,233,124062,2,8,B|396:261|449:301|356:323,1,150
339,341,124530,6,8,L|337:374,2,18.75
329,311,124687,2,0,P|321:270|307:238,1,75
172,157,124999,2,0,P|180:198|194:230,1,75
132,332,125312,5,2,0:0:0:0:
273,144,125468,2,8,P|299:111|337:87,1,75
308,253,125780,5,2,0:0:0:0:
256,37,125937,1,0,0:0:0:0:
196,275,126093,1,0,0:0:0:0:
152,53,126249,2,0,P|165:102|193:142,1,75
72,145,126562,5,2,0:0:0:0:
325,61,126718,2,8,P|278:40|230:36,1,75
200,254,127030,5,2,0:0:0:0:
287,65,127187,1,0,0:0:0:0:
348,279,127343,1,0,0:0:0:0:
284,99,127499,1,0,0:0:0:0:
189,287,127655,1,0,0:0:0:0:
240,47,127812,6,8,P|286:25|341:33,1,93.75,2|0,0:0|0:0,0:0:0:0:
347,37,128085,2,8,L|352:85,1,37.5
365,189,128280,2,8,L|455:180,2,75
281,345,128749,1,0,0:0:0:0:
216,126,128905,2,8,P|200:93|163:62,1,75
164,282,129530,6,8,L|146:310,2,18.75
189,271,129687,2,0,P|212:234|219:193,1,75
157,105,129999,2,0,P|134:142|127:183,1,75
89,30,130312,5,2,0:0:0:0:
216,170,130468,2,8,P|245:201|283:219,1,75
364,319,130780,5,2,0:0:0:0:
246,96,130937,1,0,0:0:0:0:
167,339,131093,1,0,0:0:0:0:
345,154,131249,2,0,P|359:114|362:81,1,75
319,309,131562,5,2,0:0:0:0:
189,157,131718,2,8,P|163:123|150:93,1,75
216,243,132030,5,2,0:0:0:0:
246,21,132187,1,0,0:0:0:0:
49,93,132343,1,0,0:0:0:0:
267,173,132499,2,0,P|301:186|339:190,1,75
416,100,132812,5,2,0:0:0:0:
361,319,132968,2,8,P|378:282|385:249,1,75
435,37,133280,5,2,0:0:0:0:
196,68,133437,1,2,0:0:0:0:
452,121,133593,1,2,0:0:0:0:
213,152,133750,1,2,0:0:0:0:
471,206,133905,1,2,0:0:0:0:
232,237,134062,2,8,P|198:250|153:255,1,75
63,176,134374,5,0,0:0:0:0:
134,42,134530,2,8,L|128:21,3,18.75
196,216,134843,1,8,0:0:0:0:
265,63,134999,1,8,0:0:0:0:
332,191,135155,1,8,0:0:0:0:
406,84,135312,6,0,P|436:172|428:270,1,187.5
412,285,135780,2,8,P|388:251|350:231,1,75
155,158,136093,1,0,0:0:0:0:
236,147,136249,2,8,L|320:137,1,75,8|0,0:0|0:0,0:0:0:0:
285,252,136562,2,0,L|201:262,1,75
74,263,136874,5,2,0:0:0:0:
173,65,137030,1,0,0:0:0:0:
262,278,137187,1,0,0:0:0:0:
76,83,137343,1,0,0:0:0:0:
165,296,137499,1,0,0:0:0:0:
264,98,137656,1,0,0:0:0:0:
357,312,137812,6,2,P|442:263|429:156,1,187.5
436,155,138280,6,2,B|354:169|403:221|288:241,1,150
382,297,138749,5,0,0:0:0:0:
235,74,138905,1,0,0:0:0:0:
98,294,139062,6,2,L|119:200,1,90.0000034332277
261,140,139374,2,2,L|234:233,1,90.0000034332277
80,309,139687,6,2,P|80:257|101:215,1,90.0000034332277
276,129,139999,2,2,P|276:181|255:223,1,90.0000034332277
74,129,140312,6,8,B|165:115|122:59|224:49,1,150
72,24,140780,1,0,0:0:0:0:
195,186,140937,1,0,0:0:0:0:
72,24,141093,1,0,0:0:0:0:
195,186,141249,2,8,P|224:221|266:238,1,75
364,324,141562,6,8,P|439:304|421:231,1,150
373,58,142030,1,0,0:0:0:0:
318,246,142187,1,0,0:0:0:0:
373,58,142343,1,0,0:0:0:0:
318,246,142499,2,8,P|292:274|253:296,1,75
123,223,142812,6,8,P|109:147|105:42,1,150
45,206,143280,1,0,0:0:0:0:
108,26,143437,1,0,0:0:0:0:
189,231,143593,1,0,0:0:0:0:
110,63,143749,1,0,0:0:0:0:
37,244,143905,1,0,0:0:0:0:
230,84,144062,6,2,P|271:63|330:62,1,75
415,139,144374,2,2,P|374:160|315:161,1,75
207,69,144687,6,2,P|242:42|301:51,1,75
441,156,144999,2,2,P|406:183|347:174,1,75
125,151,145312,6,8,L|146:323,1,150
65,336,145780,1,0,0:0:0:0:
208,124,145937,1,0,0:0:0:0:
65,336,146093,1,0,0:0:0:0:
208,124,146249,2,8,P|234:88|262:71,1,75
453,137,146562,6,8,P|462:218|391:231,1,150
310,60,147030,1,0,0:0:0:0:
407,312,147187,1,0,0:0:0:0:
310,60,147343,1,0,0:0:0:0:
407,312,147499,2,8,P|434:347|475:366,1,75
264,259,147812,6,8,P|219:201|125:186,1,150
146,276,148280,1,0,0:0:0:0:
230,51,148437,1,0,0:0:0:0:
333,278,148593,1,0,0:0:0:0:
233,39,148749,1,0,0:0:0:0:
153,261,148905,1,0,0:0:0:0:
314,108,149062,6,2,B|320:62|320:62|349:21,1,75
458,144,149374,2,2,B|451:187|451:187|422:230,1,75
296,76,149687,6,2,B|314:34|314:34|364:12,1,75
480,173,149999,2,2,B|462:214|462:214|411:236,1,75
289,287,150312,6,2,L|119:247,1,150
148,359,150780,1,0,0:0:0:0:
282,162,150937,1,0,0:0:0:0:
269,351,151093,1,0,0:0:0:0:
181,149,151249,2,8,P|183:186|202:227,1,75
362,325,151562,6,8,P|436:302|429:219,1,150
325,53,152030,1,0,0:0:0:0:
217,265,152187,1,0,0:0:0:0:
181,40,152343,1,0,0:0:0:0:
327,249,152499,2,8,P|314:205|286:171,1,75
96,113,152812,6,2,P|101:185|120:273,1,150
21,224,153280,1,0,0:0:0:0:
209,108,153437,2,8,P|247:89|288:84,1,75
206,238,153749,1,0,0:0:0:0:
304,50,153905,1,0,0:0:0:0:
392,207,154062,2,8,P|408:246|401:292,1,75
390,348,154374,5,0,0:0:0:0:
262,124,154530,1,0,0:0:0:0:
100,280,154687,2,8,P|110:335|160:312,2,112.5
100,280,155312,5,2,0:0:0:0:
240,74,155468,1,0,0:0:0:0:
227,301,155624,5,0,0:0:0:0:
109,70,155780,1,0,0:0:0:0:
146,304,155937,5,2,0:0:0:0:
302,62,156093,1,0,0:0:0:0:
285,334,156249,5,0,0:0:0:0:
178,57,156405,1,0,0:0:0:0:
124,275,156562,5,8,0:0:0:0:
124,275,156640,1,8,0:0:0:0:
124,275,156718,1,8,0:0:0:0:
252,80,156874,5,2,0:0:0:0:
328,330,157030,1,0,0:0:0:0:
95,138,157187,5,2,0:0:0:0:
230,355,157343,1,0,0:0:0:0:
346,69,157499,1,2,0:0:0:0:
419,297,157655,5,8,0:0:0:0:
419,297,157733,1,8,0:0:0:0:
419,297,157812,1,8,0:0:0:0:
179,39,157968,5,2,0:0:0:0:
113,335,158124,1,0,0:0:0:0:
409,208,158280,1,2,0:0:0:0:
126,99,158437,5,8,0:0:0:0:
126,99,158515,1,8,0:0:0:0:
126,99,158593,1,8,0:0:0:0:
268,349,158749,5,2,0:0:0:0:
312,36,158905,1,2,0:0:0:0:
206,269,159062,6,8,B|179:232|179:232|168:168,1,107.999996704102,8|0,0:0|0:0,0:0:0:0:
172,176,159296,2,8,B|115:189,1,53.9999983520508,8|0,0:0|0:0,0:0:0:0:
271,115,159530,6,8,B|297:174,1,53.9999983520508,8|0,0:0|0:0,0:0:0:0:
271,115,159687,2,8,B|305:119|305:119|385:84,1,107.999996704102,8|0,0:0|0:0,0:0:0:0:
387,303,159921,6,8,L|284:297,1,80.9999975280763,8|0,0:0|0:0,0:0:0:0:
306,298,160116,2,8,L|391:265,1,80.9999975280763,8|0,0:0|0:0,0:0:0:0:
384,274,160312,6,2,P|368:239|357:192,1,75
279,63,160624,2,8,P|239:77|168:75,1,75
91,201,160937,1,0,0:0:0:0:
167,71,161093,1,0,0:0:0:0:
234,217,161249,2,8,B|264:244|264:244|308:258,1,75
107,309,161562,6,2,L|90:198,1,75
27,290,161874,1,0,0:0:0:0:
146,137,162030,1,0,0:0:0:0:
203,321,162187,1,0,0:0:0:0:
56,133,162343,2,8,P|42:91|34:41,1,75
137,264,162655,1,0,0:0:0:0:
214,117,162812,6,2,P|257:159|343:139,1,150
416,73,163280,1,0,0:0:0:0:
280,236,163437,1,0,0:0:0:0:
470,203,163593,1,0,0:0:0:0:
287,85,163749,2,8,P|255:53|206:31,1,75
192,256,164062,5,0,0:0:0:0:
342,161,164218,2,8,P|384:146|437:147,1,75
106,98,164530,5,8,0:0:0:0:
106,98,164608,1,8,0:0:0:0:
106,98,164687,2,8,P|165:89|174:134,2,112.5
93,118,165312,6,2,L|113:274,1,150
33,329,165780,1,0,0:0:0:0:
194,168,165937,1,0,0:0:0:0:
5,203,166093,1,0,0:0:0:0:
215,286,166249,2,8,B|253:307|253:307|309:306,1,75
427,215,166562,6,2,L|404:132,1,75
374,53,166874,1,0,0:0:0:0:
294,225,167030,1,0,0:0:0:0:
281,40,167187,1,0,0:0:0:0:
374,251,167343,1,0,0:0:0:0:
210,83,167499,2,8,P|171:64|104:57,1,75
56,119,167812,6,2,P|95:138|162:145,1,75
132,222,168124,1,0,0:0:0:0:
204,46,168280,1,0,0:0:0:0:
286,243,168437,1,0,0:0:0:0:
358,67,168593,2,8,P|391:40|438:31,1,75
470,96,168905,5,0,0:0:0:0:
440,232,169062,2,8,B|351:253|415:290|315:316,1,150
155,294,169530,5,8,0:0:0:0:
155,294,169608,1,8,0:0:0:0:
155,294,169687,2,8,P|98:274|111:230,2,112.5
171,275,170312,6,2,P|172:220|219:124,1,150
311,73,170780,1,0,0:0:0:0:
370,218,170937,1,0,0:0:0:0:
319,57,171093,1,0,0:0:0:0:
205,176,171249,2,8,P|177:207|136:225,1,75
293,318,171562,6,2,L|389:298,1,75
409,120,171874,1,0,0:0:0:0:
483,275,172030,1,0,0:0:0:0:
482,56,172187,1,0,0:0:0:0:
410,208,172343,2,8,P|381:230|335:231,1,75
126,186,172655,5,0,0:0:0:0:
235,82,172812,2,2,P|259:61|309:50,1,75
311,215,173124,1,0,0:0:0:0:
414,61,173280,1,0,0:0:0:0:
469,255,173437,1,0,0:0:0:0:
361,134,173593,2,8,P|330:108|287:92,1,75
94,46,173905,5,0,0:0:0:0:
111,124,174062,2,8,L|141:281,1,150
338,268,174530,5,8,0:0:0:0:
338,268,174608,1,8,0:0:0:0:
338,268,174687,2,8,P|353:325|309:339,2,112.5
317,249,175312,6,2,P|249:292|151:281,1,150
79,278,175780,1,0,0:0:0:0:
116,98,175937,1,0,0:0:0:0:
232,219,176093,1,0,0:0:0:0:
39,151,176249,2,8,P|23:111|28:62,1,75
106,262,176562,6,2,P|144:286|201:288,1,75
331,249,176874,1,0,0:0:0:0:
157,197,177030,1,0,0:0:0:0:
313,141,177187,1,0,0:0:0:0:
139,89,177343,2,8,P|96:75|53:41,1,75
116,235,177812,6,0,B|203:244|166:303|264:304,1,150,2|0,0:0|0:0,0:0:0:0:
291,177,178280,1,8,0:0:0:0:
348,119,178437,2,8,P|372:93|395:49,1,75
402,218,178749,2,8,P|378:244|355:288,1,75
234,122,179062,6,2,P|204:90|189:52,1,75
135,166,179374,2,2,P|118:199|92:226,1,75
245,112,179687,6,2,P|215:80|200:42,1,75
149,172,179999,2,2,P|132:205|106:232,1,75
326,89,180312,5,4,0:0:0:0:
