osu file format v14

[General]
AudioFilename: audio.mp3
AudioLeadIn: 0
PreviewTime: 9024
Countdown: 0
SampleSet: Soft
StackLeniency: 0.7
Mode: 0
LetterboxInBreaks: 0
WidescreenStoryboard: 1

[Editor]
DistanceSpacing: 1.4
BeatDivisor: 6
GridSize: 32
TimelineZoom: 2.599999

[Metadata]
Title:Bu Kiz
TitleUnicode:Bu Kız
Artist:Son Feci Bisiklet
ArtistUnicode:Son Feci Bisiklet
Creator:Orkay
Version:garvanturr's Hard
Source:
Tags:turkish indie alternative rock vesaire arda kemirgent heroine some hero garvanturr monsieursebas
BeatmapID:3925281
BeatmapSetID:1771928

[Difficulty]
HPDrainRate:3
CircleSize:3.8
OverallDifficulty:7
ApproachRate:7.6
SliderMultiplier:2
SliderTickRate:1

[Events]
//Background and Video events
0,0,"background.jpg",0,0
//Break Periods
2,142946,147506
//Storyboard Layer 0 (Background)
//Storyboard Layer 1 (Fail)
//Storyboard Layer 2 (Pass)
//Storyboard Layer 3 (Foreground)
//Storyboard Layer 4 (Overlay)
//Storyboard Sound Samples

[TimingPoints]
-1653,508.474576271186,4,2,1,60,1,0
380,-200,4,2,1,60,0,0
4956,-200,4,2,1,40,0,0
5125,-200,4,2,1,42,0,0
5295,-200,4,2,1,44,0,0
5464,-200,4,2,1,46,0,0
5634,-200,4,2,1,48,0,0
5803,-200,4,2,1,50,0,0
5973,-200,4,2,1,52,0,0
6142,-200,4,2,1,54,0,0
6312,-200,4,2,1,56,0,0
6481,-200,4,2,1,60,0,0
7498,-200,4,2,1,50,0,0
10041,-200,4,2,2,50,0,0
10549,-100,4,2,1,70,0,1
10634,-100,4,2,1,70,0,0
16651,-100,4,2,1,80,0,0
18685,-95.2380952380952,4,2,1,80,0,1
24786,-95.2380952380952,4,2,1,80,0,0
25803,-95.2380952380952,4,2,1,70,0,0
26820,-95.2380952380952,4,2,1,70,0,1
26905,-95.2380952380952,4,2,1,70,0,0
41057,-133.333333333333,4,2,1,70,0,0
42922,-133.333333333333,4,2,1,60,0,0
43091,-111.111111111111,4,2,1,60,0,0
55295,-111.111111111111,4,2,1,70,0,1
57329,-200,4,2,1,70,0,0
60210,-200,4,2,1,60,0,0
61396,-100,4,2,2,65,0,1
61481,-100,4,2,2,65,0,0
68346,-100,4,2,1,65,0,0
68854,-100,4,2,2,65,0,0
69532,-95.2380952380952,4,2,2,65,0,0
76651,-95.2380952380952,4,2,2,70,0,0
77668,-100,4,2,1,70,0,1
77752,-100,4,2,1,70,0,0
83769,-100,4,2,1,80,0,0
85803,-95.2380952380952,4,2,1,80,0,1
91905,-133.333333333333,4,2,1,80,0,0
92922,-133.333333333333,4,2,1,50,0,0
93769,-133.333333333333,4,2,1,60,0,0
93939,-111.111111111111,4,2,1,60,0,0
106142,-111.111111111111,4,2,1,65,0,0
112244,-111.111111111111,4,2,1,70,0,0
114278,-90.9090909090909,4,2,1,80,0,1
122413,-100,4,2,1,70,0,0
130549,-90.9090909090909,4,2,1,85,0,1
140210,480,4,2,1,85,1,1
140530,594.059405940592,4,2,1,85,1,0
141820,526.315789473684,4,2,1,50,1,0
142346,600,4,2,1,50,1,0
142946,508.474576271186,4,2,1,60,1,0
143962,566.037735849056,4,2,1,60,1,0
144528,555.555555555555,4,2,1,60,1,0
146193,530.973451327433,4,2,1,60,1,0
148316,566.037735849056,4,2,1,70,1,0
149448,545.454545454545,4,2,1,65,1,0
149448,-117.647058823529,4,2,1,65,0,0
153811,-105.263157894737,4,2,1,70,0,1
153902,-105.263157894737,4,2,1,70,0,0
164175,-105.263157894737,4,2,1,67,0,0
164720,-105.263157894737,4,2,1,64,0,0
165266,-105.263157894737,4,2,1,61,0,0
165811,-105.263157894737,4,2,1,58,0,0
166357,-105.263157894737,4,2,1,55,0,0
166902,-105.263157894737,4,2,1,52,0,0
167448,-105.263157894737,4,2,1,49,0,0
167993,-105.263157894737,4,2,1,46,0,0
168538,-105.263157894737,4,2,1,43,0,0
169084,-105.263157894737,4,2,1,40,0,0
169629,-105.263157894737,4,2,1,37,0,0
170175,-105.263157894737,4,2,1,34,0,0
170720,-105.263157894737,4,2,1,31,0,0
171266,-105.263157894737,4,2,1,28,0,0
171811,-105.263157894737,4,2,1,25,0,0
172357,-105.263157894737,4,2,1,20,0,0
172902,-105.263157894737,4,2,1,15,0,0
173447,-105.263157894737,4,2,1,5,0,0

[Colours]
Combo1 : 208,154,138
Combo2 : 147,182,116
Combo3 : 165,128,168
Combo4 : 139,199,199

[HitObjects]
423,297,380,6,0,P|458:293|469:232,1,100,12|0,1:1|0:0,0:0:0:0:
438,164,1057,2,0,P|409:168|394:172,1,33.3333333333333
335,209,1396,2,0,P|337:242|344:274,1,66.6666666666667
296,339,1905,1,8,0:0:0:0:
296,339,2074,1,0,1:0:0:0:
296,339,2244,1,8,0:0:0:0:
296,339,2413,6,0,P|243:347|190:361,1,100,4|8,1:0|0:0,0:0:0:0:
47,317,3261,1,4,3:0:0:0:
47,317,3430,2,0,P|51:270|56:240,1,66.6666666666667,4|0,1:0|0:0,0:0:0:0:
117,195,3939,2,0,P|143:201|154:204,2,33.3333333333333,8|8|8,0:0|0:0|3:2,0:0:0:0:
40,169,4447,6,0,P|31:148|21:102,1,66.6666666666667,12|0,1:2|0:0,0:0:0:0:
61,35,4956,2,0,P|48:24|39:3,2,33.3333333333333,8|8|8,0:0|0:0|3:2,0:0:0:0:
133,68,5464,2,0,P|128:91|127:113,2,33.3333333333333,8|8|8,0:0|0:0|0:0,0:0:0:0:
199,21,5973,1,8,0:0:0:0:
275,44,6142,1,8,0:0:0:0:
297,121,6312,1,8,3:2:0:0:
372,95,6481,6,0,P|380:122|392:169,1,66.6666666666667,12|0,1:2|0:0,0:0:0:0:
469,171,6990,2,0,P|461:206|456:245,1,66.6666666666667
419,307,7498,1,8,3:0:0:0:
418,322,7668,1,8,3:0:0:0:
427,316,7837,1,4,3:0:0:0:
409,313,8007,2,0,P|383:315|313:350,1,100,2|0,0:0|1:0,0:0:0:0:
254,32,10041,5,2,0:0:0:0:
254,32,10549,6,0,P|241:62|219:255,1,200,4|10,1:1|0:0,0:0:0:0:
216,226,11396,1,8,0:0:0:0:
145,287,11566,2,0,P|182:303|252:375,1,133.333333333333,2|0,1:2|1:0,0:0:0:0:
339,350,12074,2,0,P|387:362|430:290,1,133.333333333333,10|0,0:0|3:0,0:0:0:0:
398,213,12583,6,0,P|414:130|459:20,1,200,2|10,1:2|0:0,0:0:0:0:
457,23,13430,1,8,0:0:0:0:
400,97,13600,2,0,P|366:103|267:154,1,133.333333333333,2|0,1:2|1:0,0:0:0:0:
188,117,14108,2,0,B|112:131|112:131|69:89,1,133.333333333333,10|0,0:0|0:0,0:0:0:0:
9,21,14617,6,0,P|33:77|72:241,1,200,2|10,1:2|0:0,0:0:0:0:
68,211,15464,1,8,0:0:0:0:
15,288,15634,2,0,P|65:320|134:391,1,133.333333333333,2|0,1:2|1:0,0:0:0:0:
210,356,16142,2,0,P|270:368|298:297,1,133.333333333333,10|0,0:0|0:0,0:0:0:0:
386,271,16651,6,0,B|423:284|423:284|437:311,2,66.6666666666667,4|8|8,1:2|0:0|0:0,0:0:0:0:
302,227,17159,2,0,P|275:182|256:102,1,133.333333333333,8|8,0:0|0:0,0:0:0:0:
298,28,17668,5,4,1:2:0:0:
309,38,17837,1,8,0:0:0:0:
318,34,18007,1,8,0:0:0:0:
310,23,18176,2,0,P|345:37|403:118,1,133.333333333333,4|4,1:2|1:2,0:0:0:0:
500,116,18685,6,0,P|504:165|426:192,1,139.999995727539,4|0,1:0|0:0,0:0:0:0:
337,161,19193,1,10,0:0:0:0:
276,347,19532,1,8,0:0:0:0:
194,292,19702,2,0,P|177:199|143:79,2,209.999993591309,2|10|2,1:2|0:0|1:2,0:0:0:0:
6,235,21057,5,0,0:0:0:0:
74,305,21227,2,0,P|138:283|150:200,1,139.999995727539,10|8,0:0|0:0,0:0:0:0:
88,147,21735,2,0,L|17:130,2,69.9999978637696,2|0|0,1:2|0:0|1:0,0:0:0:0:
162,81,22244,1,10,0:0:0:0:
302,217,22583,1,0,0:0:0:0:
384,165,22752,6,0,P|400:123|410:2,1,139.999995727539,2|0,1:2|0:0,0:0:0:0:
506,48,23261,2,0,P|445:53|371:104,1,139.999995727539,10|8,0:0|0:0,0:0:0:0:
434,175,23769,2,0,L|460:320,1,139.999995727539,2|0,1:2|1:0,0:0:0:0:
381,374,24278,2,0,P|323:371|275:285,1,139.999995727539,10|4,0:0|3:0,0:0:0:0:
256,213,24786,1,8,1:0:0:0:
55,92,25803,5,8,3:0:0:0:
69,103,25973,1,8,3:0:0:0:
68,90,26142,1,4,3:0:0:0:
57,104,26312,1,0,1:0:0:0:
249,73,26651,1,8,0:0:0:0:
249,73,26820,6,0,P|232:114|218:230,1,139.999995727539,4|0,1:0|0:0,0:0:0:0:
230,305,27329,2,0,P|161:283|76:280,1,139.999995727539,10|8,0:0|0:0,0:0:0:0:
24,348,27837,2,0,P|11:276|-13:206,1,139.999995727539,2|0,1:2|1:0,0:0:0:0:
80,174,28346,2,0,P|86:144|107:100,2,69.9999978637696,10|0|0,0:0|0:0|0:0,0:0:0:0:
7,112,28854,6,0,P|26:55|99:25,1,139.999995727539,2|0,1:2|0:0,0:0:0:0:
178,78,29363,2,0,P|209:123|304:128,1,139.999995727539,10|8,0:0|0:0,0:0:0:0:
348,56,29871,1,2,1:2:0:0:
478,319,30379,1,10,0:0:0:0:
290,258,30719,1,0,0:0:0:0:
256,352,30888,6,0,P|230:304|142:268,1,139.999995727539,2|0,1:2|0:0,0:0:0:0:
67,224,31396,2,0,P|121:225|196:167,1,139.999995727539,10|8,0:0|0:0,0:0:0:0:
272,124,31905,2,0,P|243:170|256:264,1,139.999995727539,2|0,1:2|1:0,0:0:0:0:
338,210,32413,2,0,L|413:231,2,69.9999978637696,10|0|0,0:0|0:0|0:0,0:0:0:0:
268,142,32922,6,0,P|227:84|167:28,1,139.999995727539,2|0,1:2|0:0,0:0:0:0:
274,19,33430,1,10,0:0:0:0:
200,200,33769,1,8,0:0:0:0:
111,156,33939,2,0,P|77:148|36:139,2,69.9999978637696,2|0|0,1:2|0:0|1:0,0:0:0:0:
192,210,34447,1,12,0:0:0:0:
84,373,34786,1,2,0:0:0:0:
32,289,34956,6,0,P|126:301|209:385,1,209.999993591309,2|10,1:2|0:0,0:0:0:0:
386,302,35803,1,8,0:0:0:0:
447,357,35973,2,0,P|361:354|280:263,2,209.999993591309,2|12|2,1:2|0:0|1:2,0:0:0:0:
489,165,37329,1,0,0:0:0:0:
392,177,37498,2,0,P|372:250|362:330,1,139.999995727539,10|8,0:0|0:0,0:0:0:0:
271,350,38007,2,0,P|261:298|224:187,1,139.999995727539,2|0,1:2|1:0,0:0:0:0:
137,207,38515,1,12,0:0:0:0:
284,77,38854,1,2,0:0:0:0:
355,144,39024,6,0,P|291:118|133:109,1,209.999993591309,2|10,1:2|0:0,0:0:0:0:
56,277,39871,1,8,0:0:0:0:
80,181,40041,2,0,P|87:211|92:253,2,69.9999978637696,2|8|0,1:2|3:0|1:0,0:0:0:0:
12,252,40549,1,8,3:0:0:0:
73,328,40718,1,8,3:0:0:0:
164,291,40888,1,4,3:0:0:0:
248,340,41057,6,0,P|254:298|284:192,3,150.000005722046,8|0|0|0,1:2|0:0|0:0|0:0,0:0:0:0:
194,85,42922,1,8,0:0:0:0:
274,106,43091,6,0,P|323:93|400:82,1,119.999996337891,8|4,1:2|3:0,0:0:0:0:
449,144,43600,2,0,P|458:205|476:270,1,119.999996337891,8|4,0:0|3:0,0:0:0:0:
435,336,44108,2,0,P|374:343|303:363,1,119.999996337891,0|4,1:0|3:0,0:0:0:0:
305,274,44617,2,0,P|322:250|330:219,2,59.9999981689454,8|0|8,0:0|0:0|0:0,0:0:0:0:
241,329,45125,6,0,P|187:323|136:276,1,119.999996337891,0|4,1:0|3:0,0:0:0:0:
98,206,45634,2,0,P|153:192|196:141,1,119.999996337891,8|4,0:0|3:0,0:0:0:0:
178,64,46142,1,0,1:0:0:0:
327,141,46481,1,4,3:0:0:0:
355,61,46651,2,0,B|406:44|443:42|443:42|428:75,1,119.999996337891,8|10,0:0|0:0,0:0:0:0:
408,150,47159,6,0,P|394:195|387:288,1,119.999996337891,4|4,1:0|3:0,0:0:0:0:
453,324,47668,2,0,P|418:356|334:330,1,119.999996337891,8|4,0:0|3:0,0:0:0:0:
284,291,48176,2,0,P|259:238|210:191,1,119.999996337891,0|4,1:0|3:0,0:0:0:0:
275,134,48685,1,8,0:0:0:0:
267,301,49024,1,8,0:0:0:0:
191,337,49193,6,0,P|154:330|69:284,1,119.999996337891,0|4,1:0|3:0,0:0:0:0:
7,335,49702,2,0,P|8:359|54:394,2,59.9999981689454,8|0|10,0:0|0:0|0:0,0:0:0:0:
63,272,50210,1,0,1:0:0:0:
223,220,50549,1,4,3:0:0:0:
147,182,50718,2,0,P|133:129|114:42,1,119.999996337891,8|4,0:0|3:0,0:0:0:0:
189,18,51227,6,0,P|247:39|315:61,1,119.999996337891,0|4,1:0|3:0,0:0:0:0:
383,34,51735,1,8,0:0:0:0:
450,187,52074,1,12,0:0:0:0:
378,142,52244,2,0,P|363:208|353:282,1,119.999996337891,2|4,1:2|3:0,0:0:0:0:
410,323,52752,2,0,B|380:378|380:378|316:370,1,119.999996337891,8|8,0:0|0:0,0:0:0:0:
274,299,53261,6,0,P|214:307|144:325,1,119.999996337891,0|4,1:0|3:0,0:0:0:0:
87,369,53769,1,8,0:0:0:0:
21,214,54108,1,10,0:0:0:0:
98,247,54278,2,0,P|110:216|115:177,2,59.9999981689454,0|8|4,1:0|3:0|3:0,0:0:0:0:
181,238,54786,1,8,0:0:0:0:
222,164,54956,1,4,3:0:0:0:
188,87,55125,1,4,3:0:0:0:
246,26,55295,5,4,1:0:0:0:
317,69,55464,2,0,P|334:65|352:51,2,29.9999990844727,8|8|8,0:0|0:0|0:0,0:0:0:0:
317,153,55803,2,0,P|301:179|292:210,2,59.9999981689454,8|8|8,0:0|0:0|0:0,0:0:0:0:
387,199,56312,5,4,1:2:0:0:
458,156,56481,2,0,P|475:160|491:176,2,29.9999990844727,4|4|8,3:0|3:0|3:0,0:0:0:0:
453,71,56820,2,0,P|477:54|493:27,2,59.9999981689454,8|4|4,3:0|3:0|3:0,0:0:0:0:
390,23,57329,6,0,B|403:113|440:204|440:204|438:215|438:215|354:182|306:173,1,333.333333333333,4|0,1:0|0:0,0:0:0:0:
298,128,59194,6,0,P|220:126|129:167,1,166.666666666667,12|0,1:2|0:0,0:0:0:0:
152,208,60210,5,8,3:0:0:0:
152,208,60379,1,8,3:0:0:0:
120,297,60718,1,4,3:0:0:0:
120,297,60888,1,4,3:0:0:0:
54,363,61227,1,0,1:0:0:0:
54,363,61396,6,0,P|38:268|21:205,1,133.333333333333,4|0,1:0|0:0,0:0:0:0:
75,150,61905,1,10,0:0:0:0:
167,311,62244,1,8,0:0:0:0:
221,235,62413,2,0,P|261:243|349:292,1,133.333333333333,2|0,1:2|1:0,0:0:0:0:
416,344,62922,2,0,P|446:357|488:352,2,66.6666666666667,10|0|0,0:0|0:0|0:0,0:0:0:0:
416,250,63430,6,0,P|423:187|448:122,1,133.333333333333,2|0,1:2|0:0,0:0:0:0:
460,28,63939,1,10,0:0:0:0:
308,136,64278,1,8,0:0:0:0:
235,77,64447,2,0,P|169:53|100:37,1,133.333333333333,2|0,1:2|1:0,0:0:0:0:
15,55,64956,2,0,B|41:96|51:142|51:142|74:132|99:134,1,133.333333333333,12|0,0:0|0:0,0:0:0:0:
180,149,65464,6,0,P|163:215|157:301,1,133.333333333333,2|0,1:2|0:0,0:0:0:0:
157,373,65973,1,10,0:0:0:0:
290,242,66312,1,8,0:0:0:0:
366,295,66481,2,0,P|429:269|502:250,1,133.333333333333,2|0,1:2|1:0,0:0:0:0:
493,346,66990,2,0,P|464:359|427:369,2,66.6666666666667,10|0|8,0:0|0:0|0:0,0:0:0:0:
504,253,67498,6,0,P|510:226|493:191,2,66.6666666666667,2|8|4,1:2|3:0|3:0,0:0:0:0:
414,223,68007,2,0,P|425:162|456:94,1,133.333333333333,8|2,0:0|0:0,0:0:0:0:
415,11,68515,1,0,1:0:0:0:
322,26,68685,1,2,0:0:0:0:
296,115,68854,1,2,0:0:0:0:
202,107,69024,2,0,P|141:96|75:66,1,133.333333333333,8|4,0:0|3:0,0:0:0:0:
9,138,69532,6,0,P|11:174|109:201,1,139.999995727539,4|0,1:0|0:0,0:0:0:0:
164,138,70041,2,0,P|173:84|198:2,1,139.999995727539,10|8,0:0|0:0,0:0:0:0:
285,46,70549,2,0,P|321:48|348:146,1,139.999995727539,2|0,1:2|1:0,0:0:0:0:
415,211,71058,2,0,P|383:255|342:331,1,139.999995727539,12|0,1:2|0:0,0:0:0:0:
440,347,71566,5,2,1:2:0:0:
261,266,71905,1,0,0:0:0:0:
223,356,72074,2,0,P|181:345|86:332,1,139.999995727539,10|8,0:0|0:0,0:0:0:0:
13,264,72583,2,0,P|17:197|82:177,1,139.999995727539,2|0,1:2|1:0,0:0:0:0:
148,245,73091,1,12,1:2:0:0:
159,49,73430,1,0,0:0:0:0:
210,132,73600,6,0,B|253:120|310:98|310:98|328:64|328:64|413:59,2,209.999993591309,2|10|2,1:2|0:0|1:2,0:0:0:0:
294,309,74956,1,0,1:0:0:0:
209,357,75125,2,0,P|178:347|145:325,2,69.9999978637696,10|8|4,0:0|3:0|3:0,0:0:0:0:
283,292,75634,5,8,1:2:0:0:
381,93,76651,5,8,3:0:0:0:
386,110,76820,1,8,3:0:0:0:
395,99,76990,1,4,3:0:0:0:
375,105,77159,1,0,1:0:0:0:
473,274,77498,1,8,0:0:0:0:
412,345,77668,6,0,P|401:295|391:212,1,133.333333333333,4|0,1:0|0:0,0:0:0:0:
304,177,78176,2,0,B|227:188|274:224|188:236,1,133.333333333333,10|8,0:0|0:0,0:0:0:0:
97,217,78685,2,0,P|110:264|126:352,1,133.333333333333,2|0,1:2|1:0,0:0:0:0:
199,289,79193,2,0,P|207:262|231:229,2,66.6666666666667,10|0|0,0:0|0:0|3:0,0:0:0:0:
133,356,79702,6,0,P|91:355|27:279,1,133.333333333333,2|0,1:2|0:0,0:0:0:0:
6,202,80210,1,10,0:0:0:0:
183,144,80549,1,8,0:0:0:0:
116,209,80718,2,0,P|88:186|49:96,1,133.333333333333,2|0,1:2|1:0,0:0:0:0:
99,19,81227,1,10,0:0:0:0:
263,107,81566,1,0,0:0:0:0:
341,56,81735,6,0,P|382:62|484:90,1,133.333333333333,2|0,1:2|0:0,0:0:0:0:
492,176,82244,2,0,P|462:183|388:256,1,133.333333333333,10|8,0:0|0:0,0:0:0:0:
325,320,82752,2,0,P|313:278|272:177,1,133.333333333333,2|0,1:2|1:0,0:0:0:0:
256,103,83261,2,0,P|270:82|280:37,2,66.6666666666667,10|0|0,0:0|0:0|0:0,0:0:0:0:
159,84,83769,6,0,L|147:10,2,66.6666666666667,4|8|8,1:2|0:0|0:0,0:0:0:0:
105,161,84278,2,0,P|71:167|9:244,1,133.333333333333,8|8,0:0|0:0,0:0:0:0:
41,326,84786,1,4,1:2:0:0:
48,313,84956,1,8,0:0:0:0:
32,309,85125,1,8,0:0:0:0:
25,323,85295,2,0,P|67:322|156:366,1,133.333333333333,4|4,1:2|1:2,0:0:0:0:
245,342,85803,6,0,P|301:350|338:266,1,139.999995727539,4|0,1:0|0:0,0:0:0:0:
325,189,86312,1,10,0:0:0:0:
499,278,86651,1,8,0:0:0:0:
454,364,86820,2,0,P|449:316|414:155,2,209.999993591309,2|10|2,1:2|0:0|1:2,0:0:0:0:
344,200,88176,5,0,0:0:0:0:
247,216,88346,2,0,P|209:213|162:108,1,139.999995727539,10|8,0:0|0:0,0:0:0:0:
216,57,88854,2,0,P|270:68|301:92,2,69.9999978637696,2|0|0,1:2|0:0|1:0,0:0:0:0:
143,124,89363,1,10,0:0:0:0:
13,270,89702,1,0,0:0:0:0:
40,176,89871,6,0,P|56:248|67:320,1,139.999995727539,2|0,1:2|0:0,0:0:0:0:
150,364,90379,2,0,P|190:359|224:269,1,139.999995727539,10|8,0:0|0:0,0:0:0:0:
279,192,90888,2,0,P|274:169|252:126,2,69.9999978637696,2|8|0,1:2|3:0|1:0,0:0:0:0:
326,278,91396,1,8,3:0:0:0:
420,303,91566,1,8,3:0:0:0:
489,233,91735,1,4,3:0:0:0:
473,138,91905,6,0,P|445:131|333:80,1,150.000005722046,8|0,1:2|0:0,0:0:0:0:
128,122,92923,2,0,P|93:108|73:84,3,50.0000019073487,0|0|0|0,1:0|1:0|1:0|1:0,0:0:0:0:
148,44,93601,1,0,0:0:0:0:
212,97,93769,2,0,P|206:119|200:159,1,50.0000019073487,8|0,0:0|1:0,0:0:0:0:
38,189,94278,5,4,3:0:0:0:
102,245,94447,2,0,P|113:291|127:371,1,119.999996337891,8|4,0:0|3:0,0:0:0:0:
204,330,94956,2,0,P|235:312|275:298,2,59.9999981689454,0|0|4,1:0|0:0|3:0,0:0:0:0:
130,372,95464,1,8,0:0:0:0:
20,245,95803,1,8,0:0:0:0:
103,253,95973,6,0,P|162:230|179:168,1,119.999996337891,0|4,1:0|3:0,0:0:0:0:
112,130,96481,2,0,P|106:99|72:10,1,119.999996337891,8|4,0:0|3:0,0:0:0:0:
19,79,96990,1,0,1:0:0:0:
182,38,97329,1,4,3:0:0:0:
253,81,97498,2,0,P|285:86|329:97,2,59.9999981689454,8|0|10,0:0|0:0|0:0,0:0:0:0:
185,29,98007,6,0,P|170:86|158:167,1,119.999996337891,0|4,1:0|3:0,0:0:0:0:
209,214,98515,1,12,1:2:0:0:
369,164,98854,1,4,3:0:0:0:
306,220,99024,2,0,P|314:251|336:348,1,119.999996337891,0|4,1:0|3:0,0:0:0:0:
254,366,99532,1,8,0:0:0:0:
114,272,99871,1,8,0:0:0:0:
82,349,100041,6,0,P|120:338|196:302,1,119.999996337891,0|4,1:0|3:0,0:0:0:0:
254,366,100549,1,8,0:0:0:0:
366,241,100888,1,10,0:0:0:0:
412,310,101057,2,0,P|375:287|296:252,1,119.999996337891,0|4,1:0|3:0,0:0:0:0:
252,189,101566,2,0,P|261:157|310:66,1,119.999996337891,8|4,0:0|3:0,0:0:0:0:
232,29,102074,5,0,1:0:0:0:
65,49,102413,1,4,3:0:0:0:
24,123,102583,2,0,P|72:136|141:159,1,119.999996337891,8|12,0:0|0:0,0:0:0:0:
164,238,103091,5,2,1:2:0:0:
69,376,103430,1,4,3:0:0:0:
231,333,103769,2,0,P|269:343|290:352,1,59.9999981689454,0|8,0:0|0:0,0:0:0:0:
372,349,104108,6,0,P|403:355|448:273,1,119.999996337891,0|4,1:0|3:0,0:0:0:0:
405,224,104617,2,0,P|401:193|371:105,1,119.999996337891,8|10,0:0|0:0,0:0:0:0:
294,140,105125,2,0,P|237:129|182:89,1,119.999996337891,0|4,1:0|3:0,0:0:0:0:
210,12,105634,2,0,P|242:7|275:0,2,59.9999981689454,8|4|4,0:0|3:0|3:0,0:0:0:0:
134,50,106142,5,4,1:2:0:0:
256,362,108007,5,8,0:0:0:0:
256,362,108176,1,12,1:2:0:0:
387,56,109702,6,0,L|417:60,2,22.4999993133545,8|8|8,0:0|0:0|3:0,0:0:0:0:
324,127,110020,2,0,P|339:159|349:201,1,67.4999979400635,4|12,3:0|1:2,0:0:0:0:
255,194,111736,6,0,L|245:160,2,22.4999993133545,8|8|4,0:0|3:0|3:0,0:0:0:0:
324,258,112054,1,8,0:0:0:0:
256,321,112244,6,0,P|226:314|197:287,2,59.9999981689454,4|8|8,1:0|0:0|0:0,0:0:0:0:
319,265,112752,1,8,0:0:0:0:
399,289,112922,1,8,0:0:0:0:
459,231,113091,1,0,1:0:0:0:
429,152,113261,6,0,P|401:159|364:173,2,59.9999981689454,8|0|8,0:0|1:0|0:0,0:0:0:0:
405,71,113769,1,0,1:0:0:0:
395,56,113939,1,4,3:0:0:0:
410,46,114108,1,4,3:0:0:0:
422,61,114278,6,0,P|354:81|265:110,1,146.666671142578,4|0,1:0|0:0,0:0:0:0:
239,198,114786,2,0,P|171:178|82:149,1,146.666671142578,10|0,0:0|0:0,0:0:0:0:
26,81,115295,2,0,P|13:45|-5:8,2,73.3333355712891,2|0|0,1:2|0:0|1:0,0:0:0:0:
19,183,115803,1,10,0:0:0:0:
116,215,115973,1,0,0:0:0:0:
71,307,116142,1,0,0:0:0:0:
165,348,116312,6,0,P|208:360|243:372,2,73.3333355712891,2|0|0,1:2|0:0|1:0,0:0:0:0:
66,317,116820,2,0,P|17:332|-13:341,2,73.3333355712891,10|0|0,0:0|0:0|0:0,0:0:0:0:
108,222,117329,1,2,1:2:0:0:
199,268,117498,1,0,0:0:0:0:
247,176,117668,1,0,1:0:0:0:
326,240,117837,2,0,P|317:278|309:318,2,73.3333355712891,12|0|0,0:0|0:0|0:0,0:0:0:0:
429,232,118346,6,0,B|410:157|360:185|340:108,1,146.666671142578,4|0,1:0|1:0,0:0:0:0:
369,18,118854,1,10,0:0:0:0:
498,177,119193,1,0,0:0:0:0:
424,249,119363,2,0,P|375:263|279:308,1,146.666671142578,2|0,1:2|1:0,0:0:0:0:
202,359,119871,2,0,P|168:347|47:314,1,146.666671142578,10|0,0:0|0:0,0:0:0:0:
16,224,120379,6,0,P|78:234|133:170,1,146.666671142578,2|0,1:2|1:0,0:0:0:0:
168,80,120888,2,0,P|235:72|283:156,1,146.666671142578,10|0,0:0|0:0,0:0:0:0:
384,144,121396,1,4,1:2:0:0:
315,221,121566,1,8,0:0:0:0:
361,311,121735,1,8,0:0:0:0:
274,366,121905,2,0,P|241:353|184:328,2,73.3333355712891,8|8|8,0:0|0:0|0:0,0:0:0:0:
360,330,122413,5,4,1:2:0:0:
197,238,122752,1,8,1:0:0:0:
197,238,122922,1,8,1:0:0:0:
65,369,123261,2,0,P|58:324|26:142,1,200,4|0,1:0|1:0,0:0:0:0:
70,86,123939,2,0,L|151:106,2,66.6666666666667,10|0|8,0:0|1:0|0:0,0:0:0:0:
3,20,124447,5,4,1:2:0:0:
109,179,124786,1,8,3:0:0:0:
109,179,124956,1,8,0:0:0:0:
274,92,125295,2,0,P|355:116|459:175,1,200,4|0,1:0|1:0,0:0:0:0:
482,82,125973,2,0,P|491:47|505:11,2,66.6666666666667,8|8|4,0:0|3:0|3:0,0:0:0:0:
475,175,126481,5,8,1:0:0:0:
475,175,126651,2,0,P|483:202|486:216,2,33.3333333333333,8|8|8,3:0|3:0|0:0,0:0:0:0:
414,246,126990,2,0,P|412:281|406:317,1,66.6666666666667,0|0,1:0|1:0,0:0:0:0:
328,363,127329,2,0,P|252:353|135:302,1,200,4|0,1:0|1:0,0:0:0:0:
76,374,128007,2,0,P|28:350|19:276,1,133.333333333333,10|0,0:0|0:0,0:0:0:0:
93,219,128515,6,0,P|90:192|77:148,2,66.6666666666667,4|8|8,1:2|0:0|0:0,0:0:0:0:
143,298,129024,1,8,0:0:0:0:
224,252,129193,1,8,0:0:0:0:
197,162,129363,2,0,P|246:169|376:257,1,200,4|8,1:0|1:2,0:0:0:0:
382,342,130041,2,0,P|420:359|478:296,1,133.333333333333,8|0,1:2|1:0,0:0:0:0:
461,200,130549,6,0,P|429:182|339:104,1,146.666671142578,12|0,1:0|1:0,0:0:0:0:
265,46,131057,2,0,P|258:82|254:118,1,73.3333355712891,10|0,0:0|0:0,0:0:0:0:
168,175,131396,1,0,1:0:0:0:
102,95,131566,2,0,P|118:153|135:269,1,146.666671142578,10|0,0:0|1:0,0:0:0:0:
97,336,132074,2,0,P|71:323|34:287,2,73.3333355712891,10|0|0,0:0|1:0|1:0,0:0:0:0:
192,376,132583,6,0,P|209:338|304:300,1,146.666671142578,10|0,0:0|1:0,0:0:0:0:
385,358,133091,2,0,P|415:352|460:336,1,73.3333355712891,10|0,0:0|0:0,0:0:0:0:
403,248,133430,1,0,1:0:0:0:
505,250,133600,2,0,P|439:221|364:159,1,146.666671142578,10|0,0:0|1:0,0:0:0:0:
394,73,134108,1,10,0:0:0:0:
470,142,134278,1,0,1:0:0:0:
385,83,134447,1,0,1:0:0:0:
294,131,134617,6,0,P|236:135|172:61,1,146.666671142578,10|0,0:0|1:0,0:0:0:0:
82,32,135125,2,0,P|90:70|100:113,1,73.3333355712891,10|0,0:0|0:0,0:0:0:0:
82,205,135464,1,0,1:0:0:0:
21,121,135634,2,0,P|70:135|174:200,1,146.666671142578,10|0,0:0|1:0,0:0:0:0:
189,278,136142,2,0,L|178:359,2,73.3333355712891,10|0|0,0:0|1:0|1:0,0:0:0:0:
291,266,136651,6,0,P|331:274|375:186,1,146.666671142578,10|0,0:0|1:0,0:0:0:0:
370,92,137159,2,0,P|397:97|442:120,1,73.3333355712891,10|0,0:0|0:0,0:0:0:0:
457,218,137498,1,0,1:0:0:0:
363,174,137668,2,0,P|356:138|326:22,1,146.666671142578,10|0,0:0|1:0,0:0:0:0:
262,110,138176,1,10,0:0:0:0:
280,8,138346,1,0,1:0:0:0:
253,106,138515,1,0,1:0:0:0:
159,149,138685,5,10,0:0:0:0:
79,84,138854,2,0,P|70:56|66:49,2,36.6666677856446,8|8|8,0:0|0:0|0:0,0:0:0:0:
60,185,139193,2,0,P|26:161|-14:139,2,73.3333355712891,8|8|8,0:0|0:0|3:0,0:0:0:0:
156,221,139702,2,0,P|133:258|107:358,1,146.666671142578,8|4,0:0|3:0,0:0:0:0:
24,302,140210,1,0,1:0:0:0:
255,360,140530,5,4,1:0:0:0:
255,48,148316,5,8,1:2:0:0:
19,363,149448,6,0,P|70:346|172:286,1,170.000003242493,0|10,1:0|0:0,0:0:0:0:
30,94,150538,2,0,P|44:135|76:258,1,170.000003242493,0|10,1:0|0:0,0:0:0:0:
236,231,151448,1,4,3:0:0:0:
236,231,151629,2,0,P|284:241|351:273,1,113.333335494995,0|0,1:0|0:0,0:0:0:0:
374,340,152175,1,10,0:0:0:0:
490,232,152538,1,4,3:0:0:0:
490,232,152720,2,0,P|482:198|455:116,1,113.333335494995,0|8,1:0|3:0,0:0:0:0:
470,44,153266,2,0,P|439:39|365:71,1,113.333335494995,0|0,1:0|1:0,0:0:0:0:
291,21,153811,6,0,B|318:128|366:67|384:180,1,189.999994926453,4|10,1:0|0:0,0:0:0:0:
332,348,154720,1,4,3:0:0:0:
332,348,154902,2,0,P|327:308|316:265,1,63.3333316421509,0|0,1:0|0:0,0:0:0:0:
238,253,155266,1,0,0:0:0:0:
183,323,155448,2,0,P|147:310|95:222,1,126.666663284302,10|4,0:0|3:0,0:0:0:0:
36,175,155993,6,0,B|53:119|101:138|118:84,1,126.666663284302,4|0,1:0|0:0,0:0:0:0:
48,28,156538,1,10,0:0:0:0:
182,144,156902,1,4,3:0:0:0:
182,144,157084,2,0,P|222:136|311:105,1,126.666663284302,0|8,1:0|0:0,0:0:0:0:
391,113,157629,1,8,0:0:0:0:
371,289,157993,1,2,0:0:0:0:
371,289,158175,5,0,1:0:0:0:
247,162,158538,2,0,P|256:199|261:230,1,63.3333316421509,8|8,0:0|0:0,0:0:0:0:
134,349,159084,1,0,1:0:0:0:
134,349,159266,1,0,1:0:0:0:
27,207,159629,2,0,P|58:212|89:222,1,63.3333316421509,8|8,3:0|3:0,0:0:0:0:
43,49,160175,1,0,1:0:0:0:
43,49,160357,6,0,P|71:91|160:110,1,126.666663284302,4|8,1:0|3:0,0:0:0:0:
178,193,160902,2,0,P|217:191|246:118,1,126.666663284302,4|0,3:0|1:0,0:0:0:0:
330,88,161448,2,0,P|317:44|236:47,1,126.666663284302,8|0,0:0|1:0,0:0:0:0:
160,12,161993,2,0,P|127:31|181:77,1,126.666663284302,8|4,3:0|3:0,0:0:0:0:
240,0,162538,5,4,1:0:0:0:
254,180,162902,5,8,0:0:0:0:
254,180,163084,1,8,0:0:0:0:
265,357,163448,5,4,1:0:0:0:
256,192,163629,12,0,173447,0:0:0:0:
