osu file format v14

[General]
AudioFilename: audio.mp3
AudioLeadIn: 0
PreviewTime: 56294
Countdown: 0
SampleSet: Soft
StackLeniency: 0.7
Mode: 0
LetterboxInBreaks: 0
WidescreenStoryboard: 0

[Editor]
Bookmarks: 15385,17930,32839,34657,35748,58293
DistanceSpacing: 1.4
BeatDivisor: 2
GridSize: 4
TimelineZoom: 1.2

[Metadata]
Title:Hikari Tatsu Ame
TitleUnicode:ヒカリ断ツ雨
Artist:Soma Saito
ArtistUnicode:斉藤壮馬
Creator:Amamiya Kanade
Version:Advanced
Source:活撃 刀剣乱舞
Tags:tv size opening katsugeki touken ranbu hotaru yamazo abhor suzuki Suzuki_1112 1112deng [_Abhor_]
BeatmapID:1346425
BeatmapSetID:634463

[Difficulty]
HPDrainRate:5
CircleSize:3.2
OverallDifficulty:5
ApproachRate:7
SliderMultiplier:1.3
SliderTickRate:1

[Events]
//Background and Video events
Video,0,"optc.flv"
0,0,"19485482-1-hd_waifu2x_art_noise1_scale_tta_1.png",0,0
//Break Periods
//Storyboard Layer 0 (Background)
//Storyboard Layer 1 (Fail)
//Storyboard Layer 2 (Pass)
//Storyboard Layer 3 (Foreground)
//Storyboard Sound Samples

[TimingPoints]
113,363.636363636364,4,2,3,50,1,0
8840,-100,4,2,3,30,0,0
9567,363.636363636364,4,2,3,40,1,0
20112,-100,4,2,3,50,0,0
21203,-100,4,2,3,40,0,0
32839,-100,4,2,3,35,0,0
43748,-100,4,2,3,50,0,0
44476,-100,4,2,3,40,0,0
56839,363.636363636364,4,2,3,65,1,1
80111,-100,4,2,3,55,0,0
85929,-100,4,2,3,60,0,0
87748,-100,4,2,3,40,0,0
88111,-100,4,2,3,20,0,0
88475,-100,4,2,3,10,0,0
88839,-100,4,2,3,5,0,0

[Colours]
Combo1 : 96,96,255
Combo2 : 255,255,11
Combo3 : 0,227,227
Combo4 : 255,174,136

[HitObjects]
104,236,113,6,0,L|71:95,1,130,6|0,0:0|0:0,0:0:0:0:
143,50,658,2,0,L|175:190,1,130,6|0,0:0|0:0,0:0:0:0:
196,264,1203,2,0,L|236:356,1,65,2|0,0:0|0:0,0:0:0:0:
304,361,1567,2,0,P|368:340|404:276,1,130,2|2,0:0|0:0,0:0:0:0:
424,108,2294,2,0,P|362:126|326:179,1,130,2|2,0:0|0:0,0:0:0:0:
172,280,3022,6,0,L|37:228,1,130,6|0,0:0|0:0,0:0:0:0:
38,142,3567,2,0,L|172:193,1,130,6|0,0:0|0:0,0:0:0:0:
244,224,4113,2,0,L|312:256,1,65,2|0,0:0|0:0,0:0:0:0:
380,300,4476,2,0,P|396:248|364:176,1,130,2|2,0:0|0:0,0:0:0:0:
248,44,5203,2,0,L|116:104,1,130,2|2,0:0|0:0,0:0:0:0:
120,284,5931,6,0,P|37:275|-12:332,1,130,6|2,0:0|0:0,0:0:0:0:
69,363,6476,2,0,P|151:371|201:314,1,130,4|0,0:0|0:0,0:0:0:0:
264,296,7022,2,0,L|336:280,1,65,2|0,0:0|0:0,0:0:0:0:
424,256,7385,2,0,L|360:172,1,65,6|2,0:0|0:0,0:0:0:0:
332,132,7749,1,2,0:0:0:0:
332,132,7931,1,2,0:0:0:0:
244,148,8113,2,0,P|255:178|276:202,2,65,2|2|2,0:0|0:0|0:0,0:0:0:0:
72,84,8840,6,0,P|61:54|40:30,2,65,10|8|8,0:0|0:0|0:0,0:0:0:0:
84,176,9385,1,0,0:0:0:0:
112,264,9567,2,0,B|129:287|129:287|254:246,1,130,4|2,0:0|0:0,0:0:0:0:
300,200,10112,1,0,0:0:0:0:
398,197,10294,2,0,P|440:232|454:257,2,65,2|0|2,0:0|0:0|0:0,0:0:0:0:
426,17,11021,2,0,B|408:-6|408:-6|283:34,1,130,2|2,0:0|0:0,0:0:0:0:
228,64,11567,1,0,0:0:0:0:
139,83,11748,2,0,P|96:47|82:22,2,65,2|0|2,0:0|0:0|0:0,0:0:0:0:
224,244,12476,6,0,P|296:268|352:240,1,130,2|2,0:0|0:0,0:0:0:0:
416,196,13021,1,0,0:0:0:0:
476,128,13203,2,0,P|404:104|348:132,1,130,2|2,0:0|0:0,0:0:0:0:
284,176,13748,1,0,0:0:0:0:
196,152,13930,2,0,P|144:104|116:48,1,130,2|2,0:0|0:0,0:0:0:0:
40,0,14476,2,0,P|24:56|56:136,1,130,0|0,0:0|0:0,0:0:0:0:
92,196,15021,1,2,0:0:0:0:
256,272,15385,6,0,P|312:280|380:252,1,130,2|2,0:0|0:0,0:0:0:0:
392,164,15930,1,0,0:0:0:0:
400,72,16112,2,0,L|480:60,2,65,2|0|2,0:0|0:0|0:0,0:0:0:0:
220,56,16839,2,0,P|176:104|168:168,1,130,2|2,0:0|0:0,0:0:0:0:
256,192,17385,1,0,0:0:0:0:
196,260,17567,2,0,P|112:252|76:208,1,130,2|2,0:0|0:0,2:0:0:0:
136,48,18294,6,0,P|200:38|265:39,1,130,2|2,0:0|0:0,0:0:0:0:
340,92,18839,2,0,P|408:112|448:172,1,130
356,188,19385,2,0,L|364:276,1,65,2|0,0:0|0:0,0:0:0:0:
424,316,19748,2,0,B|404:344|404:344|276:352,1,130,2|6,0:0|0:0,0:0:0:0:
184,212,20476,2,0,L|168:284,2,65,10|8|10,0:0|0:0|0:0,0:0:0:0:
216,128,21021,1,8,0:0:0:0:
277,61,21203,6,0,P|341:61|403:83,1,130,6|10,0:0|0:0,0:0:0:0:
324,248,21930,2,0,L|307:344,2,65,0|0|10,0:0|0:0|0:0,0:0:0:0:
148,296,22657,2,0,L|168:164,1,130,2|8,0:0|0:0,0:0:0:0:
328,80,23385,2,0,L|345:-16,2,65,0|0|10,0:0|0:0|0:0,0:0:0:0:
440,224,24112,6,0,L|496:342,1,130,2|8,0:0|0:0,0:0:0:0:
320,288,24839,2,0,L|263:171,1,130,0|10,0:0|0:0,0:0:0:0:
80,164,25567,2,0,P|140:220|136:292,1,130,2|8,0:0|0:0,0:0:0:0:
101,344,26112,2,0,P|156:354|226:313,1,130,2|0,0:0|0:0,0:0:0:0:
272,248,26657,1,10,0:0:0:0:
300,68,27021,6,0,P|360:49|419:74,1,130,2|8,0:0|0:0,0:0:0:0:
512,84,27567,1,2,0:0:0:0:
512,84,27748,2,0,P|468:160|416:172,1,130,0|10,0:0|0:0,0:0:0:0:
264,108,28476,2,0,P|239:166|254:228,1,130,2|8,0:0|0:0,0:0:0:0:
220,312,29021,1,2,0:0:0:0:
220,312,29203,2,0,P|284:320|336:276,1,130,0|10,0:0|0:0,0:0:0:0:
376,200,29748,1,0,0:0:0:0:
416,120,29930,6,0,P|392:44|352:16,1,130,2|8,0:0|0:0,0:0:0:0:
264,32,30476,2,0,L|128:44,1,130,2|0,0:0|0:0,0:0:0:0:
144,136,31021,2,0,P|176:140|208:144,1,65,10|0,0:0|0:0,0:0:0:0:
296,168,31385,1,2,0:0:0:0:
296,168,31567,1,2,0:0:0:0:
244,244,31748,2,0,P|216:248|172:252,1,65,2|2,0:0|0:0,0:0:0:0:
92,280,32112,2,0,L|97:347,2,65,2|8|10,0:0|0:0|0:0,0:0:0:0:
176,120,32839,6,0,B|104:104|104:104|-4:108,1,130,6|2,0:0|0:0,0:0:0:0:
64,196,33385,1,0,0:0:0:0:
92,280,33567,1,10,0:0:0:0:
264,344,33930,2,0,P|328:336|356:316,1,65
420,340,34294,2,0,P|400:272|312:244,1,130,2|2,0:0|0:0,0:0:0:0:
340,60,35021,2,0,B|312:96|312:96|212:96,1,130,8|8,0:0|0:0,0:0:0:0:
88,216,35748,6,0,B|112:252|112:252|236:256,1,130,6|2,0:0|0:0,0:0:0:0:
228,168,36294,2,0,P|284:220|280:284,1,130
472,68,37203,2,0,L|392:72,1,65,2|0,0:0|0:0,0:0:0:0:
380,160,37567,2,0,L|300:156,1,65,2|0,0:0|0:0,0:0:0:0:
276,76,37930,2,0,L|196:80,1,65,8|2,0:0|0:0,0:0:0:0:
124,100,38294,1,8,0:0:0:0:
164,180,38476,1,2,0:0:0:0:
204,260,38657,6,0,P|296:272|380:232,1,130,4|2,0:0|0:0,0:0:0:0:
420,240,39203,2,0,P|424:144|376:68,1,130
148,60,40112,2,0,P|144:156|192:232,1,130,2|2,0:0|0:0,0:0:0:0:
252,340,40839,2,0,L|328:348,1,65,10|0,0:0|0:0,0:0:0:0:
408,364,41203,1,0,0:0:0:0:
440,184,41567,6,0,P|360:200|299:142,1,130,4|2,0:0|0:0,0:0:0:0:
360,1,42294,2,0,P|396:51|390:115,1,130,10|0,0:0|0:0,0:0:0:0:
321,177,42839,1,0,0:0:0:0:
248,220,43021,2,0,L|168:180,1,65
184,284,43385,2,0,L|104:292,1,65
44,240,43748,2,0,L|14:332,2,97.5,8|8|8,0:0|0:0|0:0,0:0:0:0:
96,164,44476,6,0,L|22:158,1,65,6|0,0:0|0:0,0:0:0:0:
72,80,44839,2,0,P|56:52|54:20,1,65,8|2,0:0|0:0,0:0:0:0:
144,16,45203,2,0,L|218:10,1,65
300,0,45567,1,10,0:0:0:0:
464,64,45930,2,0,P|464:128|412:220,1,130,2|8,0:0|0:0,0:0:0:0:
356,224,46476,1,2,0:0:0:0:
356,132,46657,2,0,P|284:160|260:224,1,130,0|10,0:0|0:0,0:0:0:0:
108,304,47385,6,0,L|188:288,1,65,2|0,0:0|0:0,0:0:0:0:
236,356,47748,2,0,L|299:368,1,65,8|2,0:0|0:0,0:0:0:0:
376,320,48112,2,0,L|456:304,1,65,0|0,0:0|0:0,0:0:0:0:
436,216,48476,1,10,0:0:0:0:
348,56,48839,2,0,L|440:76,1,65,2|0,0:0|0:0,0:0:0:0:
368,152,49203,2,0,L|304:165,1,65,8|2,0:0|0:0,0:0:0:0:
300,256,49567,2,0,P|229:247|163:195,1,130,0|10,0:0|0:0,0:0:0:0:
28,116,50294,6,0,B|119:142|119:142|139:114,1,130,12|0,0:0|0:0,0:0:0:0:
136,24,50839,2,0,P|188:32|232:120,1,130,2|0,0:0|0:0,0:0:0:0:
256,180,51385,1,10,0:0:0:0:
420,92,51748,2,0,P|416:180|424:260,1,130,2|8,0:0|0:0,0:0:0:0:
244,280,52476,2,0,P|208:272|164:272,1,65,2|2,0:0|0:0,0:0:0:0:
88,276,52839,1,2,0:0:0:0:
256,192,53203,12,8,54657,0:0:0:0:
79,64,56294,6,0,L|91:-12,2,65,8|8|8,0:0|0:0|0:0,0:0:0:0:
100,152,56839,2,0,P|184:140|248:148,1,130,6|8,0:0|0:0,0:0:0:0:
316,164,57384,1,2,0:0:0:0:
468,268,57748,2,0,L|484:188,1,65,2|8,0:0|0:0,0:0:0:0:
500,116,58111,1,0,0:0:0:0:
412,100,58293,2,0,L|396:180,2,65,2|0|8,0:0|0:0|0:0,0:0:0:0:
440,8,58839,2,0,P|351:23|322:75,1,130,2|2,0:0|0:0,0:0:0:0:
272,120,59384,1,8,0:0:0:0:
204,180,59566,1,0,0:0:0:0:
277,230,59748,6,0,P|365:242|461:234,1,130,2|8,0:0|0:0,0:0:0:0:
468,308,60293,2,0,P|500:252|472:184,1,130,2|2,0:0|0:0,0:0:0:0:
408,140,60839,2,0,L|296:118,1,65,8|0,0:0|0:0,0:0:0:0:
316,44,61202,2,0,L|252:56,1,65,2|0,0:0|0:0,0:0:0:0:
176,104,61566,2,0,P|160:140|168:176,1,65,10|0,0:0|0:0,0:0:0:0:
220,236,61929,1,2,0:0:0:0:
144,284,62111,2,0,L|76:268,2,65,0|10|0,0:0|0:0|0:0,0:0:0:0:
220,336,62657,6,0,L|380:328,1,130,2|8,0:0|0:0,0:0:0:0:
356,240,63202,2,0,P|419:251|479:229,1,130,2|2,0:0|0:0,0:0:0:0:
500,140,63748,1,8,0:0:0:0:
408,136,63929,2,0,P|368:32|304:0,1,130,0|0,0:0|0:0,0:0:0:0:
268,36,64475,1,8,0:0:0:0:
176,44,64657,1,2,0:0:0:0:
20,140,65020,2,0,P|28:205|76:250,1,130,2|0,0:0|0:0,0:0:0:0:
164,236,65566,6,0,L|152:348,2,97.5,8|8|8,0:0|0:0|0:0,0:0:0:0:
316,140,66475,2,0,L|284:224,1,65,2|8,0:0|0:0,0:0:0:0:
272,292,66839,1,0,0:0:0:0:
360,272,67020,2,0,L|392:188,2,65,4|0|8,0:0|0:0|0:0,0:0:0:0:
272,292,67566,1,0,0:0:0:0:
92,316,67929,2,0,L|28:332,2,65,2|10|2,0:0|0:0|0:0,0:0:0:0:
108,224,68475,6,0,P|108:120|100:96,1,130,6|8,0:0|0:0,0:0:0:0:
124,8,69020,1,2,0:0:0:0:
276,108,69384,2,0,L|236:164,2,65,2|8|0,0:0|0:0|0:0,0:0:0:0:
364,136,69929,2,0,P|344:212|352:292,1,130,2|8,0:0|0:0,0:0:0:0:
436,284,70475,2,0,P|456:208|448:128,1,130,0|2,0:0|0:0,0:0:0:0:
344,12,71202,1,0,0:0:0:0:
344,12,71384,6,0,P|236:16|160:32,1,130,4|8,0:0|0:0,0:0:0:0:
128,52,71929,2,0,P|112:136|112:212,1,130,2|2,0:0|0:0,0:0:0:0:
115,273,72475,1,8,0:0:0:0:
199,305,72657,2,0,P|215:221|215:145,1,130,0|0,0:0|0:0,0:0:0:0:
307,181,73202,2,0,P|310:245|324:309,1,130,10|2,0:0|0:0,0:0:0:0:
406,269,73748,2,0,L|422:189,1,65,0|10,0:0|0:0,0:0:0:0:
442,117,74111,1,0,0:0:0:0:
350,101,74293,6,0,P|285:91|220:87,1,130,2|8,0:0|0:0,0:0:0:0:
225,178,74839,2,0,P|160:174|95:164,1,130,2|2,0:0|0:0,0:0:0:0:
65,78,75384,1,8,0:0:0:0:
5,146,75566,2,0,P|18:227|111:252,1,130,0|0,0:0|0:0,0:0:0:0:
140,278,76111,2,0,L|228:290,1,65,0|2,0:0|0:0,0:0:0:0:
384,320,76657,2,0,P|412:252|392:164,1,130,2|0,0:0|0:0,0:0:0:0:
320,168,77202,6,0,L|328:52,2,97.5,8|8|8,0:0|0:0|0:0,0:0:0:0:
144,220,78111,2,0,P|160:272|176:296,1,65,0|8,0:0|0:0,0:0:0:0:
244,328,78475,1,2,0:0:0:0:
400,236,78839,2,0,L|392:140,2,65,2|8|2,0:0|0:0|0:0,0:0:0:0:
388,328,79384,1,8,0:0:0:0:
308,284,79566,1,2,0:0:0:0:
260,204,79748,2,0,L|252:108,1,65,10|2,0:0|0:0,0:0:0:0:
256,192,80111,12,0,82293,0:0:0:0:
76,320,83020,6,0,P|72:288|108:172,1,130,6|0,0:0|0:0,0:0:0:0:
144,116,83566,1,2,0:0:0:0:
228,84,83748,2,0,P|232:116|264:208,1,130,2|0,0:0|0:0,0:0:0:0:
308,288,84294,1,0,0:0:0:0:
392,256,84475,2,0,P|388:224|356:132,1,130,6|0,0:0|0:0,0:0:0:0:
312,52,85020,1,0,0:0:0:0:
228,84,85202,2,0,P|224:116|192:208,1,130,2|0,0:0|0:0,0:0:0:0:
356,132,85929,6,0,L|333:194,1,65,4|0,0:0|0:0,0:0:0:0:
426,202,86293,2,0,L|448:262,1,65
360,284,86657,2,0,L|309:326,1,65,4|0,0:0|0:0,0:0:0:0:
224,356,87020,2,0,L|202:296,1,65
256,192,87384,12,4,88839,0:0:0:0:
