osu file format v14

[General]
AudioFilename: Soleily - Violet Soul.mp3
AudioLeadIn: 0
PreviewTime: 87182
Countdown: 0
SampleSet: Soft
StackLeniency: 0.7
Mode: 3
LetterboxInBreaks: 0
SpecialStyle: 1
WidescreenStoryboard: 1

[Editor]
DistanceSpacing: 1
BeatDivisor: 4
GridSize: 4
TimelineZoom: 3.5

[Metadata]
Title:Violet Soul
TitleUnicode:Violet Soul
Artist:Soleily
ArtistUnicode:Soleily
Creator:pocket-Gao
Version:Hyper
Source:SOUND VOLTEX III GRAVITY WARS
Tags:BEMANI KONAMI SDVX 第一回ボルテキャラテーマ曲コンテスト dosyeru
BeatmapID:717420
BeatmapSetID:318602

[Difficulty]
HPDrainRate:7
CircleSize:8
OverallDifficulty:7
ApproachRate:5
SliderMultiplier:1.4
SliderTickRate:1

[Events]
//Background and Video events
0,0,"BG.jpg",0,0
//Break Periods
//Storyboard Layer 0 (Background)
//Storyboard Layer 1 (Fail)
//Storyboard Layer 2 (Pass)
//Storyboard Layer 3 (Foreground)
//Storyboard Sound Samples

[TimingPoints]
600,379.746835443038,4,2,1,40,1,0
62498,-100,4,2,1,40,0,1
109967,-100,4,2,1,40,0,0

[HitObjects]
32,192,600,5,4,0:0:0:60:drs_cy.wav
352,192,600,1,0,0:0:0:0:
160,192,694,1,0,0:0:0:0:
480,192,789,1,0,0:0:0:0:
416,192,884,1,0,0:0:0:0:
352,192,979,1,0,0:0:0:0:
96,192,1074,1,0,0:0:0:0:
160,192,1169,1,0,0:0:0:0:
416,192,1264,1,0,0:0:0:0:
288,192,1359,1,0,0:0:0:0:
160,192,1454,1,0,0:0:0:0:
352,192,1549,1,0,0:0:0:0:
224,192,1644,1,0,0:0:0:0:
480,192,1739,1,2,0:0:0:0:
96,192,1834,1,2,0:0:0:0:
480,192,1929,1,2,0:0:0:0:
96,192,2024,1,2,0:0:0:0:
416,192,2118,1,2,0:0:0:0:
32,192,2118,1,4,0:0:0:0:
288,192,2118,1,0,0:0:0:0:
480,192,2308,1,0,0:0:0:0:
96,192,2498,1,2,0:0:0:0:
288,192,2688,1,0,0:0:0:0:
96,192,2878,1,2,0:0:0:0:
416,192,2973,1,0,0:0:0:0:
96,192,3258,1,2,0:0:0:0:
416,192,3258,1,0,0:0:0:0:
96,192,3637,1,2,0:0:0:0:
224,192,3637,1,0,0:0:0:0:
224,192,3827,1,0,0:0:0:0:
96,192,4017,1,2,0:0:0:0:
480,192,4017,1,0,0:0:0:0:
288,192,4207,1,0,0:0:0:0:
96,192,4397,1,2,0:0:0:0:
416,192,4492,1,0,0:0:0:0:
96,192,4777,1,2,0:0:0:0:
416,192,4777,1,0,0:0:0:0:
96,192,5156,1,2,0:0:0:0:
352,192,5156,1,0,0:0:0:0:
352,192,5346,1,0,0:0:0:0:
96,192,5536,1,2,0:0:0:0:
480,192,5536,1,0,0:0:0:0:
480,192,5726,1,0,0:0:0:0:
96,192,5916,1,2,0:0:0:0:
352,192,6011,1,0,0:0:0:0:
96,192,6296,1,2,0:0:0:0:
352,192,6296,1,0,0:0:0:0:
96,192,6675,1,2,0:0:0:0:
224,192,6675,1,0,0:0:0:0:
224,192,6865,1,0,0:0:0:0:
96,192,7055,1,2,0:0:0:0:
416,192,7055,1,0,0:0:0:0:
480,192,7245,1,0,0:0:0:0:
96,192,7435,1,2,0:0:0:0:
352,192,7530,1,0,0:0:0:0:
352,192,7815,1,0,0:0:0:0:
96,192,7815,1,8,0:0:0:0:
96,192,8005,1,2,0:0:0:0:
32,192,8194,1,4,0:0:0:0:
480,192,8194,1,0,0:0:0:0:
96,192,8194,1,8,0:0:0:0:
288,192,8384,1,0,0:0:0:0:
416,192,8574,1,0,0:0:0:0:
160,192,8669,1,0,0:0:0:0:
352,192,8859,1,0,0:0:0:0:
416,192,9049,1,0,0:0:0:0:
288,192,9144,1,0,0:0:0:0:
160,192,9239,1,0,0:0:0:0:
96,192,9429,1,0,0:0:0:0:
416,192,9524,1,0,0:0:0:0:
224,192,9618,1,0,0:0:0:0:
32,192,9713,1,4,0:0:0:0:
352,192,9713,1,8,0:0:0:0:
96,192,9713,1,0,0:0:0:0:
288,192,9903,1,0,0:0:0:0:
160,192,10093,1,0,0:0:0:0:
416,192,10188,1,0,0:0:0:0:
224,192,10378,1,0,0:0:0:0:
160,192,10568,1,0,0:0:0:0:
288,192,10663,1,0,0:0:0:0:
416,192,10758,1,0,0:0:0:0:
96,192,10948,1,0,0:0:0:0:
480,192,11043,1,0,0:0:0:0:
224,192,11137,1,0,0:0:0:0:
32,192,11232,1,4,0:0:0:0:
96,192,11232,1,0,0:0:0:0:
352,192,11232,1,0,0:0:0:0:
352,192,11422,1,0,0:0:0:0:
160,192,11612,1,8,0:0:0:0:
416,192,11707,1,0,0:0:0:0:
352,192,11897,1,0,0:0:0:0:
32,192,11992,1,4,0:0:0:0:
416,192,12087,1,0,0:0:0:0:
160,192,12182,1,0,0:0:0:0:
288,192,12277,1,0,0:0:0:0:
96,192,12372,1,8,0:0:0:0:
480,192,12372,1,0,0:0:0:0:
224,192,12467,1,0,0:0:0:0:
352,192,12562,1,8,0:0:0:0:
160,192,12656,1,0,0:0:0:0:
288,192,12751,1,0,0:0:0:60:drs_sn2.wav
480,192,12751,1,0,0:0:0:0:
352,192,12846,1,0,0:0:0:60:drs_sn2.wav
160,192,13036,1,0,0:0:0:60:drs_sn2.wav
352,192,13226,1,0,0:0:0:60:drs_sn2.wav
96,192,13321,1,0,0:0:0:0:
32,192,13321,1,4,0:0:0:0:
288,192,13416,1,0,0:0:0:0:
224,192,13606,1,0,0:0:0:0:
352,192,13701,1,0,0:0:0:0:
224,192,13796,1,0,0:0:0:0:
96,192,13891,1,2,0:0:0:0:
480,192,13891,1,0,0:0:0:0:
416,192,13986,1,0,0:0:0:0:
96,192,14081,1,2,0:0:0:0:
352,192,14081,1,0,0:0:0:0:
288,192,14175,1,0,0:0:0:0:
96,192,14270,1,2,0:0:0:0:
224,192,14270,1,0,0:0:0:0:
32,192,14270,1,4,0:0:0:0:
480,192,14460,1,0,0:0:0:0:
96,192,14650,1,8,0:0:0:0:
224,192,14650,1,0,0:0:0:0:
160,192,14745,1,0,0:0:0:0:
480,192,14935,1,0,0:0:0:0:
480,192,15125,1,0,0:0:0:0:
288,192,15220,1,0,0:0:0:0:
96,192,15410,1,8,0:0:0:0:
352,192,15410,1,0,0:0:0:0:
224,192,15600,1,0,0:0:0:0:
480,192,15789,1,0,0:0:0:0:
160,192,15884,1,0,0:0:0:0:
416,192,15979,1,0,0:0:0:0:
288,192,16074,1,2,0:0:0:0:
96,192,16169,1,8,0:0:0:0:
480,192,16264,1,0,0:0:0:0:
224,192,16359,1,0,0:0:0:0:
416,192,16454,1,0,0:0:0:0:
96,192,16549,1,2,0:0:0:0:
288,192,16644,1,0,0:0:0:0:
96,192,16739,1,2,0:0:0:0:
416,192,16739,1,0,0:0:0:0:
288,192,16834,1,0,0:0:0:0:
480,192,16929,1,0,0:0:0:0:
96,192,16929,1,2,0:0:0:0:
352,192,17024,1,0,0:0:0:0:
224,192,17024,1,0,0:0:0:0:
480,192,17118,1,0,0:0:0:0:
160,192,17118,1,0,0:0:0:0:
416,192,17213,1,0,0:0:0:0:
288,192,17213,1,0,0:0:0:0:
480,192,17308,1,8,0:0:0:0:
160,192,17308,1,8,0:0:0:0:
32,192,17308,1,4,0:0:0:0:
224,192,17593,1,0,0:0:0:0:
480,192,17593,1,0,0:0:0:60:drs_sn2.wav
352,192,17878,1,0,0:0:0:0:
96,192,17878,1,0,0:0:0:0:
480,192,17973,1,0,0:0:0:60:drs_sn2.wav
224,192,17973,1,0,0:0:0:0:
352,192,18068,1,0,0:0:0:0:
96,192,18068,1,0,0:0:0:0:
480,192,18163,1,0,0:0:0:60:drs_sn2.wav
224,192,18163,1,0,0:0:0:0:
480,192,18353,1,0,0:0:0:60:drs_sn2.wav
224,192,18353,1,0,0:0:0:0:
160,192,18637,1,0,0:0:0:0:
480,192,18637,1,0,0:0:0:60:drs_sn2.wav
288,192,18732,1,0,0:0:0:0:
32,192,18827,128,0,19587:0:0:0:0:
224,192,19587,1,0,0:0:0:0:
352,192,19713,1,0,0:0:0:0:
224,192,19840,1,0,0:0:0:0:
352,192,19967,1,0,0:0:0:0:
224,192,20093,1,0,0:0:0:0:
352,192,20220,1,0,0:0:0:0:
32,192,20346,1,4,0:0:0:0:
480,192,20346,1,0,0:0:0:0:
224,192,20346,1,8,0:0:0:0:
160,192,20441,1,0,0:0:0:0:
416,192,20536,1,0,0:0:0:0:
96,192,20726,1,8,0:0:0:0:
416,192,20821,1,0,0:0:0:0:
224,192,21011,1,0,0:0:0:0:
224,192,21201,1,0,0:0:0:0:
416,192,21296,1,0,0:0:0:0:
96,192,21486,1,8,0:0:0:0:
352,192,21486,1,0,0:0:0:0:
288,192,21675,1,0,0:0:0:0:
480,192,21865,1,0,0:0:0:0:
160,192,21960,1,0,0:0:0:0:
288,192,22055,1,0,0:0:0:0:
416,192,22150,1,0,0:0:0:0:
96,192,22245,1,8,0:0:0:0:
224,192,22245,1,0,0:0:0:0:
352,192,22435,1,0,0:0:0:0:
160,192,22530,1,0,0:0:0:0:
480,192,22625,1,0,0:0:0:0:
352,192,22720,1,0,0:0:0:0:
160,192,22815,1,0,0:0:0:0:
480,192,22815,1,0,0:0:0:0:
288,192,22910,1,0,0:0:0:0:
96,192,23005,1,2,0:0:0:0:
352,192,23005,1,0,0:0:0:0:
224,192,23100,1,2,0:0:0:0:
288,192,23100,1,0,0:0:0:0:
96,192,23194,1,2,0:0:0:0:
480,192,23194,1,0,0:0:0:0:
224,192,23289,1,2,0:0:0:0:
416,192,23289,1,0,0:0:0:0:
32,192,23384,1,4,0:0:0:0:
480,192,23384,1,0,0:0:0:0:
160,192,23384,1,2,0:0:0:0:
32,192,24903,1,4,0:0:0:0:
160,192,24903,1,0,0:0:0:0:
416,192,24998,1,0,0:0:0:0:
288,192,25093,1,0,0:0:0:0:
32,192,25188,1,4,0:0:0:0:
160,192,25283,1,0,0:0:0:0:
352,192,25378,1,0,0:0:0:0:
32,192,25473,1,4,0:0:0:0:
224,192,25473,1,0,0:0:0:0:
416,192,25568,1,0,0:0:0:0:
32,192,25758,1,4,0:0:0:0:
160,192,25758,1,0,0:0:0:0:
416,192,25853,1,0,0:0:0:0:
224,192,25948,1,0,0:0:0:0:
32,192,26043,1,4,0:0:0:0:
416,192,26043,1,0,0:0:0:0:
288,192,26137,1,0,0:0:0:0:
160,192,26232,1,0,0:0:0:0:
352,192,26327,1,0,0:0:0:0:
32,192,26422,1,4,0:0:0:0:
480,192,26422,1,2,0:0:0:0:
96,192,26422,1,0,0:0:0:0:
224,192,26422,1,2,0:0:0:0:
416,192,26612,1,0,0:0:0:0:
224,192,26612,1,0,0:0:0:0:
480,192,26802,1,0,0:0:0:0:
96,192,26802,1,8,0:0:0:0:
352,192,26897,1,0,0:0:0:0:
224,192,26897,1,0,0:0:0:0:
480,192,27087,1,0,0:0:0:0:
96,192,27182,1,2,0:0:0:0:
480,192,27277,1,0,0:0:0:0:
416,192,27372,1,0,0:0:0:0:
96,192,27562,1,8,0:0:0:0:
352,192,27562,1,0,0:0:0:0:
416,192,27751,1,0,0:0:0:0:
160,192,27751,1,0,0:0:0:0:
96,192,27941,1,2,0:0:0:0:
480,192,28036,1,0,0:0:0:0:
224,192,28131,1,0,0:0:0:0:
352,192,28226,1,0,0:0:0:0:
96,192,28321,1,8,0:0:0:0:
480,192,28416,1,0,0:0:0:0:
480,192,28701,1,2,0:0:0:0:
160,192,28796,1,0,0:0:0:0:
416,192,28891,1,0,0:0:0:0:
288,192,28986,1,0,0:0:0:0:
96,192,29081,1,2,0:0:0:0:
480,192,29081,1,0,0:0:0:0:
416,192,29175,1,0,0:0:0:0:
96,192,29270,1,2,0:0:0:0:
352,192,29270,1,0,0:0:0:0:
288,192,29365,1,0,0:0:0:0:
96,192,29460,1,2,0:0:0:0:
224,192,29460,1,0,0:0:0:0:
480,192,29650,1,0,0:0:0:0:
352,192,29745,1,0,0:0:0:0:
96,192,29840,1,8,0:0:0:0:
480,192,29935,1,0,0:0:0:0:
352,192,30030,1,0,0:0:0:0:
96,192,30220,1,2,0:0:0:0:
224,192,30220,1,0,0:0:0:0:
416,192,30315,1,0,0:0:0:0:
96,192,30600,1,8,0:0:0:0:
480,192,30600,1,0,0:0:0:0:
352,192,30694,1,0,0:0:0:0:
160,192,30789,1,0,0:0:0:0:
288,192,30884,1,0,0:0:0:0:
416,192,30979,1,0,0:0:0:0:
96,192,30979,1,2,0:0:0:0:
480,192,31264,1,0,0:0:0:0:
288,192,31359,1,0,0:0:0:0:
96,192,31359,1,8,0:0:0:0:
224,192,31644,1,0,0:0:0:0:
96,192,31739,1,2,0:0:0:0:
352,192,31739,1,0,0:0:0:0:
480,192,31834,1,0,0:0:0:0:
96,192,31929,1,2,0:0:0:0:
288,192,31929,1,0,0:0:0:0:
416,192,32024,1,0,0:0:0:0:
96,192,32118,1,2,0:0:0:0:
224,192,32118,1,0,0:0:0:0:
288,192,32213,1,0,0:0:0:0:
96,192,32308,1,2,0:0:0:0:
352,192,32308,1,0,0:0:0:0:
416,192,32403,1,0,0:0:0:0:
32,192,32498,1,4,0:0:0:0:
480,192,32498,1,0,0:0:0:0:
288,192,32498,1,2,0:0:0:0:
224,192,32688,1,0,0:0:0:0:
352,192,32783,1,0,0:0:0:0:
96,192,32878,1,2,0:0:0:0:
224,192,33068,1,0,0:0:0:0:
96,192,33258,1,10,0:0:0:0:
480,192,33258,1,0,0:0:0:0:
352,192,33353,1,0,0:0:0:0:
416,192,33543,1,0,0:0:0:0:
96,192,33637,1,8,0:0:0:0:
288,192,33637,1,0,0:0:0:0:
352,192,33827,1,0,0:0:0:0:
32,192,34017,1,4,0:0:0:0:
352,192,34017,1,0,0:0:0:0:
96,192,34017,1,2,0:0:0:0:
224,192,34207,1,0,0:0:0:0:
416,192,34302,1,0,0:0:0:0:
96,192,34397,1,8,0:0:0:0:
224,192,34492,1,0,0:0:0:0:
416,192,34587,1,0,0:0:0:0:
96,192,34777,1,2,0:0:0:0:
288,192,34872,1,0,0:0:0:0:
96,192,35156,1,2,0:0:0:0:
352,192,35156,1,0,0:0:0:0:
352,192,35346,1,0,0:0:0:0:
96,192,35346,1,2,0:0:0:0:
32,192,35536,1,4,0:0:0:0:
480,192,35536,1,2,0:0:0:0:
96,192,35536,1,2,0:0:0:0:
224,192,35726,1,0,0:0:0:0:
352,192,35821,1,0,0:0:0:0:
224,192,36011,1,0,0:0:0:0:
352,192,36106,1,0,0:0:0:0:
32,192,36296,1,4,0:0:0:0:
416,192,36296,1,2,0:0:0:0:
96,192,36296,1,2,0:0:0:0:
160,192,36486,1,0,0:0:0:0:
352,192,36581,1,0,0:0:0:0:
160,192,36770,1,0,0:0:0:0:
352,192,36865,1,0,0:0:0:0:
32,192,37055,1,4,0:0:0:0:
416,192,37055,1,2,0:0:0:0:
288,192,37055,1,0,0:0:0:0:
96,192,37150,1,0,0:0:0:0:
224,192,37150,1,2,0:0:0:0:
352,192,37245,1,2,0:0:0:0:
480,192,37245,1,0,0:0:0:0:
96,192,37340,1,0,0:0:0:0:
224,192,37340,1,0,0:0:0:0:
480,192,37435,1,0,0:0:0:0:
352,192,37435,1,2,0:0:0:0:
224,192,37530,1,2,0:0:0:0:
96,192,37530,1,0,0:0:0:0:
416,192,37625,1,0,0:0:0:0:
288,192,37625,1,0,0:0:0:0:
160,192,37720,1,0,0:0:0:0:
480,192,37815,1,0,0:0:0:0:
288,192,37815,1,0,0:0:0:0:
416,192,37878,1,0,0:0:0:0:
352,192,37941,1,0,0:0:0:0:
224,192,38005,1,0,0:0:0:0:
96,192,38100,1,0,0:0:0:0:
480,192,38194,1,0,0:0:0:0:
288,192,38194,1,0,0:0:0:0:
96,192,38289,1,0,0:0:0:0:
416,192,38384,1,0,0:0:0:0:
224,192,38479,1,0,0:0:0:0:
32,192,38574,1,0,0:0:0:40:drum-duang.wav
480,192,39144,1,0,0:0:0:0:
96,192,39713,1,0,0:0:0:0:
224,192,40093,1,0,0:0:0:0:
416,192,40093,1,0,0:0:0:0:
160,192,40663,1,0,0:0:0:0:
96,192,41232,1,0,0:0:0:0:
96,192,41612,1,0,0:0:0:0:
224,192,41612,1,0,0:0:0:0:
352,192,41675,1,0,0:0:0:0:
480,192,41707,1,0,0:0:0:0:
480,192,42941,1,0,0:0:0:0:
352,192,43036,1,0,0:0:0:0:
96,192,43131,1,0,0:0:0:0:
96,192,44270,1,0,0:0:0:0:
160,192,44460,1,0,0:0:0:0:
480,192,44650,1,0,0:0:0:0:
224,192,44650,1,0,0:0:0:0:
416,192,44698,1,0,0:0:0:0:
288,192,44745,1,0,0:0:0:0:
352,192,45600,1,0,0:0:0:0:
480,192,45789,1,0,0:0:0:0:
416,192,45979,1,0,0:0:0:0:
352,192,46169,1,0,0:0:0:0:
160,192,46169,1,0,0:0:0:0:
416,192,46549,1,0,0:0:0:0:
480,192,46929,1,0,0:0:0:0:
416,192,47308,1,0,0:0:0:0:
352,192,47688,1,0,0:0:0:0:
160,192,47688,1,0,0:0:0:0:
480,192,48258,1,0,0:0:0:0:
416,192,48637,1,0,0:0:0:0:
352,192,49017,1,0,0:0:0:0:
160,192,49207,1,0,0:0:0:0:
96,192,50346,1,0,0:0:0:0:
224,192,50536,1,0,0:0:0:0:
32,192,50726,1,0,0:0:0:40:drum-duang.wav
352,192,50726,1,0,0:0:0:0:
160,192,50916,1,0,0:0:0:0:
288,192,51011,1,0,0:0:0:0:
480,192,51106,1,8,0:0:0:0:
160,192,51296,1,0,0:0:0:0:
288,192,51391,1,0,0:0:0:0:
224,192,51486,1,0,0:0:0:0:
416,192,51581,1,0,0:0:0:0:
224,192,51675,1,0,0:0:0:0:
352,192,51770,1,0,0:0:0:0:
480,192,51865,1,8,0:0:0:0:
96,192,51865,1,0,0:0:0:0:
416,192,51960,1,0,0:0:0:0:
96,192,52245,1,0,0:0:0:0:
96,192,52530,1,0,0:0:0:0:
480,192,52625,1,8,0:0:0:0:
96,192,52815,1,0,0:0:0:0:
288,192,53005,1,0,0:0:0:0:
480,192,53100,1,8,0:0:0:0:
160,192,53100,1,0,0:0:0:0:
352,192,53194,1,0,0:0:0:0:
224,192,53289,1,0,0:0:0:0:
480,192,53384,1,8,0:0:0:0:
96,192,53384,1,0,0:0:0:0:
416,192,53479,1,0,0:0:0:0:
288,192,53764,1,0,0:0:0:0:
160,192,53764,1,0,0:0:0:0:
480,192,54144,1,8,0:0:0:0:
160,192,54334,1,0,0:0:0:0:
288,192,54334,1,0,0:0:0:0:
160,192,54713,1,0,0:0:0:0:
480,192,54903,1,8,0:0:0:0:
96,192,54903,1,0,0:0:0:0:
224,192,54903,1,0,0:0:0:0:
160,192,55093,1,0,0:0:0:0:
288,192,55093,1,0,0:0:0:0:
224,192,55283,1,0,0:0:0:0:
352,192,55283,1,0,0:0:0:0:
160,192,55568,1,0,0:0:0:0:
480,192,55663,1,8,0:0:0:0:
224,192,55758,1,0,0:0:0:0:
288,192,55948,1,0,0:0:0:0:
160,192,56043,1,0,0:0:0:0:
480,192,56137,1,8,0:0:0:0:
224,192,56137,1,0,0:0:0:0:
288,192,56232,1,0,0:0:0:0:
352,192,56327,1,0,0:0:0:0:
480,192,56422,1,8,0:0:0:0:
96,192,56422,1,0,0:0:0:0:
160,192,56517,1,0,0:0:0:0:
224,192,56612,1,0,0:0:0:0:
288,192,56707,1,0,0:0:0:0:
32,192,56802,1,4,0:0:0:0:
352,192,56802,1,0,0:0:0:0:
96,192,56802,1,8,0:0:0:0:
352,192,57087,1,0,0:0:0:0:
480,192,57182,1,8,0:0:0:0:
96,192,57277,1,0,0:0:0:0:
96,192,57467,1,0,0:0:0:0:
416,192,57656,1,0,0:0:0:0:
352,192,57751,1,0,0:0:0:0:
288,192,57846,1,0,0:0:0:0:
480,192,57941,1,8,0:0:0:0:
224,192,57941,1,0,0:0:0:0:
288,192,58036,1,0,0:0:0:0:
352,192,58131,1,0,0:0:0:0:
96,192,58131,1,0,0:0:0:0:
416,192,58226,1,0,0:0:0:0:
32,192,58321,1,4,0:0:0:0:
480,192,58321,1,0,0:0:0:0:
160,192,58321,1,8,0:0:0:0:
352,192,58606,1,0,0:0:0:0:
480,192,58701,1,8,0:0:0:0:
288,192,58891,1,0,0:0:0:0:
96,192,59081,1,0,0:0:0:0:
480,192,59460,1,8,0:0:0:0:
160,192,59460,1,0,0:0:0:0:
352,192,59650,1,0,0:0:0:0:
32,192,59840,1,4,0:0:0:0:
160,192,59840,1,8,0:0:0:0:
416,192,59840,1,0,0:0:0:0:
224,192,60030,1,0,0:0:0:0:
480,192,60125,1,8,0:0:0:0:
224,192,60410,1,0,0:0:0:0:
480,192,60505,1,0,0:0:0:0:
32,192,60600,1,4,0:0:0:0:
288,192,60600,1,0,0:0:0:0:
160,192,60600,1,8,0:0:0:0:
416,192,60789,1,0,0:0:0:0:
160,192,60884,1,0,0:0:0:0:
416,192,61169,1,0,0:0:0:0:
160,192,61264,1,0,0:0:0:0:
288,192,61359,1,0,0:0:0:0:
96,192,61454,1,0,0:0:0:0:
352,192,61549,1,0,0:0:0:0:
480,192,61644,1,0,0:0:0:0:
288,192,61739,1,0,0:0:0:0:
160,192,61834,1,0,0:0:0:0:
416,192,61929,1,0,0:0:0:0:
224,192,62024,1,0,0:0:0:0:
96,192,62118,1,0,0:0:0:40:drs_sn2.wav
96,192,62213,1,0,0:0:0:40:drs_sn2.wav
96,192,62403,1,0,0:0:0:40:drs_sn2.wav
480,192,62498,1,0,0:0:0:0:
288,192,62498,1,0,0:0:0:0:
416,192,62688,1,0,0:0:0:0:
224,192,62688,1,0,0:0:0:0:
32,192,62878,1,4,0:0:0:0:
160,192,62878,1,0,0:0:0:0:
352,192,62878,1,0,0:0:0:0:
352,192,63163,1,0,0:0:0:0:
96,192,63258,1,2,0:0:0:0:
224,192,63258,1,8,0:0:0:0:
352,192,63448,1,0,0:0:0:0:
480,192,63637,1,0,0:0:0:0:
160,192,63637,1,0,0:0:0:0:
416,192,63732,1,0,0:0:0:0:
352,192,63827,1,0,0:0:0:0:
416,192,63922,1,0,0:0:0:0:
96,192,64017,1,2,0:0:0:0:
480,192,64017,1,8,0:0:0:0:
160,192,64112,1,0,0:0:0:0:
224,192,64207,1,0,0:0:0:0:
288,192,64302,1,0,0:0:0:0:
352,192,64397,1,0,0:0:0:0:
480,192,64397,1,0,0:0:0:0:
416,192,64682,1,0,0:0:0:0:
96,192,64777,1,2,0:0:0:0:
224,192,64777,1,8,0:0:0:0:
416,192,64967,1,0,0:0:0:0:
480,192,65156,1,0,0:0:0:0:
160,192,65156,1,0,0:0:0:0:
416,192,65251,1,0,0:0:0:0:
352,192,65346,1,0,0:0:0:0:
416,192,65441,1,0,0:0:0:0:
160,192,65536,1,2,0:0:0:0:
480,192,65536,1,8,0:0:0:0:
224,192,65631,1,0,0:0:0:0:
288,192,65726,1,0,0:0:0:0:
352,192,65821,1,0,0:0:0:0:
288,192,65916,1,0,0:0:0:0:
96,192,65916,1,0,0:0:0:0:
96,192,66296,1,10,0:0:0:0:
480,192,66486,1,0,0:0:0:0:
160,192,66675,1,0,0:0:0:0:
96,192,67055,1,10,0:0:0:0:
480,192,67245,1,0,0:0:0:0:
288,192,67245,1,0,0:0:0:0:
416,192,67340,1,0,0:0:0:0:
224,192,67340,1,0,0:0:0:0:
352,192,67435,1,0,0:0:0:0:
160,192,67435,1,0,0:0:0:0:
96,192,67815,1,10,0:0:0:0:
480,192,68194,1,2,0:0:0:0:
224,192,68289,1,0,0:0:0:0:
480,192,68479,1,0,0:0:0:0:
96,192,68574,1,2,0:0:0:0:
352,192,68574,1,0,0:0:0:0:
224,192,68669,1,0,0:0:0:0:
96,192,68764,1,2,0:0:0:0:
288,192,68764,1,0,0:0:0:0:
352,192,68859,1,0,0:0:0:0:
96,192,68954,1,2,0:0:0:0:
480,192,68954,1,0,0:0:0:0:
224,192,68954,1,0,0:0:0:0:
416,192,69049,1,0,0:0:0:0:
352,192,69144,1,0,0:0:0:0:
288,192,69239,1,0,0:0:0:0:
96,192,69334,1,10,0:0:0:0:
352,192,69334,1,0,0:0:0:0:
480,192,69334,1,0,0:0:0:0:
160,192,69429,1,0,0:0:0:0:
224,192,69524,1,0,0:0:0:0:
160,192,69618,1,0,0:0:0:0:
96,192,69713,1,2,0:0:0:0:
416,192,69713,1,0,0:0:0:0:
480,192,69903,1,0,0:0:0:0:
416,192,70093,1,0,0:0:0:0:
96,192,70093,1,10,0:0:0:0:
352,192,70283,1,0,0:0:0:0:
160,192,70473,1,2,0:0:0:0:
416,192,70473,1,0,0:0:0:0:
288,192,70473,1,0,0:0:0:0:
96,192,70853,1,10,0:0:0:0:
224,192,70853,1,0,0:0:0:0:
352,192,70853,1,0,0:0:0:0:
416,192,71232,1,0,0:0:0:0:
160,192,71232,1,2,0:0:0:0:
288,192,71232,1,0,0:0:0:0:
352,192,71327,1,0,0:0:0:0:
96,192,71612,1,10,0:0:0:0:
480,192,71612,1,0,0:0:0:0:
288,192,71612,1,0,0:0:0:0:
160,192,71802,1,0,0:0:0:0:
352,192,71802,1,0,0:0:0:0:
416,192,71992,1,2,0:0:0:0:
224,192,71992,1,0,0:0:0:0:
416,192,72277,1,0,0:0:0:0:
96,192,72372,1,10,0:0:0:0:
288,192,72372,1,0,0:0:0:0:
480,192,72467,1,0,0:0:0:0:
352,192,72562,1,0,0:0:0:0:
160,192,72751,1,0,0:0:0:0:
352,192,72941,1,0,0:0:0:0:
96,192,73131,1,10,0:0:0:0:
160,192,73131,1,0,0:0:0:0:
224,192,73226,1,0,0:0:0:0:
416,192,73321,1,0,0:0:0:0:
288,192,73321,1,0,0:0:0:0:
352,192,73416,1,0,0:0:0:0:
480,192,73511,1,2,0:0:0:0:
288,192,73511,1,0,0:0:0:0:
160,192,73511,1,2,0:0:0:0:
480,192,73891,1,2,0:0:0:0:
224,192,73891,1,0,0:0:0:0:
96,192,73891,1,10,0:0:0:0:
416,192,74270,1,2,0:0:0:0:
160,192,74270,1,0,0:0:0:0:
480,192,74555,1,2,0:0:0:0:
224,192,74555,1,0,0:0:0:0:
96,192,74650,1,0,0:0:0:0:
352,192,74650,1,0,0:0:0:0:
480,192,74650,1,2,0:0:0:0:
160,192,74840,1,0,0:0:0:0:
416,192,74840,1,0,0:0:0:0:
224,192,75030,1,0,0:0:0:0:
32,192,75030,1,4,0:0:0:0:
480,192,75030,1,2,0:0:0:0:
416,192,75315,1,0,0:0:0:0:
96,192,75410,1,10,0:0:0:0:
416,192,75600,1,0,0:0:0:0:
160,192,75600,1,0,0:0:0:0:
480,192,75789,1,0,0:0:0:0:
288,192,75789,1,0,0:0:0:0:
224,192,75884,1,0,0:0:0:0:
288,192,75979,1,0,0:0:0:0:
352,192,76074,1,0,0:0:0:0:
96,192,76169,1,2,0:0:0:0:
416,192,76169,1,8,0:0:0:0:
480,192,76264,1,0,0:0:0:0:
416,192,76359,1,0,0:0:0:0:
352,192,76454,1,0,0:0:0:0:
160,192,76549,1,0,0:0:0:0:
288,192,76549,1,0,0:0:0:0:
416,192,76834,1,0,0:0:0:0:
96,192,76929,1,10,0:0:0:0:
160,192,77118,1,0,0:0:0:0:
416,192,77118,1,0,0:0:0:0:
480,192,77308,1,0,0:0:0:0:
288,192,77308,1,0,0:0:0:0:
224,192,77403,1,0,0:0:0:0:
288,192,77498,1,0,0:0:0:0:
352,192,77593,1,0,0:0:0:0:
416,192,77688,1,0,0:0:0:0:
96,192,77688,1,10,0:0:0:0:
160,192,77688,1,0,0:0:0:0:
224,192,77783,1,0,0:0:0:0:
288,192,77878,1,0,0:0:0:0:
224,192,77973,1,0,0:0:0:0:
480,192,78068,1,2,0:0:0:0:
96,192,78068,1,0,0:0:0:0:
480,192,78353,1,0,0:0:0:0:
96,192,78448,1,10,0:0:0:0:
416,192,78637,1,0,0:0:0:0:
224,192,78637,1,0,0:0:0:0:
96,192,78827,1,0,0:0:0:0:
352,192,78922,1,0,0:0:0:0:
224,192,79017,1,0,0:0:0:0:
160,192,79207,1,2,0:0:0:0:
480,192,79207,1,8,0:0:0:0:
288,192,79302,1,0,0:0:0:0:
416,192,79397,1,0,0:0:0:0:
96,192,79397,1,0,0:0:0:0:
224,192,79492,1,0,0:0:0:0:
160,192,79587,1,0,0:0:0:0:
480,192,79587,1,2,0:0:0:0:
352,192,79587,1,0,0:0:0:0:
480,192,79872,1,0,0:0:0:0:
352,192,79967,1,8,0:0:0:0:
224,192,79967,1,2,0:0:0:0:
160,192,80062,1,0,0:0:0:0:
224,192,80156,1,0,0:0:0:0:
288,192,80251,1,0,0:0:0:0:
352,192,80346,1,0,0:0:0:0:
160,192,80346,1,0,0:0:0:0:
480,192,80346,1,2,0:0:0:0:
96,192,80726,1,10,0:0:0:0:
288,192,80726,1,0,0:0:0:0:
416,192,80821,1,0,0:0:0:0:
96,192,80916,1,2,0:0:0:0:
224,192,80916,1,0,0:0:0:0:
352,192,81011,1,0,0:0:0:0:
96,192,81106,1,2,0:0:0:0:
480,192,81106,1,0,0:0:0:0:
288,192,81391,1,0,0:0:0:0:
96,192,81486,1,10,0:0:0:0:
480,192,81581,1,0,0:0:0:0:
160,192,81675,1,0,0:0:0:0:
480,192,81770,1,0,0:0:0:0:
288,192,81960,1,0,0:0:0:0:
160,192,82055,1,0,0:0:0:0:
416,192,82150,1,0,0:0:0:0:
96,192,82245,1,10,0:0:0:0:
224,192,82245,1,0,0:0:0:0:
352,192,82340,1,0,0:0:0:0:
480,192,82435,1,0,0:0:0:0:
160,192,82435,1,0,0:0:0:0:
416,192,82530,1,0,0:0:0:0:
352,192,82625,1,0,0:0:0:0:
224,192,82625,1,0,0:0:0:0:
96,192,82625,1,2,0:0:0:0:
352,192,82910,1,0,0:0:0:0:
160,192,82910,1,0,0:0:0:0:
96,192,83005,1,10,0:0:0:0:
352,192,83194,1,0,0:0:0:0:
160,192,83194,1,0,0:0:0:0:
480,192,83384,1,0,0:0:0:0:
416,192,83384,1,0,0:0:0:0:
288,192,83574,1,0,0:0:0:0:
96,192,83764,1,10,0:0:0:0:
416,192,83764,1,0,0:0:0:0:
224,192,83954,1,0,0:0:0:0:
352,192,84049,1,0,0:0:0:0:
96,192,84144,1,2,0:0:0:0:
480,192,84144,1,0,0:0:0:0:
96,192,84334,1,2,0:0:0:0:
96,192,84524,1,2,0:0:0:0:
480,192,84524,1,8,0:0:0:0:
352,192,84713,1,0,0:0:0:0:
96,192,84713,1,2,0:0:0:0:
96,192,84903,1,2,0:0:0:0:
416,192,85093,1,0,0:0:0:0:
96,192,85093,1,2,0:0:0:0:
96,192,85283,1,2,0:0:0:0:
96,192,85473,1,2,0:0:0:0:
96,192,85663,1,2,0:0:0:0:
288,192,85663,1,0,0:0:0:0:
416,192,85663,1,2,0:0:0:0:
352,192,85758,1,2,0:0:0:0:
160,192,85853,1,0,0:0:0:0:
224,192,85853,1,2,0:0:0:0:
288,192,85948,1,0,0:0:0:0:
480,192,85948,1,0,0:0:0:0:
224,192,86043,1,2,0:0:0:0:
96,192,86043,1,0,0:0:0:40:drs_sn2.wav
352,192,86137,1,2,0:0:0:0:
224,192,86232,1,2,0:0:0:0:
160,192,86232,1,0,0:0:0:0:
352,192,86327,1,2,0:0:0:0:
480,192,86327,1,0,0:0:0:40:drs_sn2.wav
96,192,86422,1,8,0:0:0:0:
160,192,86422,1,2,0:0:0:0:
288,192,86422,1,0,0:0:0:60:drs_cy.wav
480,192,86707,1,0,0:0:0:30:drs_cy.wav
288,192,86707,1,10,0:0:0:0:
416,192,86707,1,0,0:0:0:30:drs_cy.wav
480,192,86992,1,0,0:0:0:0:
224,192,87087,1,0,0:0:0:0:
352,192,87087,1,0,0:0:0:0:
416,192,87182,1,0,0:0:0:0:
96,192,87182,1,0,0:0:0:0:
32,192,87182,1,4,0:0:0:0:
352,192,87467,1,0,0:0:0:0:
96,192,87562,1,8,0:0:0:0:
480,192,87562,1,2,0:0:0:0:
352,192,87751,1,0,0:0:0:0:
480,192,87941,1,2,0:0:0:0:
160,192,87941,1,0,0:0:0:0:
416,192,88036,1,0,0:0:0:0:
224,192,88131,1,0,0:0:0:0:
288,192,88226,1,0,0:0:0:0:
96,192,88321,1,8,0:0:0:0:
352,192,88321,1,0,0:0:0:0:
480,192,88321,1,2,0:0:0:0:
288,192,88701,1,0,0:0:0:0:
160,192,88701,1,0,0:0:0:0:
416,192,88701,1,2,0:0:0:0:
288,192,88986,1,0,0:0:0:0:
96,192,89081,1,8,0:0:0:0:
480,192,89081,1,2,0:0:0:0:
288,192,89270,1,0,0:0:0:0:
480,192,89460,1,2,0:0:0:0:
160,192,89460,1,0,0:0:0:0:
416,192,89555,1,0,0:0:0:0:
224,192,89650,1,0,0:0:0:0:
288,192,89745,1,0,0:0:0:0:
96,192,89840,1,8,0:0:0:0:
352,192,89840,1,0,0:0:0:0:
480,192,89840,1,2,0:0:0:0:
160,192,89935,1,0,0:0:0:0:
224,192,90030,1,0,0:0:0:0:
160,192,90125,1,0,0:0:0:0:
352,192,90220,1,0,0:0:0:0:
416,192,90220,1,2,0:0:0:0:
96,192,90220,1,0,0:0:0:0:
96,192,90600,1,8,0:0:0:0:
480,192,90600,1,2,0:0:0:0:
288,192,90789,1,0,0:0:0:0:
160,192,90979,1,0,0:0:0:0:
96,192,91359,1,8,0:0:0:0:
480,192,91359,1,2,0:0:0:0:
480,192,91549,1,0,0:0:0:0:
288,192,91549,1,0,0:0:0:0:
416,192,91644,1,0,0:0:0:0:
224,192,91644,1,0,0:0:0:0:
160,192,91739,1,0,0:0:0:0:
352,192,91739,1,0,0:0:0:0:
96,192,92118,1,8,0:0:0:0:
480,192,92118,1,2,0:0:0:0:
160,192,92498,1,2,0:0:0:0:
416,192,92498,1,0,0:0:0:0:
288,192,92593,1,0,0:0:0:0:
480,192,92783,1,0,0:0:0:0:
96,192,92878,1,2,0:0:0:0:
352,192,92878,1,0,0:0:0:0:
224,192,92973,1,0,0:0:0:0:
96,192,93068,1,0,0:0:0:0:
288,192,93068,1,0,0:0:0:0:
352,192,93163,1,0,0:0:0:0:
96,192,93258,1,2,0:0:0:0:
480,192,93258,1,0,0:0:0:0:
416,192,93353,1,0,0:0:0:0:
352,192,93448,1,0,0:0:0:0:
160,192,93448,1,0,0:0:0:0:
224,192,93543,1,0,0:0:0:0:
96,192,93637,1,8,0:0:0:0:
480,192,93637,1,2,0:0:0:0:
288,192,93637,1,0,0:0:0:0:
352,192,93732,1,0,0:0:0:0:
288,192,93827,1,0,0:0:0:0:
224,192,93922,1,0,0:0:0:0:
160,192,94017,1,0,0:0:0:0:
480,192,94017,1,2,0:0:0:0:
352,192,94207,1,0,0:0:0:0:
96,192,94397,1,8,0:0:0:0:
480,192,94397,1,2,0:0:0:0:
288,192,94397,1,0,0:0:0:0:
352,192,94587,1,0,0:0:0:0:
160,192,94587,1,0,0:0:0:0:
480,192,94777,1,2,0:0:0:0:
96,192,94777,1,0,0:0:0:0:
224,192,94777,1,0,0:0:0:0:
96,192,95156,1,8,0:0:0:0:
480,192,95156,1,2,0:0:0:0:
352,192,95156,1,0,0:0:0:0:
160,192,95536,1,0,0:0:0:0:
352,192,95536,1,2,0:0:0:0:
224,192,95631,1,0,0:0:0:0:
96,192,95916,1,8,0:0:0:0:
352,192,95916,1,0,0:0:0:0:
480,192,95916,1,2,0:0:0:0:
160,192,96106,1,0,0:0:0:0:
416,192,96106,1,0,0:0:0:0:
224,192,96296,1,2,0:0:0:0:
352,192,96296,1,0,0:0:0:0:
480,192,96296,1,2,0:0:0:0:
96,192,96675,1,8,0:0:0:0:
480,192,96675,1,2,0:0:0:0:
352,192,96770,1,0,0:0:0:0:
480,192,96865,1,0,0:0:0:0:
160,192,97055,1,0,0:0:0:0:
416,192,97055,1,2,0:0:0:0:
352,192,97245,1,0,0:0:0:0:
288,192,97340,1,0,0:0:0:0:
96,192,97435,1,8,0:0:0:0:
480,192,97435,1,2,0:0:0:0:
160,192,97530,1,0,0:0:0:0:
224,192,97625,1,0,0:0:0:0:
288,192,97720,1,0,0:0:0:0:
32,192,97815,1,4,0:0:0:0:
224,192,97815,1,0,0:0:0:0:
480,192,97815,1,2,0:0:0:0:
480,192,98005,1,2,0:0:0:0:
224,192,98005,1,0,0:0:0:0:
224,192,98194,1,8,0:0:0:0:
480,192,98194,1,2,0:0:0:0:
480,192,98384,1,2,0:0:0:0:
224,192,98384,1,0,0:0:0:0:
352,192,98479,1,2,0:0:0:0:
480,192,98574,1,2,0:0:0:0:
160,192,98574,1,0,0:0:0:0:
352,192,98764,1,2,0:0:0:0:
96,192,98954,1,8,0:0:0:0:
352,192,98954,1,2,0:0:0:0:
224,192,98954,1,0,0:0:0:0:
160,192,99144,1,0,0:0:0:0:
480,192,99144,1,2,0:0:0:0:
288,192,99144,1,0,0:0:0:0:
96,192,99334,128,0,99713:0:0:0:0:
416,192,99713,1,0,0:0:0:10:drum-duang.wav
288,192,99713,1,0,0:0:0:10:drum-duang.wav
480,192,100093,1,2,0:0:0:0:
160,192,100093,1,0,0:0:0:0:
416,192,100188,1,0,0:0:0:0:
352,192,100283,1,0,0:0:0:0:
416,192,100378,1,0,0:0:0:0:
96,192,100473,1,8,0:0:0:0:
480,192,100473,1,2,0:0:0:0:
160,192,100568,1,0,0:0:0:0:
224,192,100663,1,0,0:0:0:0:
288,192,100758,1,0,0:0:0:0:
352,192,100853,1,2,0:0:0:0:
480,192,100853,1,0,0:0:0:0:
352,192,101137,1,0,0:0:0:0:
96,192,101232,1,8,0:0:0:0:
480,192,101232,1,2,0:0:0:0:
352,192,101422,1,0,0:0:0:0:
160,192,101612,1,0,0:0:0:0:
480,192,101612,1,2,0:0:0:0:
288,192,101612,1,0,0:0:0:0:
416,192,101707,1,0,0:0:0:0:
352,192,101802,1,0,0:0:0:0:
288,192,101897,1,0,0:0:0:0:
96,192,101992,1,0,0:0:0:0:
352,192,101992,1,10,0:0:0:0:
480,192,101992,1,2,0:0:0:0:
160,192,102087,1,0,0:0:0:0:
224,192,102182,1,0,0:0:0:0:
288,192,102277,1,0,0:0:0:0:
352,192,102372,1,0,0:0:0:0:
160,192,102372,1,2,0:0:0:0:
480,192,102467,1,0,0:0:0:0:
288,192,102656,1,0,0:0:0:0:
96,192,102751,1,8,0:0:0:0:
480,192,102751,1,2,0:0:0:0:
224,192,102941,1,0,0:0:0:0:
416,192,102941,1,0,0:0:0:0:
160,192,103131,1,0,0:0:0:0:
288,192,103321,1,0,0:0:0:0:
96,192,103511,1,8,0:0:0:0:
416,192,103511,1,0,0:0:0:0:
352,192,103511,1,2,0:0:0:0:
224,192,103606,1,0,0:0:0:0:
160,192,103701,1,0,0:0:0:0:
480,192,103701,1,0,0:0:0:0:
224,192,103796,1,0,0:0:0:0:
416,192,103796,1,0,0:0:0:0:
480,192,103891,1,2,0:0:0:0:
160,192,103891,1,0,0:0:0:0:
352,192,103891,1,0,0:0:0:0:
288,192,104175,1,0,0:0:0:0:
96,192,104270,1,8,0:0:0:0:
480,192,104270,1,2,0:0:0:0:
352,192,104270,1,0,0:0:0:0:
160,192,104365,1,0,0:0:0:0:
416,192,104460,1,0,0:0:0:0:
224,192,104555,1,0,0:0:0:0:
160,192,104650,1,0,0:0:0:30:drs_cy.wav
96,192,104650,1,0,0:0:0:30:drs_cy.wav
288,192,104650,1,10,0:0:0:0:
416,192,104935,1,10,0:0:0:0:
480,192,104935,1,0,0:0:0:30:drs_cy.wav
352,192,104935,1,0,0:0:0:30:drs_cy.wav
288,192,105220,1,0,0:0:0:30:drs_cy.wav
352,192,105220,1,0,0:0:0:30:drs_cy.wav
224,192,105220,1,10,0:0:0:0:
32,192,105410,1,4,0:0:0:0:
96,192,105410,1,2,0:0:0:0:
96,192,105600,1,2,0:0:0:0:
480,192,105694,1,0,0:0:0:0:
96,192,105789,1,2,0:0:0:0:
96,192,105979,1,2,0:0:0:0:
480,192,105979,1,0,0:0:0:0:
96,192,106169,1,2,0:0:0:0:
288,192,106264,1,0,0:0:0:0:
96,192,106359,1,2,0:0:0:0:
416,192,106359,1,0,0:0:0:0:
224,192,106454,1,0,0:0:0:0:
96,192,106549,1,2,0:0:0:0:
352,192,106549,1,0,0:0:0:0:
480,192,106644,1,0,0:0:0:0:
96,192,106739,1,2,0:0:0:0:
224,192,106739,1,0,0:0:0:0:
352,192,106834,1,0,0:0:0:0:
96,192,106929,1,2,0:0:0:0:
480,192,106929,1,0,0:0:0:0:
32,192,106929,1,4,0:0:0:0:
96,192,107118,1,2,0:0:0:0:
96,192,107308,1,2,0:0:0:0:
96,192,107498,1,2,0:0:0:0:
480,192,107688,1,0,0:0:0:0:
96,192,107688,1,2,0:0:0:0:
96,192,107878,1,2,0:0:0:0:
416,192,108068,1,0,0:0:0:0:
96,192,108068,1,2,0:0:0:0:
96,192,108258,1,2,0:0:0:0:
32,192,108448,1,4,0:0:0:0:
96,192,108448,1,2,0:0:0:0:
288,192,108448,1,0,0:0:0:0:
352,192,108543,1,2,0:0:0:0:
224,192,108637,1,2,0:0:0:0:
96,192,108637,1,0,0:0:0:0:
480,192,108732,1,0,0:0:0:40:drs_sn2.wav
352,192,108732,1,2,0:0:0:0:
224,192,108827,1,2,0:0:0:0:
96,192,108827,1,0,0:0:0:40:drs_sn2.wav
352,192,108922,1,2,0:0:0:0:
480,192,108922,1,0,0:0:0:40:drs_sn2.wav
96,192,109017,1,0,0:0:0:40:drs_sn2.wav
224,192,109017,1,2,0:0:0:0:
352,192,109112,1,2,0:0:0:0:
480,192,109112,1,0,0:0:0:40:drs_sn2.wav
32,192,109207,1,4,0:0:0:0:
416,192,109207,1,0,0:0:0:0:
288,192,109207,1,0,0:0:0:0:
160,192,109302,1,2,0:0:0:0:
352,192,109397,1,2,0:0:0:0:
416,192,109397,1,0,0:0:0:40:drs_sn2.wav
224,192,109492,1,2,0:0:0:0:
160,192,109492,1,0,0:0:0:40:drs_sn2.wav
352,192,109587,1,2,0:0:0:0:
224,192,109682,1,2,0:0:0:0:
352,192,109777,1,2,0:0:0:0:
480,192,109777,1,0,0:0:0:40:drs_sn2.wav
224,192,109872,1,2,0:0:0:0:
96,192,109872,1,0,0:0:0:40:drs_sn2.wav
288,192,109967,1,0,0:0:0:0:
480,192,109967,1,0,0:0:0:0:
96,192,110062,1,0,0:0:0:0:
224,192,110156,1,0,0:0:0:0:
480,192,110251,1,0,0:0:0:0:
352,192,110251,1,0,0:0:0:0:
160,192,110346,1,0,0:0:0:0:
288,192,110441,1,0,0:0:0:0:
96,192,110536,1,0,0:0:0:0:
416,192,110536,1,0,0:0:0:0:
288,192,110631,1,0,0:0:0:0:
480,192,110726,1,0,0:0:0:0:
96,192,110726,1,0,0:0:0:0:
224,192,110821,1,0,0:0:0:0:
352,192,110916,1,0,0:0:0:0:
480,192,111011,1,0,0:0:0:0:
160,192,111106,1,0,0:0:0:0:
416,192,111201,1,0,0:0:0:0:
288,192,111296,1,0,0:0:0:0:
416,192,111391,1,0,0:0:0:0:
32,192,111486,1,4,0:0:0:0:
224,192,111486,1,0,0:0:0:0:
96,192,111486,1,0,0:0:0:0:
288,192,111865,1,0,0:0:0:0:
288,192,112055,1,0,0:0:0:0:
