osu file format v14

[General]
AudioFilename: audio.mp3
AudioLeadIn: 0
PreviewTime: 63296
Countdown: 0
SampleSet: Soft
StackLeniency: 0.7
Mode: 0
LetterboxInBreaks: 0
WidescreenStoryboard: 1

[Editor]
Bookmarks: 112379
DistanceSpacing: 1
BeatDivisor: 8
GridSize: 8
TimelineZoom: 3.199999

[Metadata]
Title:Violet Soul
TitleUnicode:Violet Soul
Artist:Soleily
ArtistUnicode:Soleily
Creator:Ascended
Version:zhuxiaoyan's INFINITE
Source:SOUND VOLTEX III GRAVITY WARS
Tags:soliely sdvx3 soundvoltex3 instrumental electronic trance The First VOLTEX Character Theme Song Contest stwi frostwich synderes zhuxiaoyan Flask
BeatmapID:3955064
BeatmapSetID:1915988

[Difficulty]
HPDrainRate:6
CircleSize:4
OverallDifficulty:8
ApproachRate:8.3
SliderMultiplier:1.6
SliderTickRate:1

[Events]
//Background and Video events
0,0,"purple].jpg",0,0
//Break Periods
2,45750,50542
//Storyboard Layer 0 (Background)
//Storyboard Layer 1 (Fail)
//Storyboard Layer 2 (Pass)
//Storyboard Layer 3 (Foreground)
//Storyboard Layer 4 (Overlay)
//Storyboard Sound Samples

[TimingPoints]
1500,379.746835443038,4,2,1,40,1,0
2639,-76.9230769230769,4,2,1,40,0,0
3018,-100,4,2,1,50,0,0
9094,-100,4,2,1,55,0,0
9284,-90.9090909090909,4,2,1,55,0,0
13651,-55.5555555555556,4,2,1,55,0,0
13936,-83.3333333333333,4,2,1,55,0,0
14126,-100,4,2,1,55,0,0
14316,-66.6666666666667,4,2,1,55,0,0
14601,-100,4,2,1,55,0,0
15170,-86.9565217391304,4,2,1,60,0,0
17829,-76.9230769230769,4,2,1,60,0,0
18208,-86.9565217391304,4,2,1,60,0,0
18493,-80,4,2,1,60,0,0
18968,-75.0187546886722,4,2,1,60,0,0
19253,-71.4285714285714,4,2,1,60,0,0
19537,-66.6666666666667,4,2,1,60,0,0
19727,-66.6666666666667,4,2,1,60,0,0
20297,-83.3333333333333,4,2,1,60,0,0
20487,-83.3333333333333,4,2,1,60,0,0
20740,-71.4285714285714,4,2,1,60,0,0
20993,-71.4285714285714,4,2,1,60,0,0
21246,-86.9565217391304,4,2,1,60,0,0
24094,-60.0000000024,4,2,1,60,0,0
25803,-80,4,2,1,60,0,0
26088,-75.0018750468762,4,2,1,60,0,0
26373,-71.4285714285714,4,2,1,60,0,0
26658,-66.6666666666667,4,2,1,60,0,0
26943,-65.5737704918033,4,2,1,60,0,0
27322,-83.3333333333333,4,2,1,60,0,0
31500,-71.4285714285714,4,2,1,60,0,0
31879,-83.3333333333333,4,2,1,60,0,0
33018,-76.9230769230769,4,2,1,60,0,0
33208,-66.6666666666667,4,2,1,60,0,0
33398,-83.3333333333333,4,2,1,60,0,0
38525,-71.4285714285714,4,2,1,60,0,0
38715,-83.3333333333333,4,2,1,60,0,0
39474,-83.3333333333333,4,2,1,55,0,0
51436,-100,4,2,1,55,0,0
51626,-100,4,2,1,60,0,0
62259,-90.9090909090909,4,2,1,60,0,0
63018,-76.9230769230769,4,2,1,60,0,0
63398,-90.9090909090909,4,2,1,60,0,0
63778,-83.3333333333333,4,2,1,70,0,0
70993,-76.9230769230769,4,2,1,70,0,0
71183,-66.6666666666667,4,2,1,70,0,0
71373,-83.3333333333333,4,2,1,70,0,0
74411,-76.9230769230769,4,2,1,70,0,0
85803,-71.4285714285714,4,2,1,70,0,0
86183,-83.3333333333333,4,2,1,70,0,0
86563,-76.9230769230769,4,2,1,70,0,0
87132,-83.3333333333333,4,2,1,70,0,0
87892,-100,4,2,1,70,0,0
88082,-83.3333333333333,4,2,1,80,0,1
94537,-76.9230769230769,4,2,1,80,0,1
94917,-71.4285714285714,4,2,1,80,0,1
95297,-66.6666666666667,4,2,1,80,0,1
95487,-55.5555555555556,4,2,1,80,0,1
95677,-83.3333333333333,4,2,1,80,0,1
96056,-76.9230769230769,4,2,1,80,0,1
96531,-71.4285714285714,4,2,1,80,0,1
97196,-83.3333333333333,4,2,1,80,0,1
98715,-76.9230769230769,4,2,1,80,0,1
98905,-71.4285714285714,4,2,1,80,0,1
99284,-66.6666666666667,4,2,1,80,0,1
99854,-83.3333333333333,4,2,1,80,0,1
102037,-76.9230769230769,4,2,1,80,0,1
102322,-71.4285714285714,4,2,1,80,0,1
102607,-83.3333333333333,4,2,1,80,0,1
105550,-66.6666666666667,4,2,1,80,0,1
105835,-58.8235294117647,4,2,1,80,0,1
106120,-52.6315789473684,4,2,1,80,0,1
106310,-83.3333333333333,4,2,1,80,0,1
107069,-133.333333333333,4,2,1,80,0,1
107639,-100,4,2,1,80,0,1
107829,-83.3333333333333,4,2,1,80,0,1
109348,-83.3333333333333,4,2,1,80,0,1
110677,-83.3333333333333,4,2,1,80,0,1
110867,-100,4,2,1,80,0,0
112386,-100,4,2,1,60,0,0
112433,-100,4,2,1,5,0,0

[Colours]
Combo1 : 17,254,176
Combo2 : 173,255,95
Combo3 : 255,88,100
Combo4 : 255,94,55

[HitObjects]
116,132,1500,6,0,L|85:156,1,40,6|2,2:2|2:2,0:0:0:0:
124,59,1689,2,0,L|172:76,1,40,2|0,2:2|0:0,0:0:0:0:
55,84,1879,2,0,L|7:67,1,40,2|0,2:3|0:0,0:0:0:0:
212,18,2069,2,0,L|236:49,1,40,2|2,2:2|2:2,0:0:0:0:
317,57,2259,6,0,P|337:49|368:48,3,40,2|0|2|0,2:3|0:0|2:2|0:0,0:0:0:0:
424,85,2639,6,0,P|437:113|438:155,1,51.999997619629,0|0,1:1|0:0,0:0:0:0:
440,252,2829,2,0,P|436:277|425:302,1,51.999997619629,0|0,1:1|0:0,0:0:0:0:
499,192,3018,5,4,1:2:0:0:
341,141,3398,1,0,1:1:0:0:
183,192,3778,1,0,1:1:0:0:
25,141,4158,1,0,1:1:0:0:
95,169,4348,2,0,P|100:149|100:130,1,40
25,141,4537,5,0,1:1:0:0:
183,192,4917,1,0,1:1:0:0:
341,141,5297,1,0,1:1:0:0:
499,192,5677,1,0,1:1:0:0:
456,168,5772,2,0,P|452:188|452:208,2,40
504,116,6056,5,0,1:1:0:0:
428,69,6246,2,0,L|409:22,2,40,0|0|0,0:0|0:0|1:1,0:0:0:0:
336,13,6626,1,0,0:0:0:0:
256,51,6816,5,0,1:1:0:0:
176,13,7006,2,0,L|129:32,1,40
131,51,7196,2,0,P|73:41|10:67,1,120,0|0,1:1|0:0,0:0:0:0:
10,80,7575,1,0,1:1:0:0:
8,268,7860,5,0,0:0:0:0:
8,268,7955,1,0,1:1:0:0:
84,315,8145,2,0,L|103:362,1,40
136,361,8335,1,0,1:1:0:0:
256,333,8525,1,0,0:0:0:0:
256,333,8620,1,0,0:0:0:0:
256,333,8715,1,0,1:1:0:0:
276,250,8905,2,0,P|256:246|237:248,1,40
256,169,9094,5,4,1:2:0:0:
256,169,9189,1,2,2:2:0:0:
311,175,9284,6,0,P|291:135|301:79,1,88.000002685547,0|8,0:0|1:1,0:0:0:0:
261,62,9569,2,0,P|194:58|134:21,1,132.00000402832,2|0,2:2|1:1,0:0:0:0:
45,107,10044,1,2,2:2:0:0:
100,120,10139,2,0,L|10:164,1,88.000002685547,2|2,2:3|2:2,0:0:0:0:
49,193,10424,2,0,L|27:241,1,44.0000013427735,2|2,2:2|2:2,0:0:0:0:
117,294,10613,6,0,P|116:272|108:251,3,44.0000013427735,4|0|2|0,1:2|0:0|2:2|0:0,0:0:0:0:
108,251,10993,2,0,L|215:344,1,132.00000402832,8|2,1:1|2:2,0:0:0:0:
256,366,11373,1,0,1:1:0:0:
268,237,11563,1,2,2:2:0:0:
268,237,11658,2,0,L|289:182,1,44.0000013427735,2|8,2:2|1:1,0:0:0:0:
321,294,11848,2,0,P|341:303|363:308,2,44.0000013427735,0|2|2,0:0|2:2|2:2,0:0:0:0:
391,347,12132,6,0,L|420:299,1,44.0000013427735,4|0,1:2|1:1,0:0:0:0:
490,301,12322,2,0,L|479:251,1,44.0000013427735,0|0,1:1|1:1,0:0:0:0:
507,184,12512,2,0,L|449:161,3,44.0000013427735,8|0|0|0,1:1|1:1|1:1|1:1,0:0:0:0:
404,95,12892,6,0,L|375:143,1,44.0000013427735,4|0,1:2|1:1,0:0:0:0:
305,141,13082,2,0,L|316:191,1,44.0000013427735,0|0,1:1|1:1,0:0:0:0:
250,241,13272,1,8,1:1:0:0:
284,263,13367,1,0,1:1:0:0:
318,285,13462,2,0,L|282:306,2,22.0000006713867,0|0|0,1:1|1:1|1:1,0:0:0:0:
348,256,13651,6,0,L|321:322,1,71.9999978027344,0|2,1:1|1:3,0:0:0:0:
55,254,13936,2,0,L|14:228,1,47.9999985351563,2|0,1:3|0:0,0:0:0:0:
137,358,14126,6,0,L|113:319,1,40,0|0,1:1|1:1,0:0:0:0:
70,206,14316,2,0,L|-8:237,1,60.0000022888184,2|0,1:3|0:0,0:0:0:0:
180,257,14506,5,2,3:2:0:0:
180,257,14601,2,0,L|136:238,1,40,2|2,2:2|2:2,0:0:0:0:
256,192,14791,5,0,1:1:0:0:
239,147,14886,1,2,2:3:0:0:
225,105,14981,1,0,1:1:0:0:
210,62,15075,1,2,2:3:0:0:
267,68,15170,6,0,L|307:45,1,46.0000008773804,0|0,1:1|0:0,0:0:0:0:
306,45,15360,2,0,P|345:68|389:78,1,92.0000017547608,2|8,2:2|1:1,0:0:0:0:
433,63,15645,2,0,P|438:115|466:162,1,92.0000017547608,2|2,2:3|2:3,0:0:0:0:
405,200,15930,2,0,L|371:254,1,46.0000008773804,0|2,1:1|2:2,0:0:0:0:
433,361,16120,1,2,2:3:0:0:
417,266,16310,6,0,L|371:232,1,46.0000008773804,8|0,1:1|0:0,0:0:0:0:
271,245,16500,2,0,L|317:279,1,46.0000008773804,2|0,2:3|0:0,0:0:0:0:
196,262,16689,5,0,1:1:0:0:
166,292,16784,2,0,P|127:311|58:311,1,92.0000017547608,2|2,2:3|2:3,0:0:0:0:
28,258,17069,1,8,1:1:0:0:
28,258,17164,2,0,P|11:242|0:222,1,46.0000008773804
99,239,17354,6,0,L|121:180,2,46.0000008773804,0|0|2,0:0|1:1|2:3,0:0:0:0:
43,122,17639,2,0,P|22:133|7:149,1,46.0000008773804,0|2,1:1|2:3,0:0:0:0:
143,192,17829,6,0,L|161:140,1,51.999997619629,0|0,1:1|1:1,0:0:0:0:
116,77,18018,1,0,1:1:0:0:
116,77,18113,1,0,1:1:0:0:
125,27,18208,6,0,P|171:51|209:86,1,92.0000017547608,4|0,1:2|1:1,0:0:0:0:
256,13,18493,2,0,P|274:59|281:109,1,100,4|0,1:2|0:0,0:0:0:0:
238,170,18778,6,0,P|258:184|279:197,1,50,4|0,1:2|1:1,0:0:0:0:
254,310,18968,1,0,1:1:0:0:
254,310,19063,2,0,P|245:275|241:239,1,53.3200011634461,4|0,1:2|0:0,0:0:0:0:
201,364,19253,6,0,P|255:352|310:364,1,111.999996582031,0|0,1:1|0:0,0:0:0:0:
427,317,19537,2,0,L|347:298,1,60.0000022888184,0|0,1:1|1:1,0:0:0:0:
334,282,19727,6,0,P|422:201|495:332,1,300.000011444092,4|0,2:3|0:0,0:0:0:0:
298,358,20297,2,0,P|262:354|241:339,1,47.9999985351563,0|0,1:1|0:0,0:0:0:0:
168,349,20487,6,0,L|35:368,1,127.99999609375,2|2,2:3|2:3,0:0:0:0:
104,303,20867,6,0,P|68:326|14:331,2,74.6666643880209,2|2|2,2:3|2:3|2:3,0:0:0:0:
94,153,21246,6,0,P|124:185|133:230,1,92.0000017547608,0|2,1:1|2:2,0:0:0:0:
178,225,21531,2,0,L|223:272,1,46.0000008773804,0|8,0:0|1:1,0:0:0:0:
263,202,21721,2,0,P|309:197|356:156,1,92.0000017547608,2|2,2:3|2:3,0:0:0:0:
400,122,22006,2,0,P|418:80|415:35,1,92.0000017547608,0|2,1:1|2:3,0:0:0:0:
341,67,22291,1,0,0:0:0:0:
341,67,22386,1,8,1:1:0:0:
296,55,22575,2,0,L|340:65,1,46.0000008773804,2|0,2:3|0:0,0:0:0:0:
150,21,22765,5,0,1:1:0:0:
196,44,22860,2,0,L|106:21,1,92.0000017547608,2|2,2:3|2:3,0:0:0:0:
30,36,23145,2,0,L|75:47,1,46.0000008773804,8|0,1:1|0:0,0:0:0:0:
145,124,23335,1,2,0:3:0:0:
100,146,23430,2,0,P|57:144|7:110,1,92.0000017547608,2|2,0:3|2:3,0:0:0:0:
145,124,23715,2,0,P|178:127|218:154,1,46.0000008773804,0|0,1:1|1:1,0:0:0:0:
256,260,23905,6,0,L|256:237,2,23.0000004386902,0|0|0,1:1|1:1|1:1,0:0:0:0:
288,307,24094,2,0,P|255:300|223:305,1,66.6666666666667,0|0,1:1|1:1,0:0:0:0:
256,155,24284,5,4,1:2:0:0:
256,192,24474,12,0,25613,0:0:0:0:
446,46,25803,6,0,P|485:76|508:129,1,100,4|2,1:2|2:2,0:0:0:0:
350,57,26088,2,0,P|390:28|448:22,1,106.663997462629,4|2,1:2|2:2,0:0:0:0:
316,172,26373,2,0,P|300:120|314:59,1,111.999996582031,4|0,1:2|0:0,0:0:0:0:
416,233,26658,2,0,P|357:230|305:202,1,120.000004577637,6|2,2:2|2:2,0:0:0:0:
418,109,26943,6,0,P|409:138|389:161,1,61.000001745224,0|2,1:1|2:3,0:0:0:0:
246,188,27132,2,0,P|274:200|305:201,1,61.000001745224,0|0,1:1|1:1,0:0:0:0:
178,138,27322,5,0,1:1:0:0:
239,317,27512,2,0,L|277:268,1,47.9999985351563,2|0,2:2|0:0,0:0:0:0:
178,138,27702,2,0,P|137:165|77:166,1,95.9999970703126,8|0,1:1|0:0,0:0:0:0:
48,149,27987,2,0,L|-2:101,2,47.9999985351563,2|0|2,2:3|1:1|2:2,0:0:0:0:
48,149,28272,2,0,L|79:48,1,95.9999970703126,2|8,2:3|1:1,0:0:0:0:
59,251,28651,2,0,L|73:296,1,47.9999985351563,2|0,2:3|0:0,0:0:0:0:
156,249,28841,5,0,1:1:0:0:
187,274,28936,2,0,P|183:328|156:365,1,95.9999970703126,2|2,2:3|2:3,0:0:0:0:
258,340,29221,2,0,P|271:360|291:375,1,47.9999985351563,8|0,1:1|0:0,0:0:0:0:
220,201,29411,1,2,0:3:0:0:
220,201,29506,2,0,P|274:205|311:232,1,95.9999970703126,0|8,0:0|1:1,0:0:0:0:
343,196,29791,2,0,L|321:152,1,47.9999985351563,0|0,0:0|1:1,0:0:0:0:
332,309,29981,5,8,1:1:0:0:
477,177,30170,2,0,L|455:220,1,47.9999985351563,0|2,1:1|2:3,0:0:0:0:
374,105,30360,5,0,1:1:0:0:
418,120,30455,2,0,L|395:65,1,47.9999985351563,0|2,0:0|2:3,0:0:0:0:
338,27,30645,2,0,P|306:21|280:-3,1,47.9999985351563,2|8,2:3|1:1,0:0:0:0:
222,46,30835,1,2,2:3:0:0:
184,29,30930,6,0,L|129:52,2,47.9999985351563,0|0|0,0:0|0:0|1:1,0:0:0:0:
76,154,31215,2,0,P|88:133|91:110,1,47.9999985351563,8|0,1:1|0:0,0:0:0:0:
167,144,31405,1,0,1:1:0:0:
220,145,31500,6,0,L|184:188,1,55.9999982910157,8|0,1:1|1:1,0:0:0:0:
260,304,31689,1,2,2:3:0:0:
260,304,31784,2,0,L|263:235,1,55.9999982910157,2|0,2:3|1:1,0:0:0:0:
282,258,31974,6,0,P|254:280|189:286,1,95.9999970703126,0|2,0:0|2:3,0:0:0:0:
153,316,32259,2,0,P|125:294|60:288,1,95.9999970703126,8|0,1:1|0:0,0:0:0:0:
55,276,32544,2,0,L|80:335,1,47.9999985351563,0|0,0:0|1:1,0:0:0:0:
35,192,32734,5,0,0:0:0:0:
35,192,32829,2,0,L|-24:245,1,47.9999985351563,0|0,1:1|0:0,0:0:0:0:
97,129,33018,6,0,L|18:84,1,51.999997619629,0|2,1:1|2:3,0:0:0:0:
168,65,33208,6,0,L|133:-37,1,60.0000022888184,0|2,1:1|2:3,0:0:0:0:
269,29,33398,6,0,L|322:47,13,47.9999985351563,4|0|0|0|8|0|0|0|0|8|0|0|8|0,1:2|1:1|1:1|1:1|1:1|1:1|1:1|1:1|1:1|1:1|0:0|1:1|2:1|0:0,0:0:0:0:
196,58,34727,2,0,P|169:71|134:67,1,47.9999985351563,2|0,1:3|0:0,0:0:0:0:
337,30,34917,6,0,L|375:70,13,47.9999985351563,4|0|0|0|8|0|0|0|0|8|0|0|8|0,1:2|1:1|1:1|1:1|1:1|1:1|1:1|1:1|1:1|1:1|0:0|1:1|2:1|0:0,0:0:0:0:
137,61,36246,2,0,P|108:51|86:23,1,47.9999985351563,2|0,1:3|0:0,0:0:0:0:
165,22,36436,6,0,L|125:77,1,47.9999985351563,4|0,1:2|0:0,0:0:0:0:
204,113,36626,2,0,P|182:130|152:140,1,47.9999985351563,0|2,1:1|2:3,0:0:0:0:
103,189,36816,2,0,L|45:175,1,47.9999985351563,8|2,1:1|2:3,0:0:0:0:
90,267,37006,2,0,P|112:276|131:292,1,47.9999985351563,0|0,1:1|0:0,0:0:0:0:
228,324,37196,5,4,1:2:0:0:
234,335,37291,1,2,0:3:0:0:
263,310,37386,5,0,1:1:0:0:
290,327,37481,1,2,2:3:0:0:
306,288,37575,5,8,1:1:0:0:
348,266,37670,1,2,2:3:0:0:
313,251,37765,6,0,L|342:184,1,47.9999985351563,0|0,1:1|0:0,0:0:0:0:
296,140,37955,5,2,1:2:0:0:
313,101,38049,1,2,1:2:0:0:
303,61,38144,1,2,1:2:0:0:
269,38,38239,1,2,1:2:0:0:
228,44,38334,1,8,1:1:0:0:
200,75,38429,1,2,2:3:0:0:
200,115,38525,2,0,P|226:140|262:142,1,55.9999982910157,2|2,2:2|2:2,0:0:0:0:
366,121,38715,6,0,P|383:94|383:55,2,47.9999985351563,10|10|0,2:2|2:2|0:0,0:0:0:0:
395,72,39000,2,0,P|380:43|346:24,2,47.9999985351563,2|2|2,2:2|2:3|2:3,0:0:0:0:
306,28,39284,6,0,P|329:21|352:24,1,47.9999985351563,2|2,2:3|2:3,0:0:0:0:
465,192,39474,5,4,2:2:0:0:
256,192,39569,12,2,45550,0:0:0:0:
256,192,51246,5,0,0:0:0:0:
209,133,51436,2,0,L|184:164,1,40
17,192,51626,5,6,2:2:0:0:
51,130,51911,1,0,0:0:0:0:
51,130,52006,1,8,2:1:0:0:
3,67,52196,1,0,0:0:0:0:
48,10,52386,1,0,0:0:0:0:
48,10,52481,1,0,0:0:0:0:
48,10,52575,1,0,0:0:0:0:
3,67,52765,1,8,2:1:0:0:
51,130,52955,2,0,L|90:147,1,40
17,192,53145,5,2,2:2:0:0:
59,264,53335,1,0,0:0:0:0:
59,264,53430,1,0,0:0:0:0:
59,264,53525,1,8,2:1:0:0:
23,327,53715,1,0,0:0:0:0:
73,384,53905,1,2,2:2:0:0:
73,384,54000,1,8,2:1:0:0:
23,327,54189,1,2,2:2:0:0:
23,327,54284,1,8,2:1:0:0:
57,266,54474,2,0,L|96:249,1,40
256,361,54664,5,2,2:2:0:0:
439,384,55044,1,8,2:1:0:0:
489,327,55234,1,2,2:2:0:0:
453,264,55424,1,0,0:0:0:0:
453,264,55518,1,0,0:0:0:0:
453,264,55613,1,2,2:2:0:0:
495,192,55803,1,8,2:1:0:0:
509,67,55993,5,2,2:2:0:0:
464,10,56183,1,2,2:2:0:0:
456,127,56373,1,0,0:0:0:0:
456,127,56468,1,0,0:0:0:0:
456,127,56563,1,8,2:1:0:0:
495,192,56753,6,0,L|507:232,1,40
439,384,56943,1,2,2:2:0:0:
439,384,57037,1,8,2:1:0:0:
489,327,57227,1,2,2:2:0:0:
489,327,57322,1,8,2:1:0:0:
444,308,57417,2,0,L|405:291,1,40,0|2,0:0|2:2,0:0:0:0:
324,258,57607,1,2,2:2:0:0:
324,258,57702,6,0,L|289:296,3,40,0|0|0|0,1:1|1:1|1:1|1:1,0:0:0:0:
383,205,58082,2,0,L|348:167,3,40,8|0|0|0,2:1|1:1|1:1|1:1,0:0:0:0:
284,298,58462,6,0,L|233:308,1,40,0|2,1:1|2:3,0:0:0:0:
338,177,58651,2,0,L|332:125,1,40,2|0,2:3|0:0,0:0:0:0:
253,214,58841,6,0,L|216:197,1,40,8|2,1:2|1:3,0:0:0:0:
105,213,59031,1,2,1:3:0:0:
122,245,59126,1,2,1:3:0:0:
139,277,59221,6,0,L|155:240,1,40,0|0,1:1|1:1,0:0:0:0:
209,316,59411,1,0,1:1:0:0:
209,316,59506,2,0,L|243:296,1,40,0|8,1:1|2:1,0:0:0:0:
314,366,59696,1,0,1:1:0:0:
314,366,59791,6,0,L|353:370,1,40,0|0,1:1|1:1,0:0:0:0:
320,276,59981,2,0,L|336:239,1,40,2|2,1:3|2:3,0:0:0:0:
241,213,60170,2,0,L|232:173,1,40,2|0,2:3|0:0,0:0:0:0:
309,164,60360,6,0,L|325:127,1,40,0|0,1:1|1:1,0:0:0:0:
126,186,60550,2,0,L|156:212,1,40,2|0,2:3|0:0,0:0:0:0:
65,275,60740,5,2,1:3:0:0:
56,283,60835,1,0,1:1:0:0:
88,317,60930,5,0,0:0:0:0:
85,328,61025,1,0,1:1:0:0:
136,338,61120,5,8,1:1:0:0:
140,348,61215,1,0,0:0:0:0:
179,317,61310,6,0,L|202:369,1,40,2|0,1:3|1:1,0:0:0:0:
301,342,61500,5,2,1:3:0:0:
327,309,61594,1,0,1:1:0:0:
320,289,61689,5,0,0:0:0:0:
360,279,61783,1,0,1:1:0:0:
401,292,61879,5,8,1:1:0:0:
427,260,61973,1,0,0:0:0:0:
454,228,62069,2,0,L|431:176,1,40,0|0,1:1|0:0,0:0:0:0:
307,192,62259,6,0,P|256:64|206:192,1,352.000010742188,2|0,2:2|1:1,0:0:0:0:
256,136,63113,6,0,P|270:89|241:29,1,103.999995239258,0|0,1:1|1:1,0:0:0:0:
245,15,63398,2,0,L|269:15,6,22.0000006713867,2|0|0|0|2|0|0,1:3|0:0|0:0|0:0|2:3|0:0|0:0,0:0:0:0:
324,25,63778,6,0,P|255:43|189:18,1,143.999995605469,4|0,1:1|1:1,0:0:0:0:
144,35,64158,1,8,1:1:0:0:
53,133,64348,2,0,L|-10:160,1,47.9999985351563,2|0,1:3|0:0,0:0:0:0:
132,177,64537,1,0,1:1:0:0:
132,177,64632,2,0,P|84:165|45:117,1,95.9999970703126,0|0,1:1|1:1,0:0:0:0:
27,61,64917,1,8,1:1:0:0:
202,131,65107,2,0,L|220:175,1,47.9999985351563,2|2,2:3|2:3,0:0:0:0:
220,175,65297,6,0,L|258:85,1,95.9999970703126,0|0,1:1|0:0,0:0:0:0:
301,181,65582,2,0,L|320:226,1,47.9999985351563,0|8,0:0|1:1,0:0:0:0:
257,86,65867,2,0,L|347:49,1,95.9999970703126,0|0,1:1|1:1,0:0:0:0:
384,186,66151,1,2,2:3:0:0:
414,222,66246,2,0,P|455:245|521:247,1,95.9999970703126,0|8,0:0|1:1,0:0:0:0:
503,250,66531,2,0,P|474:259|455:280,1,47.9999985351563,0|2,0:0|2:3,0:0:0:0:
349,301,66721,1,2,2:3:0:0:
336,255,66816,6,0,L|278:348,1,95.9999970703126,0|0,1:1|0:0,0:0:0:0:
261,277,67101,1,2,0:3:0:0:
220,287,67196,6,0,L|114:261,1,95.9999970703126,8|0,1:1|1:1,0:0:0:0:
117,162,67481,1,2,0:3:0:0:
154,188,67575,6,0,L|146:78,1,95.9999970703126,0|0,1:1|1:1,0:0:0:0:
228,94,67860,1,2,0:3:0:0:
228,94,67955,6,0,L|288:68,1,47.9999985351563,8|0,1:1|0:0,0:0:0:0:
371,171,68145,2,0,L|340:135,1,47.9999985351563,2|2,2:3|2:3,0:0:0:0:
272,74,68335,5,0,1:1:0:0:
321,47,68430,1,0,0:0:0:0:
370,20,68525,2,0,P|418:30|465:69,1,95.9999970703126,0|8,0:0|1:1,0:0:0:0:
469,210,68810,1,0,0:0:0:0:
469,210,68905,2,0,P|496:171|506:124,1,95.9999970703126,0|0,0:0|1:1,0:0:0:0:
422,141,69189,6,0,P|395:180|385:227,1,95.9999970703126,8|0,1:1|1:1,0:0:0:0:
430,301,69474,2,0,P|450:321|479:332,1,47.9999985351563,8|0,1:1|0:0,0:0:0:0:
294,365,69664,2,0,P|277:347|256:336,1,47.9999985351563,0|0,1:1|0:0,0:0:0:0:
244,234,69854,5,0,1:1:0:0:
244,234,69949,1,2,2:3:0:0:
291,256,70044,2,0,L|272:193,1,47.9999985351563,2|2,2:3|2:3,0:0:0:0:
323,145,70234,1,8,1:1:0:0:
323,145,70329,1,0,0:0:0:0:
365,115,70424,2,0,L|300:99,1,47.9999985351563,2|2,2:3|2:3,0:0:0:0:
256,2,70613,5,0,1:1:0:0:
234,80,70803,2,0,L|222:127,1,47.9999985351563,2|0,2:3|0:0,0:0:0:0:
256,2,70993,5,8,1:1:0:0:
157,183,71183,2,0,L|102:215,1,60.0000022888184,2|0,2:3|0:0,0:0:0:0:
70,140,71373,6,0,L|173:191,1,95.9999970703126,0|0,1:1|0:0,0:0:0:0:
240,218,71658,1,0,1:1:0:0:
240,218,71753,2,0,L|335:385,1,191.999994140625,8|0,1:1|1:1,0:0:0:0:
334,384,72227,2,0,P|345:340|388:301,1,95.9999970703126,8|0,1:1|1:1,0:0:0:0:
394,256,72512,2,0,L|446:293,1,47.9999985351563,8|0,1:1|0:0,0:0:0:0:
459,160,72702,2,0,L|484:222,1,47.9999985351563,2|0,2:3|0:0,0:0:0:0:
357,92,72892,5,0,1:1:0:0:
459,160,73082,1,0,1:0:0:0:
467,137,73176,1,0,1:1:0:0:
273,110,73367,2,0,L|217:131,2,47.9999985351563,2|2|0,2:3|2:3|0:0,0:0:0:0:
303,152,73651,5,0,1:1:0:0:
200,208,73841,1,0,1:0:0:0:
192,231,73935,1,0,1:0:0:0:
86,179,74126,1,0,1:0:0:0:
66,192,74221,2,0,L|10:213,1,47.9999985351563,2|2,2:3|2:3,0:0:0:0:
15,188,74411,6,0,P|13:231|40:286,1,103.999995239258,0|2,1:1|2:3,0:0:0:0:
121,328,74696,1,0,0:0:0:0:
121,328,74791,2,0,P|166:325|256:247,1,155.999992858887,8|0,1:1|0:0,0:0:0:0:
302,327,75170,2,0,P|342:362|406:363,1,103.999995239258,0|0,1:1|0:0,0:0:0:0:
441,315,75455,1,0,1:1:0:0:
455,291,75550,2,0,P|448:261|429:237,1,51.999997619629,8|0,1:1|0:0,0:0:0:0:
299,167,75740,2,0,P|273:171|251:185,1,51.999997619629,2|0,1:3|0:0,0:0:0:0:
121,220,75930,6,0,P|71:216|23:171,1,103.999995239258,4|0,1:1|0:0,0:0:0:0:
5,199,76215,2,0,P|22:180|32:156,2,51.999997619629,0|8|0,1:1|1:1|0:0,0:0:0:0:
83,246,76500,6,0,P|134:248|178:222,1,103.999995239258,2|0,1:3|1:1,0:0:0:0:
248,302,76784,1,0,1:1:0:0:
248,302,76879,2,0,P|271:311|291:329,1,51.999997619629,0|0,0:0|1:1,0:0:0:0:
183,245,77069,6,0,P|200:197|189:147,1,103.999995239258,8|2,1:1|2:3,0:0:0:0:
235,85,77354,5,2,2:3:0:0:
281,105,77449,2,0,P|322:100|373:55,1,103.999995239258,0|0,1:1|0:0,0:0:0:0:
369,19,77734,2,0,L|421:47,2,51.999997619629,0|8|0,0:0|1:1|0:0,0:0:0:0:
362,105,78018,6,0,P|379:142|437:177,1,103.999995239258,0|0,1:1|1:1,0:0:0:0:
415,251,78303,1,2,2:3:0:0:
459,261,78398,6,0,L|528:277,1,51.999997619629,0|0,0:0|1:1,0:0:0:0:
363,302,78588,2,0,P|318:327|294:372,1,103.999995239258,8|2,1:1|2:3,0:0:0:0:
451,345,78873,1,2,2:3:0:0:
451,345,78968,6,0,P|413:310|362:301,1,103.999995239258,0|0,1:1|0:0,0:0:0:0:
274,262,79253,2,0,L|224:317,1,51.999997619629,0|8,1:1|1:1,0:0:0:0:
98,367,79537,6,0,P|123:366|159:343,1,51.999997619629,0|2,1:1|2:3,0:0:0:0:
192,240,79727,1,0,1:1:0:0:
74,168,79917,6,0,P|84:193|102:211,1,51.999997619629,0|0,1:1|0:0,0:0:0:0:
192,240,80107,2,0,P|242:233|284:198,1,103.999995239258,8|2,1:1|2:3,0:0:0:0:
247,132,80392,1,2,2:3:0:0:
268,162,80487,6,0,L|302:46,1,103.999995239258,0|0,1:1|0:0,0:0:0:0:
250,50,80772,2,0,L|227:3,1,51.999997619629,0|8,1:1|1:1,0:0:0:0:
165,48,80962,2,0,L|46:13,1,103.999995239258,2|2,0:3|2:3,0:0:0:0:
6,71,81246,5,0,1:1:0:0:
37,115,81341,2,0,P|44:179|76:219,1,103.999995239258,8|0,1:1|1:1,0:0:0:0:
89,205,81626,1,8,1:1:0:0:
101,225,81720,1,2,0:3:0:0:
114,246,81816,1,0,1:1:0:0:
126,266,81910,1,2,2:3:0:0:
145,262,82006,6,0,P|171:305|173:357,1,103.999995239258,0|2,1:1|2:3,0:0:0:0:
256,329,82291,2,0,L|256:260,1,51.999997619629,2|8,2:3|1:1,0:0:0:0:
322,375,82481,2,0,P|366:348|417:347,1,103.999995239258,2|0,2:3|0:0,0:0:0:0:
470,351,82765,5,0,1:1:0:0:
417,347,82860,2,0,L|364:301,1,51.999997619629,0|2,1:1|2:3,0:0:0:0:
441,268,83050,1,2,2:3:0:0:
441,268,83145,2,0,L|460:201,2,51.999997619629,8|2|0,1:1|2:3|1:1,0:0:0:0:
365,230,83430,1,0,1:1:0:0:
365,230,83525,6,0,P|301:237|216:187,1,155.999992858887,0|0,1:1|1:1,0:0:0:0:
203,203,83905,2,0,P|182:166|181:135,1,51.999997619629,8|0,1:1|0:0,0:0:0:0:
359,83,84094,2,0,P|332:132|281:156,1,103.999995239258,2|0,2:3|1:1,0:0:0:0:
263,133,84379,1,8,1:1:0:0:
237,110,84474,2,0,P|243:80|264:54,1,51.999997619629,0|0,0:0|1:1,0:0:0:0:
263,53,84664,6,0,P|207:46|172:11,1,103.999995239258,8|2,1:1|2:3,0:0:0:0:
71,80,84949,1,2,2:3:0:0:
113,98,85044,6,0,L|180:184,1,103.999995239258,4|0,1:2|1:1,0:0:0:0:
256,351,85424,1,0,1:1:0:0:
256,268,85613,6,0,L|256:216,1,51.999997619629,2|0,1:3|0:0,0:0:0:0:
256,351,85803,6,0,P|285:346|312:326,1,55.9999982910157,4|0,1:2|0:0,0:0:0:0:
205,331,85993,2,0,P|228:346|256:351,1,55.9999982910157,2|0,1:3|0:0,0:0:0:0:
347,264,86183,6,0,P|363:239|368:206,1,47.9999985351563,0|0,1:1|0:0,0:0:0:0:
144,221,86373,2,0,P|151:244|165:264,1,47.9999985351563,0|0,1:1|0:0,0:0:0:0:
256,216,86563,5,4,1:2:0:0:
281,180,86658,1,0,1:1:0:0:
273,137,86753,1,0,1:1:0:0:
302,88,86848,5,0,1:1:0:0:
321,128,86943,1,0,1:1:0:0:
362,142,87038,1,0,1:1:0:0:
391,190,87132,6,0,L|416:251,1,47.9999985351563,0|0,1:1|1:1,0:0:0:0:
506,361,87322,5,4,1:2:0:0:
481,185,87607,5,4,1:2:0:0:
456,9,87892,6,0,L|520:46,1,40,2|2,1:3|1:3,0:0:0:0:
381,54,88082,5,4,1:1:0:0:
349,70,88177,1,0,0:0:0:0:
318,87,88272,1,0,0:0:0:0:
315,128,88367,5,0,1:1:0:0:
283,112,88462,1,8,1:1:0:0:
252,95,88557,1,0,0:0:0:0:
223,60,88651,6,0,L|204:104,1,47.9999985351563,2|0,1:3|0:0,0:0:0:0:
76,158,88841,1,0,1:1:0:0:
118,190,88936,2,0,P|67:208|-13:188,1,95.9999970703126,0|0,1:1|1:1,0:0:0:0:
25,205,89221,2,0,L|70:240,3,47.9999985351563,8|0|2|2,1:1|0:0|2:3|2:3,0:0:0:0:
135,279,89601,6,0,L|161:350,1,47.9999985351563,0|0,1:1|0:0,0:0:0:0:
164,204,89791,1,0,0:0:0:0:
164,204,89886,2,0,L|180:158,1,47.9999985351563,0|8,0:0|1:1,0:0:0:0:
173,318,90075,1,0,0:0:0:0:
173,318,90170,2,0,L|189:364,1,47.9999985351563,0|0,1:1|0:0,0:0:0:0:
282,233,90360,5,0,1:1:0:0:
237,253,90455,1,0,1:1:0:0:
383,350,90645,1,0,1:1:0:0:
383,350,90740,2,0,L|326:317,1,47.9999985351563,8|0,1:1|0:0,0:0:0:0:
384,254,90930,1,2,2:3:0:0:
384,254,91025,1,2,2:3:0:0:
353,203,91120,6,0,L|370:150,1,47.9999985351563,0|0,1:1|0:0,0:0:0:0:
257,75,91310,2,0,L|296:103,1,47.9999985351563,0|0,0:0|1:1,0:0:0:0:
145,154,91500,2,0,L|183:126,1,47.9999985351563,8|0,1:1|0:0,0:0:0:0:
186,285,91689,2,0,L|171:240,1,47.9999985351563,0|2,1:1|2:3,0:0:0:0:
292,330,91879,1,0,1:1:0:0:
261,366,91974,6,0,P|274:306|257:246,1,95.9999970703126,0|2,1:1|2:3,0:0:0:0:
214,220,92259,2,0,L|156:245,1,47.9999985351563,8|0,1:1|0:0,0:0:0:0:
47,269,92449,1,2,2:3:0:0:
47,269,92544,1,2,2:3:0:0:
84,278,92639,5,0,1:1:0:0:
68,236,92734,1,2,0:3:0:0:
53,196,92829,1,2,2:3:0:0:
39,155,92924,1,0,1:1:0:0:
70,177,93018,6,0,L|55:237,1,47.9999985351563,8|0,1:1|0:0,0:0:0:0:
101,134,93208,2,0,L|86:194,1,47.9999985351563,2|2,2:3|2:3,0:0:0:0:
131,11,93398,6,0,P|110:82|169:171,1,143.999995605469,0|2,1:1|1:3,0:0:0:0:
181,159,93778,2,0,P|201:157|236:131,1,47.9999985351563,8|0,1:1|0:0,0:0:0:0:
307,44,93968,2,0,P|305:24|279:-11,1,47.9999985351563,0|0,1:1|0:0,0:0:0:0:
388,36,94158,6,0,L|466:62,3,47.9999985351563,0|2|2|2,1:1|2:3|2:3|2:3,0:0:0:0:
439,126,94537,6,0,L|503:104,3,51.999997619629,8|0|2|2,1:1|0:0|2:3|2:3,0:0:0:0:
466,238,94917,6,0,L|489:186,2,55.9999982910157,0|0|2,1:1|0:0|2:3,0:0:0:0:
498,283,95202,1,0,0:0:0:0:
445,310,95297,6,0,L|413:239,1,60.0000022888184,8|0,1:1|0:0,0:0:0:0:
349,263,95487,2,0,L|232:204,1,71.9999978027344,2|0,2:3|0:0,0:0:0:0:
252,248,95677,6,0,P|238:198|257:139,1,95.9999970703126,0|0,1:1|0:0,0:0:0:0:
199,77,95962,5,0,1:1:0:0:
199,77,96056,2,0,P|170:126|167:193,1,103.999995239258,8|0,1:1|0:0,0:0:0:0:
146,264,96341,2,0,L|87:309,1,51.999997619629,2|0,2:3|1:1,0:0:0:0:
105,296,96531,6,0,P|84:243|96:149,1,111.999996582031,8|0,1:1|1:1,0:0:0:0:
5,175,96816,6,0,P|11:147|26:124,1,55.9999982910157,8|0,1:1|0:0,0:0:0:0:
78,62,97006,2,0,P|101:46|128:39,1,55.9999982910157,2|0,2:3|0:0,0:0:0:0:
260,23,97196,5,0,1:1:0:0:
127,39,97386,2,0,L|188:53,1,47.9999985351563,0|0,0:0|1:1,0:0:0:0:
329,61,97575,2,0,P|339:25|336:2,2,47.9999985351563,8|2|2,1:1|2:3|2:3,0:0:0:0:
260,23,97860,1,0,0:0:0:0:
260,23,97955,5,0,1:1:0:0:
331,142,98145,2,0,L|377:131,1,47.9999985351563,2|0,2:3|0:0,0:0:0:0:
183,95,98335,2,0,P|173:59|176:36,2,47.9999985351563,8|0|2,1:1|0:0|2:3,0:0:0:0:
220,135,98620,1,0,0:0:0:0:
257,175,98715,6,0,P|256:200|248:225,1,51.999997619629,4|0,1:2|0:0,0:0:0:0:
283,288,98905,6,0,P|258:302|230:306,1,55.9999982910157,0|0,1:1|0:0,0:0:0:0:
164,358,99094,6,0,P|139:343|121:322,1,55.9999982910157,0|0,1:1|0:0,0:0:0:0:
49,265,99284,6,0,P|49:234|59:204,1,60.0000022888184,0|0,1:1|1:1,0:0:0:0:
133,164,99474,5,4,1:2:0:0:
135,85,99664,2,0,P|106:91|81:107,1,60.0000022888184,0|0,1:1|0:0,0:0:0:0:
167,243,99854,5,0,1:1:0:0:
256,154,100044,6,0,P|269:83|256:11,1,143.999995605469,0|0,1:1|1:1,0:0:0:0:
249,31,100424,2,0,P|269:36|284:31,2,31.9999990234375,0|0|0,1:1|0:0|0:0,0:0:0:0:
216,47,100613,6,0,L|421:154,1,191.999994140625,12|0,1:1|1:1,0:0:0:0:
424,180,101088,2,0,L|537:124,1,95.9999970703126,0|0,1:1|1:1,0:0:0:0:
479,113,101373,1,8,1:1:0:0:
479,113,101468,1,0,0:0:0:0:
454,75,101563,2,0,P|456:45|469:22,1,47.9999985351563,2|2,2:3|2:3,0:0:0:0:
509,222,101753,6,0,P|501:275|466:321,1,95.9999970703126,0|0,1:1|0:0,0:0:0:0:
462,295,102037,2,0,P|425:323|366:335,1,103.999995239258,2|0,0:3|0:0,0:0:0:0:
333,265,102322,2,0,L|276:217,1,55.9999982910157,0|0,1:1|0:0,0:0:0:0:
256,315,102512,5,0,1:1:0:0:
256,315,102607,2,0,L|102:275,1,143.999995605469,2|8,2:3|1:1,0:0:0:0:
39,205,103082,2,0,L|-22:247,1,47.9999985351563,2|2,2:3|2:3,0:0:0:0:
8,297,103272,5,0,1:1:0:0:
15,273,103366,1,2,0:3:0:0:
23,251,103461,1,2,2:3:0:0:
31,229,103556,1,0,1:1:0:0:
39,205,103651,1,8,1:1:0:0:
77,125,103841,2,0,L|35:64,1,47.9999985351563,0|0,1:1|0:0,0:0:0:0:
139,192,104031,5,0,1:1:0:0:
136,66,104221,2,0,L|157:8,1,47.9999985351563,0|0,1:1|0:0,0:0:0:0:
139,192,104411,2,0,P|188:192|246:157,1,95.9999970703126,8|2,1:1|2:3,0:0:0:0:
265,141,104696,1,2,2:3:0:0:
287,100,104791,5,0,1:1:0:0:
408,157,104981,1,2,2:3:0:0:
440,196,105075,2,0,L|507:216,1,47.9999985351563,0|8,1:1|1:1,0:0:0:0:
313,295,105265,5,0,1:1:0:0:
355,274,105360,1,0,1:1:0:0:
396,252,105455,1,0,1:1:0:0:
353,236,105550,6,0,L|320:359,1,120.000004577637,4|0,1:2|0:0,0:0:0:0:
222,379,105835,2,0,L|116:273,1,136.000002593994,4|0,1:2|0:0,0:0:0:0:
184,193,106120,2,0,L|257:173,1,75.9999979705811,4|0,1:2|0:0,0:0:0:0:
247,81,106310,5,4,1:2:0:0:
247,76,106404,1,0,0:0:0:0:
249,72,106499,1,0,1:1:0:0:
250,67,106594,1,2,2:3:0:0:
251,63,106689,1,0,1:1:0:0:
252,59,106784,1,0,1:1:0:0:
254,54,106879,1,0,1:1:0:0:
255,50,106974,1,0,0:0:0:0:
256,45,107069,2,0,L|265:13,5,30.0000011444092,0|2|0|2|2|0,1:1|2:3|1:1|2:3|1:3|0:0,0:0:0:0:
240,120,107639,6,0,L|229:158,1,40,2|2,1:3|2:3,0:0:0:0:
157,212,107829,6,0,L|122:257,1,47.9999985351563,4|0,1:2|1:1,0:0:0:0:
191,296,108018,2,0,L|207:373,1,47.9999985351563,2|2,1:3|2:3,0:0:0:0:
109,326,108208,2,0,L|48:298,1,47.9999985351563,0|2,1:1|2:3,0:0:0:0:
271,307,108398,2,0,P|287:289|296:267,1,47.9999985351563,0|2,1:1|2:3,0:0:0:0:
173,236,108588,1,0,1:1:0:0:
173,236,108683,6,0,L|102:256,2,47.9999985351563,8|0|0,1:1|0:0|1:1,0:0:0:0:
244,217,108968,1,8,1:1:0:0:
369,285,109158,2,0,L|411:333,1,47.9999985351563,2|2,2:3|2:3,0:0:0:0:
485,200,109348,5,4,1:2:0:0:
485,200,109443,1,0,1:1:0:0:
446,189,109537,5,0,1:1:0:0:
446,189,109632,1,0,1:1:0:0:
407,178,109727,5,0,1:1:0:0:
407,178,109822,1,0,1:1:0:0:
368,167,109917,6,0,L|388:226,1,47.9999985351563,2|0,1:3|1:1,0:0:0:0:
260,93,110107,5,4,1:2:0:0:
260,93,110202,1,0,1:1:0:0:
204,113,110297,5,2,1:3:0:0:
204,113,110392,1,0,1:1:0:0:
148,133,110487,5,0,1:1:0:0:
148,133,110582,1,0,1:1:0:0:
92,153,110677,6,0,L|112:94,1,47.9999985351563,0|0,1:1|1:1,0:0:0:0:
3,33,110867,6,0,L|61:370,1,320,2|0,2:3|1:1,0:0:0:0:
57,349,111721,5,2,2:3:0:0:
58,250,111911,1,0,1:1:0:0:
58,250,112006,2,0,L|7:219,1,40,2|0,2:3|0:0,0:0:0:0:
36,174,112196,2,0,L|29:135,1,40,2|2,1:3|1:3,0:0:0:0:
5,23,112386,5,4,1:1:0:0:
