osu file format v14

[General]
AudioFilename: audio.mp3
AudioLeadIn: 0
PreviewTime: 63296
Countdown: 0
SampleSet: Soft
StackLeniency: 0.7
Mode: 0
LetterboxInBreaks: 0
WidescreenStoryboard: 1

[Editor]
Bookmarks: 9087,15153,30353,39457,51609,63761,88065,112369
DistanceSpacing: 1.1
BeatDivisor: 4
GridSize: 4
TimelineZoom: 3.199999

[Metadata]
Title:Violet Soul
TitleUnicode:Violet Soul
Artist:Soleily
ArtistUnicode:Soleily
Creator:Ascended
Version:NOVICE
Source:SOUND VOLTEX III GRAVITY WARS
Tags:soliely sdvx3 soundvoltex3 instrumental electronic trance The First VOLTEX Character Theme Song Contest stwi frostwich synderes zhuxiaoyan Flask
BeatmapID:3954706
BeatmapSetID:1915988

[Difficulty]
HPDrainRate:4
CircleSize:3.5
OverallDifficulty:4
ApproachRate:5
SliderMultiplier:1.12
SliderTickRate:1

[Events]
//Background and Video events
0,0,"purple].jpg",0,0
//Break Periods
2,39674,50426
//Storyboard Layer 0 (Background)
//Storyboard Layer 1 (Fail)
//Storyboard Layer 2 (Pass)
//Storyboard Layer 3 (Foreground)
//Storyboard Layer 4 (Overlay)
//Storyboard Sound Samples

[TimingPoints]
1500,379.746835443038,4,2,1,40,1,0
3018,-111.111111111111,4,2,1,50,0,0
9094,-111.111111111111,4,2,1,55,0,0
15170,-100,4,2,1,60,0,0
39474,-100,4,2,1,55,0,0
51626,-111.111111111111,4,2,1,60,0,0
63778,-100,4,2,1,70,0,1
63825,-100,4,2,1,70,0,0
88082,-90.9090909090909,4,2,1,80,0,1
100234,-90.9090909090909,4,2,1,80,0,0
100613,-90.9090909090909,4,2,1,80,0,1
110867,-100,4,2,1,80,0,1
112386,-90.9090909090909,4,2,1,60,0,0
112433,-90.9090909090909,4,2,1,5,0,0

[Colours]
Combo1 : 17,254,176
Combo2 : 173,255,95
Combo3 : 255,88,100
Combo4 : 255,94,55

[HitObjects]
512,382,3018,6,0,P|509:337|456:314,1,100.799996923828,4|0,1:2|1:1,0:0:0:0:
369,371,3778,1,0,1:1:0:0:
344,262,4158,1,0,1:1:0:0:
238,296,4537,2,0,P|242:321|247:350,2,50.3999984619141,0|0|0,1:1|0:0|1:1,0:0:0:0:
221,190,5297,1,0,1:1:0:0:
221,190,5487,2,0,P|196:194|171:198,1,50.3999984619141,0|0,0:0|1:1,0:0:0:0:
88,272,6056,6,0,P|55:264|37:199,1,100.799996923828,0|0,1:1|1:1,0:0:0:0:
5,164,6626,1,0,0:0:0:0:
5,164,6816,2,0,P|12:131|77:113,1,100.799996923828,0|0,1:1|1:1,0:0:0:0:
163,51,7575,2,0,P|158:25|153:-4,2,50.3999984619141,0|0|0,1:1|0:0|1:1,0:0:0:0:
250,119,8335,2,0,B|296:127|284:160|334:170,1,100.799996923828,0|0,1:1|1:1,0:0:0:0:
412,91,9094,6,0,P|461:103|480:150,1,100.799996923828,4|8,1:2|1:1,0:0:0:0:
505,201,9664,1,0,0:0:0:0:
505,201,9854,2,0,P|500:225|496:250,1,50.3999984619141,0|2,1:1|2:2,0:0:0:0:
468,298,10234,1,8,1:1:0:0:
382,368,10613,6,0,P|332:358|282:350,1,100.799996923828,4|8,1:2|1:1,0:0:0:0:
250,311,11183,1,0,0:0:0:0:
250,311,11373,2,0,P|245:286|241:261,1,50.3999984619141,0|2,1:1|2:2,0:0:0:0:
271,214,11753,1,8,1:1:0:0:
240,107,12132,6,0,P|244:82|248:57,1,50.3999984619141,4|0,1:2|1:1,0:0:0:0:
208,17,12512,2,0,P|183:12|158:8,1,50.3999984619141,8|0,1:1|1:1,0:0:0:0:
109,34,12892,2,0,P|84:38|59:42,1,50.3999984619141,4|0,1:2|1:1,0:0:0:0:
22,83,13272,2,0,P|26:107|30:132,1,50.3999984619141,8|0,1:1|1:1,0:0:0:0:
36,187,13651,5,0,1:1:0:0:
65,350,14221,1,0,1:1:0:0:
227,312,14791,2,0,P|251:316|276:320,1,50.3999984619141,0|0,1:1|1:1,0:0:0:0:
330,350,15170,6,0,P|356:348|387:339,1,56,0|2,1:1|2:2,0:0:0:0:
436,374,15550,2,0,P|488:365|503:312,1,112,8|0,1:1|1:1,0:0:0:0:
463,273,16120,1,2,2:3:0:0:
463,273,16310,1,8,1:1:0:0:
509,159,16689,2,0,P|503:134|500:101,1,56,0|0,1:1|0:0,0:0:0:0:
486,43,17069,1,8,1:1:0:0:
363,57,17449,2,0,P|368:33|372:-1,2,56,0|0|0,1:1|1:1|1:1,0:0:0:0:
250,107,18208,6,0,B|218:97|218:97|210:79|210:79|173:71,2,84,4|4|4,1:2|1:2|1:2,0:0:0:0:
316,171,19063,2,0,B|346:177|346:177|354:195|354:195|386:205,1,84,4|4,1:2|1:2,0:0:0:0:
443,240,19537,1,0,1:1:0:0:
443,240,19727,1,4,2:3:0:0:
222,350,20487,2,0,B|81:370|159:304|2:323,1,224,2|0,2:3|1:1,0:0:0:0:
8,199,21626,6,0,P|7:168|-1:140,1,56,8|0,1:1|0:0,0:0:0:0:
44,100,22006,2,0,P|72:55|130:50,1,112,0|8,1:1|1:1,0:0:0:0:
249,59,22765,2,0,P|255:31|258:0,2,56,0|0|8,1:1|0:0|1:1,0:0:0:0:
273,180,23525,2,0,P|279:208|281:235,1,56,0|0,1:1|1:1,0:0:0:0:
244,286,23905,1,0,1:1:0:0:
244,286,24094,1,0,1:1:0:0:
244,286,24284,1,4,1:2:0:0:
445,363,25803,6,0,B|479:340|479:340|529:349,2,84,4|4|4,1:2|1:2|1:2,0:0:0:0:
367,312,26658,2,0,B|344:278|344:278|351:235,1,84,6|0,2:2|1:1,0:0:0:0:
465,189,27322,6,0,P|468:163|474:130,1,56,0|2,1:1|2:2,0:0:0:0:
438,82,27702,2,0,P|410:30|353:28,1,112,8|0,1:1|1:1,0:0:0:0:
316,66,28272,1,2,2:3:0:0:
316,66,28462,1,8,1:1:0:0:
194,50,28841,6,0,P|166:48|135:41,1,56,0|0,1:1|0:0,0:0:0:0:
77,31,29221,1,8,1:1:0:0:
54,152,29601,2,0,P|26:156|-5:161,2,56,0|0|8,1:1|0:0|1:1,0:0:0:0:
175,174,30360,6,0,P|231:182|261:227,1,112,0|8,1:1|1:1,0:0:0:0:
315,264,30930,1,0,0:0:0:0:
315,264,31120,1,0,1:1:0:0:
232,355,31500,2,0,P|204:359|173:364,1,56,8|2,1:1|2:3,0:0:0:0:
127,326,31879,2,0,P|131:298|136:267,2,56,0|2|8,1:1|2:3|1:1,0:0:0:0:
10,283,32639,2,0,P|8:256|1:224,1,56,0|0,1:1|1:1,0:0:0:0:
31,173,33018,1,0,1:1:0:0:
15,50,33398,6,0,P|43:46|74:41,1,56,4|0,1:2|1:1,0:0:0:0:
112,86,33778,2,0,P|140:90|171:95,1,56,8|0,1:1|1:1,0:0:0:0:
223,68,34158,2,0,P|251:64|282:59,1,56,0|0,1:1|0:0,0:0:0:0:
328,96,34537,1,8,2:1:0:0:
256,196,34917,2,0,P|252:224|247:255,1,56,4|0,1:2|1:1,0:0:0:0:
201,292,35297,2,0,P|205:319|209:347,1,56,8|0,1:1|1:1,0:0:0:0:
265,373,35677,2,0,P|292:368|320:364,1,56,0|0,1:1|0:0,0:0:0:0:
366,322,36056,1,8,2:1:0:0:
488,310,36436,6,0,P|492:337|496:365,2,56,4|0|8,1:2|1:1|1:1,0:0:0:0:
454,264,37006,1,0,1:1:0:0:
454,264,37196,2,0,P|458:236|462:208,1,56,4|0,1:2|1:1,0:0:0:0:
504,163,37575,2,0,P|500:135|495:107,1,56,8|0,1:1|1:1,0:0:0:0:
452,63,37955,2,0,P|455:35|460:7,2,56,2|2|8,1:2|1:2|1:1,0:0:0:0:
344,116,38715,1,10,2:2:0:0:
344,116,38905,1,0,0:0:0:0:
344,116,39094,2,0,P|308:108|294:86,1,56,2|2,2:3|2:3,0:0:0:0:
298,32,39474,5,4,2:2:0:0:
59,348,51626,5,6,2:2:0:0:
154,290,52006,2,0,P|254:296|354:312,1,201.599993847656,8|8,2:1|2:1,0:0:0:0:
430,231,53145,1,2,2:2:0:0:
341,164,53525,2,0,P|316:167|290:169,1,50.3999984619141,8|0,2:1|0:0,0:0:0:0:
255,211,53905,2,0,P|193:188|192:143,1,100.799996923828,2|8,2:2|2:1,0:0:0:0:
150,55,54664,6,0,P|83:69|71:100,1,100.799996923828,2|8,2:2|2:1,0:0:0:0:
31,132,55234,2,0,P|38:181|42:232,1,100.799996923828,2|2,2:2|2:2,0:0:0:0:
14,280,55803,1,8,2:1:0:0:
82,366,56183,2,0,P|107:364|132:360,1,50.3999984619141,2|0,2:2|0:0,0:0:0:0:
186,348,56563,1,8,2:1:0:0:
266,271,56943,2,0,P|264:245|260:220,1,50.3999984619141,2|0,2:2|0:0,0:0:0:0:
246,166,57323,1,8,2:1:0:0:
239,55,57702,6,0,P|263:51|289:49,1,50.3999984619141,0|0,1:1|1:1,0:0:0:0:
340,26,58082,2,0,P|360:40|379:57,1,50.3999984619141,8|0,2:1|1:1,0:0:0:0:
429,82,58462,2,0,P|432:106|434:132,1,50.3999984619141,0|2,1:1|2:3,0:0:0:0:
464,178,58841,1,8,1:2:0:0:
468,288,59221,6,0,P|443:291|417:293,1,50.3999984619141,0|0,1:1|1:1,0:0:0:0:
372,324,59601,2,0,P|351:309|332:292,1,50.3999984619141,8|0,2:1|1:1,0:0:0:0:
279,276,59981,2,0,P|275:251|273:225,1,50.3999984619141,2|2,1:3|2:3,0:0:0:0:
231,189,60360,1,0,1:1:0:0:
250,79,60740,6,0,P|220:70|200:64,1,50.3999984619141,2|0,1:3|0:0,0:0:0:0:
163,24,61120,2,0,P|113:36|91:90,1,100.799996923828,8|2,1:1|1:3,0:0:0:0:
57,121,61689,1,0,0:0:0:0:
57,121,61879,2,0,P|66:151|72:171,1,50.3999984619141,8|0,1:1|1:1,0:0:0:0:
52,221,62259,1,2,2:2:0:0:
206,379,63018,2,0,B|259:365|250:339|292:330,1,100.799996923828,0|2,1:1|1:3,0:0:0:0:
415,337,63778,6,0,B|450:292|450:292|425:235,1,112,4|8,1:1|1:1,0:0:0:0:
374,222,64348,1,2,1:3:0:0:
374,222,64537,2,0,P|346:228|315:233,1,56,0|0,1:1|0:0,0:0:0:0:
259,214,64917,2,0,P|264:186|269:155,1,56,8|2,1:1|2:3,0:0:0:0:
228,111,65297,2,0,P|253:64|314:66,1,112,0|8,1:1|1:1,0:0:0:0:
430,62,66056,2,0,P|435:34|440:3,2,56,0|0|8,1:1|0:0|1:1,0:0:0:0:
476,176,66816,6,0,P|486:232|496:294,1,112,0|8,1:1|1:1,0:0:0:0:
450,329,67386,1,0,1:1:0:0:
450,329,67575,2,0,P|455:357|460:388,2,56,0|0|8,1:1|1:1|1:1,0:0:0:0:
402,289,68145,1,2,2:3:0:0:
355,328,68335,2,0,B|292:336|312:364|255:373,1,112,0|8,1:1|1:1,0:0:0:0:
237,250,69094,2,0,B|258:173|258:173|247:142,1,112,0|8,1:1|1:1,0:0:0:0:
198,24,69854,6,0,P|168:29|143:32,1,56,0|2,1:1|2:3,0:0:0:0:
83,13,70234,2,0,P|31:33|21:92,1,112,8|0,1:1|1:1,0:0:0:0:
57,137,70803,1,2,2:3:0:0:
25,189,70993,2,0,P|30:219|33:244,1,56,8|2,1:1|2:3,0:0:0:0:
36,306,71373,1,0,1:1:0:0:
144,364,71753,1,8,1:1:0:0:
220,267,72132,2,0,P|227:216|230:202,2,56,0|0|8,1:1|0:0|1:1,0:0:0:0:
253,318,72702,1,2,2:3:0:0:
309,293,72892,6,0,P|370:284|390:237,1,112,0|8,1:1|1:1,0:0:0:0:
357,196,73462,1,2,2:3:0:0:
357,196,73651,2,0,P|351:140|341:85,1,112,0|8,1:1|1:1,0:0:0:0:
456,40,74411,2,0,P|459:67|464:95,1,56,0|2,1:1|2:3,0:0:0:0:
479,155,74791,1,8,1:1:0:0:
487,277,75170,2,0,P|483:304|478:332,1,56,0|0,1:1|0:0,0:0:0:0:
427,368,75550,1,8,1:1:0:0:
387,251,75930,6,0,B|337:235|337:235|286:271,1,112,4|8,1:1|1:0,0:0:0:0:
260,326,76500,1,2,1:3:0:0:
260,326,76689,2,0,P|232:320|201:315,1,56,0|0,1:1|0:0,0:0:0:0:
153,280,77069,2,0,P|125:285|94:290,1,56,8|2,1:1|2:3,0:0:0:0:
58,337,77449,2,0,P|11:312|13:251,1,112,0|8,1:1|1:1,0:0:0:0:
53,143,78208,2,0,P|48:115|43:84,2,56,0|0|8,1:1|0:0|1:1,0:0:0:0:
160,204,78968,6,0,P|216:194|278:184,1,112,0|8,1:1|1:1,0:0:0:0:
302,244,79538,1,0,1:1:0:0:
302,244,79727,2,0,P|297:272|292:303,2,56,0|0|8,1:1|1:1|1:1,0:0:0:0:
353,209,80297,1,2,2:3:0:0:
403,244,80487,2,0,B|460:253|445:288|501:296,1,112,0|8,1:1|1:1,0:0:0:0:
505,172,81246,2,0,B|516:141|516:141|495:64,1,112,0|8,1:1|1:1,0:0:0:0:
378,24,82006,6,0,P|348:29|323:32,1,56,0|2,1:1|2:3,0:0:0:0:
276,73,82386,1,8,1:1:0:0:
341,177,82765,2,0,P|346:207|349:232,1,56,0|2,1:1|2:3,0:0:0:0:
397,271,83145,2,0,P|402:301|405:326,1,56,8|0,1:1|1:1,0:0:0:0:
362,371,83525,1,0,1:1:0:0:
254,310,83905,1,8,1:1:0:0:
134,337,84284,2,0,P|137:309|142:281,2,56,0|0|8,1:1|0:0|1:1,0:0:0:0:
15,374,85044,6,0,P|11:346|6:318,1,56,4|0,1:2|1:1,0:0:0:0:
44,270,85424,2,0,P|40:242|35:214,1,56,0|2,1:1|1:3,0:0:0:0:
13,156,85803,2,0,P|9:128|4:100,1,56,4|2,1:2|1:3,0:0:0:0:
37,48,86183,1,0,1:1:0:0:
159,32,86563,2,0,P|162:59|167:87,1,56,4|0,1:2|1:1,0:0:0:0:
129,136,86943,1,0,1:1:0:0:
182,246,87322,2,0,B|195:275|195:275|180:332,2,84,4|4|2,1:2|1:2|1:3,0:0:0:0:
225,193,88082,6,0,P|261:185|287:180,1,61.6000018798829,4|0,1:1|0:0,0:0:0:0:
322,123,88462,2,0,P|342:62|407:60,1,123.200003759766,8|0,1:1|1:1,0:0:0:0:
450,92,89031,1,0,0:0:0:0:
418,151,89221,2,0,P|423:181|430:211,1,61.6000018798829,8|2,1:1|2:3,0:0:0:0:
477,260,89601,2,0,P|456:302|450:332,1,61.6000018798829,0|0,1:1|0:0,0:0:0:0:
476,379,89981,1,8,1:1:0:0:
352,324,90360,2,0,P|345:354|339:384,2,61.6000018798829,0|0|8,1:1|0:0|1:1,0:0:0:0:
314,267,90930,5,2,2:3:0:0:
257,304,91120,2,0,P|199:305|126:324,1,123.200003759766,0|8,1:1|1:1,0:0:0:0:
119,259,91689,1,0,1:1:0:0:
119,259,91879,2,0,P|123:222|147:205,1,61.6000018798829,0|0,1:1|0:0,0:0:0:0:
207,196,92259,1,8,1:1:0:0:
333,147,92639,2,0,P|316:83|261:77,1,123.200003759766,0|8,1:1|1:1,0:0:0:0:
147,9,93398,2,0,P|116:15|86:21,1,61.6000018798829,0|0,1:1|0:0,0:0:0:0:
20,37,93778,1,8,1:1:0:0:
15,172,94158,6,0,P|26:233|32:295,1,123.200003759766,0|8,1:1|1:1,0:0:0:0:
86,333,94727,2,0,P|116:327|147:324,1,61.6000018798829,2|0,2:3|1:1,0:0:0:0:
184,267,95107,2,0,P|178:236|175:205,2,61.6000018798829,2|8|2,2:3|1:1|2:3,0:0:0:0:
240,305,95677,1,0,1:1:0:0:
357,237,96056,1,8,1:1:0:0:
483,289,96436,2,0,P|486:257|490:227,1,61.6000018798829,0|0,1:1|0:0,0:0:0:0:
506,168,96816,5,8,1:1:0:0:
506,168,97006,1,2,2:3:0:0:
506,168,97196,2,0,P|484:100|426:92,1,123.200003759766,0|8,1:1|1:1,0:0:0:0:
376,112,97765,1,2,2:3:0:0:
319,74,97955,2,0,P|316:42|312:12,2,61.6000018798829,0|2|8,1:1|2:3|1:1,0:0:0:0:
243,186,98715,2,0,P|247:216|249:247,1,61.6000018798829,4|0,1:2|1:1,0:0:0:0:
308,278,99094,2,0,P|303:308|301:339,1,61.6000018798829,0|0,1:1|1:1,0:0:0:0:
240,370,99474,2,0,P|209:365|178:363,1,61.6000018798829,4|0,1:2|1:1,0:0:0:0:
133,312,99854,2,0,P|76:322|44:378,1,123.200003759766,0|0,1:1|1:1,0:0:0:0:
4,245,100613,6,0,P|8:214|10:183,1,61.6000018798829,12|2,1:1|1:3,0:0:0:0:
60,137,100993,2,0,P|68:75|73:14,1,123.200003759766,0|8,1:1|1:1,0:0:0:0:
208,4,101753,2,0,P|238:8|269:10,1,61.6000018798829,0|0,1:1|0:0,0:0:0:0:
312,63,102133,1,8,1:1:0:0:
203,144,102512,2,0,P|205:174|209:205,1,61.6000018798829,0|2,1:1|2:3,0:0:0:0:
262,246,102892,2,0,P|257:276|255:307,1,61.6000018798829,8|2,1:1|2:3,0:0:0:0:
283,368,103272,6,0,P|337:366|364:304,1,123.200003759766,0|8,1:1|1:1,0:0:0:0:
425,275,103841,1,0,1:1:0:0:
425,275,104031,2,0,P|455:277|486:281,2,61.6000018798829,0|0|8,1:1|1:1|1:1,0:0:0:0:
385,219,104601,1,2,2:3:0:0:
430,168,104791,2,0,P|439:107|444:46,1,123.200003759766,0|8,1:1|1:1,0:0:0:0:
315,88,105550,2,0,B|292:58|292:58|304:-5,2,92.4000028198243,4|4|4,1:2|1:2|1:2,0:0:0:0:
274,142,106310,6,0,P|278:172|281:203,1,61.6000018798829,4|0,1:2|1:1,0:0:0:0:
313,262,106689,2,0,P|309:292|306:323,1,61.6000018798829,0|0,1:1|1:1,0:0:0:0:
254,367,107069,2,0,P|224:363|193:360,1,61.6000018798829,0|0,1:1|1:1,0:0:0:0:
139,317,107449,1,2,1:3:0:0:
13,368,107829,6,0,P|10:337|6:307,1,61.6000018798829,4|2,1:2|1:3,0:0:0:0:
52,257,108208,2,0,P|49:226|45:196,1,61.6000018798829,0|0,1:1|1:1,0:0:0:0:
9,144,108588,1,0,1:1:0:0:
9,144,108778,1,0,0:0:0:0:
26,78,108968,1,8,1:1:0:0:
160,60,109348,6,0,P|157:29|153:-1,2,61.6000018798829,4|0|0,1:2|1:1|1:1,0:0:0:0:
213,110,109917,1,2,1:3:0:0:
213,110,110107,2,0,P|244:107|274:103,1,61.6000018798829,4|2,1:2|1:3,0:0:0:0:
312,159,110487,2,0,P|309:190|305:220,1,61.6000018798829,0|0,1:1|1:1,0:0:0:0:
247,243,110867,5,2,2:3:0:0:
265,364,111246,1,2,2:3:0:0:
380,319,111626,2,0,P|383:346|386:374,2,56,0|2|2,1:1|2:3|2:3,0:0:0:0:
506,369,112386,1,4,1:1:0:0:
