osu file format v14

[General]
AudioFilename: audio.mp3
AudioLeadIn: 0
PreviewTime: 63296
Countdown: 0
SampleSet: Soft
StackLeniency: 0.7
Mode: 0
LetterboxInBreaks: 0
WidescreenStoryboard: 0

[Editor]
Bookmarks: 9087,15153,39457,51609,63761,88065,112369
DistanceSpacing: 1
BeatDivisor: 8
GridSize: 4
TimelineZoom: 3.199999

[Metadata]
Title:Violet Soul
TitleUnicode:Violet Soul
Artist:Soleily
ArtistUnicode:Soleily
Creator:Ascended
Version:GRAVITY
Source:SOUND VOLTEX III GRAVITY WARS
Tags:soliely sdvx3 soundvoltex3 instrumental electronic trance The First VOLTEX Character Theme Song Contest stwi frostwich synderes zhuxiaoyan Flask
BeatmapID:3952829
BeatmapSetID:1915988

[Difficulty]
HPDrainRate:5
CircleSize:4
OverallDifficulty:8
ApproachRate:8.5
SliderMultiplier:1.52
SliderTickRate:1

[Events]
//Background and Video events
0,0,"purple].jpg",0,0
//Break Periods
2,45750,50951
//Storyboard Layer 0 (Background)
//Storyboard Layer 1 (Fail)
//Storyboard Layer 2 (Pass)
//Storyboard Layer 3 (Foreground)
//Storyboard Layer 4 (Overlay)
//Storyboard Sound Samples

[TimingPoints]
1500,379.746835443038,4,2,1,40,1,0
1689,-133.333333333333,4,2,1,40,0,0
3018,-83.3333333333333,4,2,1,50,0,0
9094,-83.3333333333333,4,2,1,55,0,0
15170,-83.3333333333333,4,2,1,60,0,0
20867,-66.6666666666667,4,2,1,60,0,0
21721,-83.3333333333333,4,2,1,60,0,0
39474,-83.3333333333333,4,2,1,55,0,0
39521,-83.3333333333333,4,2,1,5,0,0
39569,-83.3333333333333,4,2,1,55,0,0
51626,-100,4,2,1,60,0,0
51673,-100,4,2,1,5,0,0
52006,-133.333333333333,4,2,1,60,0,0
53145,-105.263157894737,4,2,1,60,0,0
54712,-133.333333333333,4,2,1,60,0,0
58651,-76.9230769230769,4,2,1,60,0,0
63778,-66.6666666666667,4,2,1,70,0,1
63825,-66.6666666666667,4,2,1,70,0,0
68715,-76.9230769230769,4,2,1,70,0,0
70234,-66.6666666666667,4,2,1,70,0,0
88082,-60.6060606060606,4,2,1,80,0,1
100234,-133.333333333333,4,2,1,80,0,0
100565,-133.333333333333,4,2,1,5,0,0
100613,-60.6060606060606,4,2,1,80,0,1
110867,-83.3333333333333,4,2,1,80,0,1
112386,-83.3333333333333,4,2,1,60,0,0
118082,-83.3333333333333,4,2,1,5,0,0

[Colours]
Combo1 : 17,254,176
Combo2 : 173,255,95
Combo3 : 255,88,100
Combo4 : 255,94,55

[HitObjects]
237,0,1500,5,6,2:2:0:0:
237,0,1594,1,2,2:2:0:0:
237,0,1689,2,0,P|230:34|232:68,1,57.0000021743775,2|2,2:2|2:3,2:0:0:0:
270,180,2069,5,2,2:2:0:0:
270,180,2164,1,2,2:2:0:0:
270,180,2259,1,2,2:3:0:0:
300,101,2449,1,2,2:2:0:0:
229,255,2639,5,0,1:1:0:0:
248,289,2734,1,0,1:1:0:0:
238,321,2829,1,0,1:1:0:0:
254,346,2924,1,0,1:1:0:0:
233,382,3018,6,0,P|176:361|137:353,2,91.199997216797,4|0|0,1:2|2:0|1:1,2:0:0:0:
358,341,3588,1,0,2:0:0:0:
358,341,3683,1,0,2:0:0:0:
358,341,3778,2,0,P|343:291|339:252,1,91.199997216797,0|0,1:1|2:0,2:0:0:0:
193,140,4158,2,0,P|140:148|117:223,1,136.799995825195,0|0,1:1|2:0,2:0:0:0:
59,292,4537,6,0,P|20:277|16:219,2,91.199997216797,0|0|0,1:1|2:0|1:1,2:0:0:0:
204,240,5107,2,0,P|221:234|254:227,1,45.5999986083985,0|0,2:0|2:0,2:0:0:0:
308,148,5297,1,0,1:1:0:0:
318,162,5392,2,0,P|350:176|412:186,1,91.199997216797,0|0,2:0|2:0,2:0:0:0:
480,222,5677,1,0,1:1:0:0:
392,97,5867,5,0,2:0:0:0:
392,97,5962,1,0,2:0:0:0:
392,97,6056,2,0,P|396:54|408:5,2,91.199997216797,0|0|0,1:1|2:0|1:1,2:0:0:0:
270,36,6626,1,0,2:0:0:0:
270,36,6721,1,0,2:0:0:0:
270,36,6816,2,0,P|222:55|182:61,1,91.199997216797,0|0,1:1|2:0,2:0:0:0:
57,208,7196,2,0,P|10:193|12:111,1,136.799995825195,0|0,1:1|2:0,2:0:0:0:
89,39,7575,6,0,P|98:83|117:133,2,91.199997216797,0|0|0,1:1|2:0|1:1,2:0:0:0:
225,173,8145,1,0,2:0:0:0:
225,173,8240,1,0,2:0:0:0:
225,173,8335,2,0,B|312:192|290:232|383:262,1,182.399994433594,0|0,1:1|1:1,2:0:0:0:
461,231,8905,1,0,2:0:0:0:
320,342,9094,5,4,1:2:0:0:
320,342,9189,1,2,2:2:0:0:
320,342,9284,1,0,2:0:0:0:
238,291,9474,1,8,1:1:0:0:
238,291,9569,2,0,P|197:286|146:287,1,91.199997216797,2|2,2:2|2:2,2:0:0:0:
147,286,9854,1,0,1:1:0:0:
49,384,10044,6,0,P|64:363|70:336,1,45.5999986083985,2|2,2:2|2:3,2:0:0:0:
26,267,10234,1,8,1:1:0:0:
27,239,10329,1,2,2:2:0:0:
28,209,10424,1,2,2:2:0:0:
26,177,10519,1,2,2:2:0:0:
23,148,10613,1,4,1:2:0:0:
154,67,10803,6,0,P|131:67|108:64,1,45.5999986083985,2|0,2:2|2:0,2:0:0:0:
138,189,10993,1,8,1:1:0:0:
138,189,11088,2,0,P|158:174|185:169,1,45.5999986083985,2|0,2:2|2:0,2:0:0:0:
279,138,11278,1,2,2:2:0:0:
279,138,11373,1,0,1:1:0:0:
276,115,11468,1,8,1:1:0:0:
274,92,11562,1,2,2:2:0:0:
272,69,11657,1,2,2:2:0:0:
272,46,11753,2,0,P|269:21|265:0,1,45.5999986083985,8|0,1:1|2:0,2:0:0:0:
250,227,11943,5,2,2:2:0:0:
250,227,12037,1,2,2:2:0:0:
250,227,12132,1,4,1:2:0:0:
278,227,12226,1,0,1:1:0:0:
302,241,12321,1,0,1:1:0:0:
317,265,12416,1,0,1:1:0:0:
317,298,12512,2,0,P|310:328|308:345,3,45.5999986083985,8|0|0|0,1:1|1:1|1:1|1:1,2:0:0:0:
233,369,12892,5,4,1:2:0:0:
211,348,12986,1,0,1:1:0:0:
184,336,13081,1,0,1:1:0:0:
154,334,13176,1,0,1:1:0:0:
125,340,13271,1,8,1:1:0:0:
85,311,13367,1,0,1:1:0:0:
100,264,13462,6,0,L|103:238,2,22.7999993041992,0|0|0,1:1|1:1|1:1,2:0:0:0:
66,290,13651,5,0,1:1:0:0:
66,290,13746,1,2,1:3:0:0:
192,241,13936,1,2,1:3:0:0:
116,53,14126,1,0,1:1:0:0:
116,53,14221,1,0,1:1:0:0:
128,84,14316,1,2,1:3:0:0:
280,16,14506,5,2,3:2:0:0:
280,16,14601,1,2,2:2:0:0:
280,16,14696,1,2,2:2:0:0:
280,16,14791,1,0,1:1:0:0:
274,38,14886,1,2,2:3:0:0:
268,60,14980,1,0,1:1:0:0:
263,82,15075,1,2,2:3:0:0:
258,104,15170,5,0,1:1:0:0:
337,259,15360,1,2,2:2:0:0:
473,202,15550,1,8,1:1:0:0:
473,202,15645,2,0,P|446:192|382:176,1,91.199997216797,2|2,2:3|2:3,2:0:0:0:
299,183,15930,5,0,1:1:0:0:
276,194,16025,1,2,2:2:0:0:
250,191,16120,1,2,2:3:0:0:
223,277,16310,1,8,1:1:0:0:
161,213,16500,1,2,2:3:0:0:
97,356,16689,5,0,1:1:0:0:
116,347,16784,2,0,P|125:318|129:292,1,45.5999986083985,2|0,2:3|2:0,2:0:0:0:
0,218,16974,5,2,2:3:0:0:
20,230,17069,2,0,P|57:219|78:163,1,91.199997216797,8|0,1:1|2:0,2:0:0:0:
231,285,17449,5,0,1:1:0:0:
231,285,17545,1,2,2:3:0:0:
231,285,17639,1,0,1:1:0:0:
275,293,17734,1,2,2:3:0:0:
313,317,17829,6,0,L|317:349,2,22.7999993041992,0|0|0,1:1|1:1|1:1,2:0:0:0:
361,297,18018,1,0,1:1:0:0:
361,297,18113,1,0,1:1:0:0:
352,256,18208,5,4,1:2:0:0:
464,353,18398,1,0,1:1:0:0:
427,362,18493,1,4,1:2:0:0:
248,106,18778,5,4,1:2:0:0:
259,67,18873,1,0,1:1:0:0:
272,28,18968,1,0,1:1:0:0:
272,28,19063,1,4,1:2:0:0:
175,165,19253,1,0,1:1:0:0:
175,165,19348,1,4,1:2:0:0:
272,293,19537,1,0,1:1:0:0:
295,271,19632,1,0,1:1:0:0:
278,238,19727,6,0,B|159:256|209:334|87:355,1,227.999993041992,4|0,2:3|2:0,2:0:0:0:
90,354,20297,1,0,1:1:0:0:
40,248,20487,6,0,B|50:236|50:236|48:218,1,30.3999990722657,2|0,2:3|2:0,2:0:0:0:
40,248,20613,6,0,B|24:245|24:245|10:256,1,30.3999990722657,2|0,2:3|2:0,2:0:0:0:
40,248,20740,6,0,B|45:262|45:262|61:269,1,30.3999990722657,2|0,2:3|2:0,2:0:0:0:
40,248,20867,6,0,B|33:229|33:229|12:220,1,38.000001449585,2|0,2:3|2:0,2:0:0:0:
40,248,20993,6,0,B|27:263|27:263|29:285,1,38.000001449585,2|0,2:3|2:0,2:0:0:0:
40,248,21120,6,0,B|59:251|59:251|77:237,1,38.000001449585,2|0,2:3|2:0,2:0:0:0:
0,368,21246,5,0,1:1:0:0:
166,239,21436,1,2,2:2:0:0:
239,283,21626,1,8,1:1:0:0:
239,283,21721,2,0,P|235:321|239:374,1,91.199997216797,2|2,2:3|2:3,2:0:0:0:
321,327,22006,5,0,1:1:0:0:
344,338,22101,1,2,2:2:0:0:
370,335,22196,1,2,2:3:0:0:
447,288,22386,1,8,1:1:0:0:
454,368,22576,1,2,2:3:0:0:
347,244,22765,5,0,1:1:0:0:
365,231,22860,2,0,P|367:202|363:173,1,45.5999986083985,2|0,2:3|2:0,2:0:0:0:
200,132,23050,5,2,2:3:0:0:
221,120,23145,2,0,P|264:126|279:177,1,91.199997216797,8|0,1:1|2:0,2:0:0:0:
176,231,23525,5,0,1:1:0:0:
176,231,23620,1,2,2:3:0:0:
176,231,23715,1,0,1:1:0:0:
143,221,23809,1,0,1:1:0:0:
111,217,23905,2,0,L|85:210,2,22.7999993041992,0|0|0,1:1|1:1|1:1,2:0:0:0:
59,247,24094,5,0,1:1:0:0:
31,224,24189,1,0,1:1:0:0:
1,232,24284,1,4,1:2:0:0:
511,152,25803,5,4,1:2:0:0:
499,154,25898,1,2,2:3:0:0:
488,156,25992,1,2,2:2:0:0:
462,178,26088,1,4,1:2:0:0:
432,150,26183,1,2,2:3:0:0:
405,163,26278,2,0,P|378:166|356:176,1,45.5999986083985,2|4,2:2|1:2,2:0:0:0:
267,251,26468,2,0,P|274:235|279:207,1,45.5999986083985,2|0,2:3|2:0,2:0:0:0:
226,61,26658,5,6,2:2:0:0:
224,49,26752,1,2,2:2:0:0:
222,38,26847,1,2,2:2:0:0:
239,15,26943,1,0,1:1:0:0:
254,41,27038,1,2,2:3:0:0:
223,86,27132,1,0,1:1:0:0:
240,131,27227,1,0,1:1:0:0:
196,171,27322,5,0,1:1:0:0:
16,99,27512,1,2,2:2:0:0:
95,45,27702,1,8,1:1:0:0:
95,45,27797,2,0,P|106:98|111:139,1,91.199997216797,2|2,2:3|2:3,2:0:0:0:
17,257,28082,5,0,1:1:0:0:
2,214,28177,1,2,2:2:0:0:
32,186,28272,1,2,2:3:0:0:
110,233,28462,1,8,1:1:0:0:
0,342,28651,1,2,2:3:0:0:
186,283,28841,5,0,1:1:0:0:
200,292,28936,2,0,P|222:286|244:272,1,45.5999986083985,2|0,2:3|2:0,2:0:0:0:
271,155,29126,5,2,2:3:0:0:
258,150,29221,2,0,P|210:153|193:196,1,91.199997216797,8|0,1:1|2:0,2:0:0:0:
308,351,29601,5,0,1:1:0:0:
308,351,29696,2,0,P|331:301|328:253,1,91.199997216797,8|0,1:1|1:1,2:0:0:0:
415,312,29981,1,8,1:1:0:0:
443,199,30170,5,0,1:1:0:0:
443,199,30265,1,2,2:3:0:0:
443,199,30360,2,0,P|441:176|431:156,1,45.5999986083985,0|0,1:1|2:0,2:0:0:0:
288,56,30550,1,2,2:3:0:0:
298,74,30645,2,0,P|321:87|349:89,1,45.5999986083985,2|8,2:3|1:1,2:0:0:0:
489,36,30835,5,2,2:3:0:0:
489,36,30930,2,0,P|436:39|423:86,1,91.199997216797,2|0,2:3|1:1,2:0:0:0:
347,171,31215,2,0,P|297:184|256:205,1,91.199997216797,8|0,1:1|1:1,2:0:0:0:
179,289,31500,1,8,1:1:0:0:
145,289,31594,1,0,1:1:0:0:
116,272,31689,1,2,2:3:0:0:
100,242,31784,1,2,2:3:0:0:
102,208,31879,5,0,1:1:0:0:
102,208,31974,1,2,2:3:0:0:
216,112,32164,1,2,2:3:0:0:
216,112,32259,2,0,P|200:63|198:19,1,91.199997216797,8|0,1:1|2:0,2:0:0:0:
24,1,32639,5,0,1:1:0:0:
24,1,32829,1,0,1:1:0:0:
110,52,33018,1,0,1:1:0:0:
102,68,33112,1,2,2:3:0:0:
97,86,33207,1,0,1:1:0:0:
96,105,33302,1,2,2:3:0:0:
97,123,33398,5,4,1:2:0:0:
83,121,33492,1,0,1:1:0:0:
70,122,33587,1,0,1:1:0:0:
58,126,33682,1,0,1:1:0:0:
46,132,33777,1,8,1:1:0:0:
36,140,33872,1,0,1:1:0:0:
27,150,33967,1,0,1:1:0:0:
21,161,34062,1,0,1:1:0:0:
16,173,34157,1,0,1:1:0:0:
25,182,34253,2,0,P|34:212|38:237,1,45.5999986083985,8|0,1:1|2:0,2:0:0:0:
92,349,34443,1,0,1:1:0:0:
89,335,34537,2,0,P|98:305|102:280,1,45.5999986083985,8|0,2:1|2:0,2:0:0:0:
9,312,34727,1,2,1:3:0:0:
189,339,34917,5,4,1:2:0:0:
204,336,35011,1,0,1:1:0:0:
218,333,35106,1,0,1:1:0:0:
233,329,35201,1,0,1:1:0:0:
247,324,35296,1,8,1:1:0:0:
261,318,35391,1,0,1:1:0:0:
275,311,35486,1,0,1:1:0:0:
288,304,35581,1,0,1:1:0:0:
301,296,35676,1,0,1:1:0:0:
310,305,35772,2,0,P|336:308|356:316,1,45.5999986083985,8|0,1:1|2:0,2:0:0:0:
496,228,35962,1,0,1:1:0:0:
477,242,36056,2,0,P|444:250|425:253,1,45.5999986083985,8|0,2:1|2:0,2:0:0:0:
512,330,36246,1,2,1:3:0:0:
356,205,36436,6,0,P|314:186|314:132,1,91.199997216797,4|0,1:2|1:1,2:0:0:0:
272,59,36721,2,0,P|277:37|284:15,1,45.5999986083985,2|8,2:3|1:1,2:0:0:0:
451,82,36911,1,2,2:3:0:0:
441,102,37006,2,0,P|416:113|381:120,1,45.5999986083985,0|0,1:1|2:0,2:0:0:0:
214,180,37196,6,0,P|160:170|121:147,1,91.199997216797,4|0,1:2|1:1,2:0:0:0:
18,235,37481,2,0,P|46:215|50:194,1,45.5999986083985,2|8,2:3|1:1,2:0:0:0:
44,54,37670,1,2,2:3:0:0:
31,77,37765,2,0,P|41:105|47:133,1,45.5999986083985,0|0,1:1|2:0,2:0:0:0:
138,32,37955,5,2,1:2:0:0:
166,27,38049,1,2,1:2:0:0:
194,22,38144,1,2,1:2:0:0:
221,15,38239,1,2,1:2:0:0:
249,8,38335,2,0,P|243:36|238:60,1,45.5999986083985,8|2,1:1|2:3,2:0:0:0:
270,91,38525,5,2,2:2:0:0:
264,113,38620,1,2,2:2:0:0:
277,121,38715,2,0,L|282:143,1,22.7999993041992,10|8,2:2|2:2,2:0:0:0:
268,147,38810,2,0,L|273:169,1,22.7999993041992,10|8,2:2|2:2,2:0:0:0:
288,176,38905,1,0,2:0:0:0:
259,225,39000,1,2,2:2:0:0:
284,266,39094,1,2,2:3:0:0:
260,300,39189,1,2,2:3:0:0:
280,331,39284,1,2,2:3:0:0:
263,347,39379,1,2,2:3:0:0:
271,360,39474,6,0,L|265:383,1,22.7999993041992,4|0,2:2|2:0,2:0:0:0:
256,192,39569,12,2,45550,2:2:0:0:
253,21,51626,6,0,L|257:2,1,19,6|0,2:2|2:0,2:0:0:0:
221,120,52006,2,0,P|223:167|229:210,1,85.5000032615663,8|0,2:1|2:0,2:0:0:0:
228,205,52386,1,0,2:0:0:0:
291,295,52575,6,0,P|292:309|293:323,1,28.5000010871888,0|0,2:0|2:0,2:0:0:0:
266,361,52765,1,8,2:1:0:0:
266,361,52860,1,0,2:0:0:0:
179,299,53050,1,0,2:0:0:0:
179,299,53145,2,0,P|121:313|100:363,1,108.299997108078,2|0,2:2|2:0,2:0:0:0:
100,353,53525,1,8,2:1:0:0:
25,299,53715,1,0,2:0:0:0:
96,144,53905,5,2,2:2:0:0:
96,144,54000,1,8,2:1:0:0:
29,72,54189,5,2,2:2:0:0:
29,72,54284,1,8,2:1:0:0:
58,222,54474,5,0,2:0:0:0:
193,126,54664,5,2,2:2:0:0:
193,126,54712,2,0,P|242:135|292:141,1,99.7500038051607,2|8,2:2|2:1,2:0:0:0:
348,214,55234,1,2,2:2:0:0:
421,285,55424,2,0,P|435:286|449:289,2,28.5000010871888,0|0|2,2:0|2:0|2:2,2:0:0:0:
407,296,55708,1,0,2:0:0:0:
407,296,55803,1,8,2:1:0:0:
446,199,55993,5,2,2:2:0:0:
446,199,56088,1,2,2:2:0:0:
446,199,56183,2,0,P|433:156|425:113,1,85.5000032615663,2|0,2:2|2:0,2:0:0:0:
425,116,56563,1,8,2:1:0:0:
336,34,56753,2,0,P|359:43|368:46,1,28.5000010871888,0|0,2:0|2:0,2:0:0:0:
464,32,56943,5,2,2:2:0:0:
464,32,57037,1,8,2:1:0:0:
330,126,57227,5,2,2:2:0:0:
330,126,57321,1,8,2:1:0:0:
218,68,57512,5,2,2:2:0:0:
218,68,57607,1,2,2:2:0:0:
218,68,57702,1,0,1:1:0:0:
197,60,57796,1,0,1:1:0:0:
176,59,57891,1,0,1:1:0:0:
156,65,57986,1,0,1:1:0:0:
138,77,58081,1,8,2:1:0:0:
125,94,58176,1,0,1:1:0:0:
118,114,58271,1,0,1:1:0:0:
117,135,58366,1,0,1:1:0:0:
123,155,58462,1,0,1:1:0:0:
163,153,58556,1,2,2:3:0:0:
188,180,58651,2,0,P|184:206|180:230,1,49.3999977386476,2|0,2:3|2:0,2:0:0:0:
264,376,58841,1,8,1:2:0:0:
286,328,58936,1,2,1:3:0:0:
266,294,59031,5,2,1:3:0:0:
266,294,59126,1,2,1:3:0:0:
266,294,59221,1,0,1:1:0:0:
235,297,59315,1,0,1:1:0:0:
204,302,59410,1,0,1:1:0:0:
174,310,59505,1,0,1:1:0:0:
145,319,59600,1,8,2:1:0:0:
116,329,59695,1,0,1:1:0:0:
88,342,59790,1,0,1:1:0:0:
60,356,59885,1,0,1:1:0:0:
34,372,59980,1,2,1:3:0:0:
0,330,60075,1,2,2:3:0:0:
31,287,60170,2,0,P|46:256|52:228,1,49.3999977386476,2|0,2:3|2:0,2:0:0:0:
45,90,60360,1,0,1:1:0:0:
26,84,60455,1,0,1:1:0:0:
4,103,60550,2,0,P|8:137|22:161,1,49.3999977386476,2|0,2:3|2:0,2:0:0:0:
134,216,60740,5,2,1:3:0:0:
155,222,60835,2,0,P|184:211|206:204,1,49.3999977386476,0|0,1:1|2:0,2:0:0:0:
208,55,61025,1,0,1:1:0:0:
182,66,61120,2,0,P|171:96|166:124,1,49.3999977386476,8|0,1:1|2:0,2:0:0:0:
338,135,61310,1,2,1:3:0:0:
338,135,61405,1,0,1:1:0:0:
343,140,61500,1,2,1:3:0:0:
319,160,61594,2,0,P|288:151|267:138,1,49.3999977386476,0|0,1:1|2:0,2:0:0:0:
268,309,61784,1,0,1:1:0:0:
291,291,61879,2,0,P|303:261|303:236,1,49.3999977386476,8|0,1:1|2:0,2:0:0:0:
296,54,62069,5,0,1:1:0:0:
431,161,62259,1,2,2:2:0:0:
442,156,62353,1,2,2:2:0:0:
453,151,62448,1,2,2:2:0:0:
463,144,62543,1,2,2:2:0:0:
472,135,62639,1,8,2:2:0:0:
416,247,62829,5,2,2:2:0:0:
416,247,62924,1,2,2:2:0:0:
416,247,63018,1,0,1:1:0:0:
425,277,63113,1,0,1:1:0:0:
501,335,63303,5,0,1:1:0:0:
512,299,63398,1,2,1:3:0:0:
303,384,63588,1,2,2:3:0:0:
434,377,63778,6,0,P|354:377|330:287,1,171.000006523133,4|0,1:1|1:1,2:0:0:0:
303,279,64158,2,0,P|314:244|316:218,1,57.0000021743775,8|0,1:1|2:0,2:0:0:0:
507,133,64348,2,0,P|453:151|396:158,1,114.000004348755,2|0,1:3|1:1,2:0:0:0:
376,154,64632,1,0,1:1:0:0:
273,75,64822,1,0,1:1:0:0:
273,75,64917,2,0,P|276:105|286:133,1,57.0000021743775,8|0,1:1|2:0,2:0:0:0:
230,210,65107,5,2,2:3:0:0:
230,210,65202,1,2,2:3:0:0:
230,210,65297,2,0,B|135:203|169:267|82:292,1,171.000006523133,0|0,1:1|2:0,2:0:0:0:
62,315,65677,2,0,P|34:306|6:303,1,57.0000021743775,8|0,1:1|2:0,2:0:0:0:
14,56,65867,6,0,P|1:87|2:112,1,57.0000021743775,0|0,1:1|2:0,2:0:0:0:
18,157,66056,1,0,1:1:0:0:
45,148,66151,2,0,P|72:156|100:159,1,57.0000021743775,2|0,2:3|2:0,2:0:0:0:
234,82,66341,1,0,1:1:0:0:
234,82,66436,2,0,P|206:90|178:93,1,57.0000021743775,8|0,1:1|2:0,2:0:0:0:
105,9,66626,6,0,P|101:39|91:67,1,57.0000021743775,2|2,2:3|2:3,2:0:0:0:
186,184,66816,2,0,P|257:194|278:294,1,171.000006523133,0|0,1:1|1:1,2:0:0:0:
271,305,67196,2,0,P|274:342|281:365,1,57.0000021743775,8|0,1:1|2:0,2:0:0:0:
28,379,67386,6,0,P|73:345|128:338,1,114.000004348755,0|0,1:1|1:1,2:0:0:0:
187,273,67670,1,0,1:1:0:0:
187,273,67765,1,0,1:1:0:0:
100,159,67955,1,8,1:1:0:0:
367,344,68145,5,2,2:3:0:0:
367,344,68240,1,2,2:3:0:0:
367,344,68335,2,0,P|419:309|412:265,1,114.000004348755,0|0,1:1|2:0,2:0:0:0:
506,163,68620,1,0,1:1:0:0:
488,180,68715,2,0,P|440:172|394:154,1,98.7999954772951,8|0,1:1|2:0,2:0:0:0:
512,340,69094,5,0,1:1:0:0:
505,308,69189,1,8,1:1:0:0:
308,251,69379,5,0,1:1:0:0:
316,221,69474,1,8,1:1:0:0:
216,58,69664,5,0,1:1:0:0:
504,15,69854,5,0,1:1:0:0:
471,29,69949,1,2,2:3:0:0:
435,41,70044,1,2,2:3:0:0:
399,50,70139,1,2,2:3:0:0:
361,59,70234,2,0,P|330:62|295:61,1,57.0000021743775,8|0,1:1|2:0,2:0:0:0:
410,229,70424,5,2,2:3:0:0:
428,185,70518,1,2,2:3:0:0:
393,153,70613,1,0,1:1:0:0:
500,124,70803,5,2,2:3:0:0:
313,213,70993,1,8,1:1:0:0:
500,124,71183,1,2,2:3:0:0:
313,213,71373,6,0,P|257:226|199:260,1,114.000004348755,0|0,1:1|2:0,2:0:0:0:
46,376,71658,1,0,1:1:0:0:
66,361,71753,2,0,P|57:304|29:253,1,114.000004348755,8|0,1:1|2:0,2:0:0:0:
201,342,72037,5,2,2:3:0:0:
179,341,72132,1,0,1:1:0:0:
149,312,72227,1,8,1:1:0:0:
237,142,72417,5,0,1:1:0:0:
232,112,72512,1,8,1:1:0:0:
288,24,72702,5,2,2:3:0:0:
5,0,72892,6,0,P|51:42|108:46,1,114.000004348755,0|0,1:1|2:0,2:0:0:0:
123,36,73177,2,0,P|140:76|147:108,1,57.0000021743775,0|8,1:1|1:1,2:0:0:0:
69,149,73367,1,2,2:3:0:0:
69,149,73462,1,2,2:3:0:0:
325,114,73651,6,0,B|414:116|389:183|478:192,1,171.000006523133,0|0,1:1|2:0,2:0:0:0:
490,181,74031,2,0,P|495:152|496:122,1,57.0000021743775,8|0,1:1|2:0,2:0:0:0:
356,250,74221,1,2,2:3:0:0:
356,250,74316,1,2,2:3:0:0:
356,250,74411,2,0,P|359:309|368:367,2,114.000004348755,0|2|8,1:1|2:3|1:1,2:0:0:0:
473,316,74981,1,2,2:3:0:0:
252,344,75170,5,0,1:1:0:0:
256,192,75455,1,0,1:1:0:0:
256,192,75550,1,8,1:1:0:0:
260,40,75740,1,2,1:3:0:0:
0,38,75930,6,0,P|53:28|113:130,1,171.000006523133,4|0,1:1|1:1,2:0:0:0:
138,127,76310,2,0,P|145:163|146:195,1,57.0000021743775,8|0,1:1|2:0,2:0:0:0:
37,369,76500,2,0,P|78:337|96:276,1,114.000004348755,2|0,1:3|1:1,2:0:0:0:
86,255,76784,1,0,1:1:0:0:
243,302,76974,5,0,1:1:0:0:
230,314,77069,2,0,P|196:306|168:283,1,57.0000021743775,8|0,1:1|2:0,2:0:0:0:
0,183,77259,2,0,P|33:178|57:168,1,57.0000021743775,2|2,2:3|2:3,2:0:0:0:
157,104,77449,6,0,B|246:95|219:156|310:174,1,171.000006523133,0|0,1:1|2:0,2:0:0:0:
321,165,77829,2,0,P|329:134|337:108,1,57.0000021743775,8|0,1:1|2:0,2:0:0:0:
437,41,78018,2,0,P|439:69|448:96,1,57.0000021743775,0|0,1:1|2:0,2:0:0:0:
280,27,78208,5,0,1:1:0:0:
295,11,78303,2,0,P|322:19|350:22,1,57.0000021743775,2|0,2:3|2:0,2:0:0:0:
482,197,78493,1,0,1:1:0:0:
482,197,78588,2,0,P|454:188|426:185,1,57.0000021743775,8|0,1:1|2:0,2:0:0:0:
251,360,78778,5,2,2:3:0:0:
251,360,78873,1,2,2:3:0:0:
251,360,78968,2,0,P|316:359|341:266,1,171.000006523133,0|0,1:1|1:1,2:0:0:0:
205,248,79348,2,0,P|230:261|257:268,1,57.0000021743775,8|0,1:1|2:0,2:0:0:0:
458,384,79537,1,0,1:1:0:0:
458,384,79632,1,2,2:3:0:0:
458,384,79727,2,0,P|441:330|439:270,2,114.000004348755,0|0|8,1:1|1:1|1:1,2:0:0:0:
300,195,80297,5,2,2:3:0:0:
300,195,80392,1,2,2:3:0:0:
300,195,80487,2,0,B|273:124|336:105|302:19,1,171.000006523133,0|0,1:1|1:1,2:0:0:0:
211,4,80867,2,0,P|209:37|213:66,1,57.0000021743775,8|2,1:1|0:3,2:0:0:0:
85,78,81151,5,2,2:3:0:0:
87,95,81246,1,0,1:1:0:0:
106,122,81341,1,8,1:1:0:0:
21,208,81531,5,0,1:1:0:0:
50,223,81626,1,8,1:1:0:0:
31,348,81816,5,0,1:1:0:0:
65,333,81911,1,2,2:3:0:0:
103,341,82006,2,0,P|153:355|224:357,1,114.000004348755,0|2,1:1|2:3,2:0:0:0:
243,343,82291,2,0,P|232:308|231:285,1,57.0000021743775,2|8,2:3|1:1,2:0:0:0:
312,237,82481,1,2,2:3:0:0:
333,250,82575,2,0,P|341:282|341:315,2,57.0000021743775,0|0|0,1:1|2:0|1:1,2:0:0:0:
446,339,82860,5,0,1:1:0:0:
488,334,82955,1,2,2:3:0:0:
512,289,83050,1,2,2:3:0:0:
496,245,83145,1,8,1:1:0:0:
482,243,83240,1,2,2:3:0:0:
469,239,83335,1,0,1:1:0:0:
456,234,83430,1,0,1:1:0:0:
443,227,83525,6,0,P|449:170|486:57,1,171.000006523133,0|0,1:1|1:1,2:0:0:0:
471,34,83905,2,0,P|443:27|415:20,1,57.0000021743775,8|0,1:1|2:0,2:0:0:0:
284,154,84094,2,0,P|336:149|374:103,1,114.000004348755,2|0,2:3|1:1,2:0:0:0:
272,132,84379,2,0,P|220:137|182:183,1,114.000004348755,8|0,1:1|1:1,2:0:0:0:
176,208,84664,1,8,1:1:0:0:
69,273,84854,5,2,2:3:0:0:
67,252,84949,1,2,2:3:0:0:
58,233,85044,1,4,1:2:0:0:
9,351,85234,1,0,1:1:0:0:
94,289,85424,1,0,1:1:0:0:
35,216,85613,1,2,1:3:0:0:
229,368,85803,5,4,1:2:0:0:
290,278,85993,1,2,1:3:0:0:
256,192,86183,1,0,1:1:0:0:
169,161,86373,1,0,1:1:0:0:
482,180,86563,5,4,1:2:0:0:
503,129,86658,1,0,1:1:0:0:
486,76,86753,1,0,1:1:0:0:
440,49,86848,1,0,1:1:0:0:
386,58,86943,2,0,L|344:67,2,28.5000010871888,0|0|0,1:1|1:1|1:1,2:0:0:0:
293,116,87132,5,0,1:1:0:0:
230,65,87227,5,0,1:1:0:0:
270,0,87322,5,4,1:2:0:0:
256,192,87607,1,4,1:2:0:0:
234,372,87892,2,0,P|226:339|225:315,1,57.0000021743775,2|2,1:3|1:3,2:0:0:0:
205,299,88082,6,0,B|106:309|135:358|42:385,1,188.100001793861,4|0,1:1|1:1,2:0:0:0:
26,310,88462,2,0,P|23:341|17:372,1,62.7000005979538,8|0,1:1|2:0,2:0:0:0:
151,220,88651,2,0,P|119:217|87:202,1,62.7000005979538,2|0,1:3|2:0,2:0:0:0:
169,0,88841,5,0,1:1:0:0:
142,13,88936,2,0,P|154:48|158:82,1,62.7000005979538,0|0,1:1|2:0,2:0:0:0:
14,133,89126,1,0,1:1:0:0:
14,133,89221,2,0,P|49:121|83:117,1,62.7000005979538,8|0,1:1|2:0,2:0:0:0:
255,73,89411,5,2,2:3:0:0:
255,73,89506,1,2,2:3:0:0:
255,73,89601,2,0,P|340:85|358:178,1,188.100001793861,0|0,1:1|2:0,2:0:0:0:
436,178,89981,2,0,P|406:187|375:192,1,62.7000005979538,8|0,1:1|2:0,2:0:0:0:
360,61,90170,2,0,P|370:28|375:-2,1,62.7000005979538,0|0,1:1|2:0,2:0:0:0:
190,195,90360,5,0,1:1:0:0:
205,172,90455,2,0,P|239:160|274:153,1,62.7000005979538,0|0,1:1|2:0,2:0:0:0:
330,330,90645,1,0,1:1:0:0:
330,330,90740,2,0,P|342:296|349:261,1,62.7000005979538,8|0,1:1|2:0,2:0:0:0:
0,373,90930,5,2,2:3:0:0:
0,373,91025,1,2,2:3:0:0:
0,373,91120,2,0,P|44:362|103:311,1,125.400001195908,0|0,1:1|2:0,2:0:0:0:
244,289,91405,1,0,1:1:0:0:
244,289,91500,2,0,P|206:284|184:270,1,62.7000005979538,8|0,1:1|2:0,2:0:0:0:
0,232,91689,5,0,1:1:0:0:
0,232,91784,1,2,2:3:0:0:
0,232,91879,1,0,1:1:0:0:
19,247,91974,2,0,P|58:226|90:217,1,62.7000005979538,0|0,1:1|2:0,2:0:0:0:
173,129,92164,1,2,2:3:0:0:
173,129,92259,2,0,P|163:158|157:189,1,62.7000005979538,8|0,1:1|2:0,2:0:0:0:
89,70,92449,5,2,2:3:0:0:
89,70,92544,1,2,2:3:0:0:
89,70,92639,1,0,1:1:0:0:
270,134,92829,5,2,2:3:0:0:
270,134,92924,1,0,1:1:0:0:
270,134,93018,1,8,1:1:0:0:
455,195,93208,5,2,2:3:0:0:
455,195,93303,1,2,2:3:0:0:
455,195,93398,1,0,1:1:0:0:
437,218,93493,2,0,P|397:227|363:246,1,62.7000005979538,8|0,1:1|2:0,2:0:0:0:
190,308,93683,1,2,1:3:0:0:
211,286,93778,2,0,P|251:295|285:314,1,62.7000005979538,8|0,1:1|2:0,2:0:0:0:
408,384,93968,2,0,P|390:351|386:322,1,62.7000005979538,0|0,1:1|2:0,2:0:0:0:
267,215,94158,5,0,1:1:0:0:
221,203,94253,1,2,2:3:0:0:
188,171,94348,1,2,2:3:0:0:
180,126,94443,1,2,2:3:0:0:
201,88,94537,2,0,P|207:57|222:30,1,62.7000005979538,8|0,1:1|2:0,2:0:0:0:
390,118,94727,5,2,2:3:0:0:
368,154,94822,1,2,2:3:0:0:
330,157,94917,1,0,1:1:0:0:
316,76,95107,5,2,2:3:0:0:
111,7,95297,1,8,1:1:0:0:
316,76,95487,1,2,2:3:0:0:
111,7,95677,6,0,P|55:20|38:91,1,125.400001195908,0|0,1:1|2:0,2:0:0:0:
115,220,95962,1,0,1:1:0:0:
115,220,96056,2,0,P|66:192|-8:174,1,125.400001195908,8|0,1:1|2:0,2:0:0:0:
36,347,96341,5,2,2:3:0:0:
45,359,96436,1,0,1:1:0:0:
80,355,96531,2,0,P|80:323|67:294,1,62.7000005979538,8|0,1:1|2:0,2:0:0:0:
189,161,96721,1,0,1:1:0:0:
222,187,96816,2,0,P|222:218|213:251,1,62.7000005979538,8|0,1:1|2:0,2:0:0:0:
185,339,97006,1,2,2:3:0:0:
377,169,97196,6,0,P|313:153|300:93,1,125.400001195908,0|0,1:1|2:0,2:0:0:0:
307,17,97481,2,0,P|317:45|323:78,1,62.7000005979538,0|8,1:1|1:1,2:0:0:0:
512,101,97670,1,2,2:3:0:0:
490,108,97765,2,0,P|455:104|424:89,1,62.7000005979538,2|0,2:3|2:0,2:0:0:0:
380,277,97955,1,0,1:1:0:0:
380,277,98050,1,2,2:3:0:0:
380,277,98145,2,0,P|426:262|479:206,2,125.400001195908,2|8|2,2:3|1:1|2:3,2:0:0:0:
253,352,98715,5,4,1:2:0:0:
126,323,98905,1,0,1:1:0:0:
161,192,99094,1,0,1:1:0:0:
287,228,99284,5,0,1:1:0:0:
287,228,99379,1,0,1:1:0:0:
287,228,99474,1,4,1:2:0:0:
61,263,99664,1,0,1:1:0:0:
29,46,99854,1,0,1:1:0:0:
245,14,100044,1,0,1:1:0:0:
252,353,100234,5,0,1:1:0:0:
253,360,100329,1,0,1:1:0:0:
254,368,100424,1,0,1:1:0:0:
255,376,100518,2,0,L|236:378,1,14.2500005435944,0|0,1:1|2:0,2:0:0:0:
256,384,100613,6,0,P|261:345|265:319,1,62.7000005979538,12|0,1:1|2:0,2:0:0:0:
214,168,100803,2,0,P|219:129|223:103,1,62.7000005979538,2|0,1:3|2:0,2:0:0:0:
364,190,100993,5,0,1:1:0:0:
348,211,101088,2,0,P|312:222|271:224,1,62.7000005979538,0|0,1:1|2:0,2:0:0:0:
116,292,101278,1,0,1:1:0:0:
132,271,101373,2,0,P|168:260|209:258,1,62.7000005979538,8|0,1:1|2:0,2:0:0:0:
362,364,101563,5,2,2:3:0:0:
362,364,101658,1,2,2:3:0:0:
362,364,101753,2,0,P|387:302|498:302,1,188.100001793861,0|0,1:1|2:0,2:0:0:0:
512,382,102132,2,0,P|504:347|508:316,1,62.7000005979538,8|0,1:1|2:0,2:0:0:0:
512,188,102322,2,0,P|481:182|452:170,1,62.7000005979538,0|0,1:1|2:0,2:0:0:0:
320,31,102512,5,0,1:1:0:0:
320,31,102607,1,2,2:3:0:0:
320,31,102702,2,0,P|295:59|299:90,1,62.7000005979538,2|0,2:3|1:1,2:0:0:0:
511,23,102892,1,8,1:1:0:0:
486,47,102986,1,2,2:3:0:0:
458,61,103081,1,2,2:3:0:0:
421,74,103176,1,2,2:3:0:0:
387,80,103271,1,0,1:1:0:0:
323,189,103462,5,2,2:3:0:0:
323,189,103556,2,0,P|285:170|258:164,1,62.7000005979538,0|8,1:1|1:1,2:0:0:0:
160,48,103746,1,2,2:3:0:0:
160,48,103840,2,0,P|179:86|185:113,1,62.7000005979538,0|0,1:1|2:0,2:0:0:0:
92,267,104031,5,0,1:1:0:0:
92,267,104221,2,0,P|103:225|180:200,2,125.400001195908,0|8|2,1:1|1:1|2:3,2:0:0:0:
34,347,104696,5,2,2:3:0:0:
9,334,104791,2,0,P|1:297|0:263,1,62.7000005979538,0|0,1:1|2:0,2:0:0:0:
24,72,104981,1,2,2:3:0:0:
38,105,105076,2,0,P|67:121|105:127,1,62.7000005979538,0|8,1:1|1:1,2:0:0:0:
160,360,105265,5,0,1:1:0:0:
201,374,105360,1,0,1:1:0:0:
241,343,105455,1,0,1:1:0:0:
278,356,105550,5,4,1:2:0:0:
256,192,105835,1,4,1:2:0:0:
233,27,106120,1,4,1:2:0:0:
306,98,106310,6,0,B|369:114|354:143|431:160,1,125.400001195908,4|0,1:2|1:1,2:0:0:0:
455,80,106594,2,0,P|444:113|437:145,1,62.7000005979538,2|0,2:3|1:1,2:0:0:0:
512,297,106784,1,0,1:1:0:0:
491,270,106879,2,0,P|456:255|422:249,1,62.7000005979538,0|0,1:1|2:0,2:0:0:0:
326,363,107069,5,0,1:1:0:0:
326,363,107164,1,2,2:3:0:0:
334,317,107259,1,0,1:1:0:0:
341,269,107354,1,2,2:3:0:0:
345,222,107449,1,2,1:3:0:0:
232,361,107639,5,2,1:3:0:0:
232,361,107734,1,2,2:3:0:0:
232,361,107829,1,4,1:2:0:0:
236,327,107923,1,0,1:1:0:0:
241,295,108018,1,2,1:3:0:0:
246,262,108113,1,2,2:3:0:0:
249,230,108208,1,0,1:1:0:0:
253,198,108303,1,2,2:3:0:0:
257,164,108398,1,0,1:1:0:0:
259,132,108493,1,2,2:3:0:0:
260,100,108588,5,0,1:1:0:0:
246,81,108683,2,0,P|213:89|175:110,1,62.7000005979538,8|0,1:1|2:0,2:0:0:0:
0,206,108873,5,0,1:1:0:0:
0,206,108968,2,0,P|8:173|14:132,1,62.7000005979538,8|0,1:1|2:0,2:0:0:0:
13,12,109158,5,2,2:3:0:0:
13,12,109253,1,2,2:3:0:0:
13,12,109348,1,4,1:2:0:0:
57,1,109442,1,0,1:1:0:0:
89,18,109537,1,0,1:1:0:0:
101,59,109632,1,0,1:1:0:0:
82,96,109727,1,0,1:1:0:0:
87,110,109821,1,0,1:1:0:0:
92,125,109916,1,2,1:3:0:0:
96,140,110011,1,0,1:1:0:0:
90,164,110107,1,4,1:2:0:0:
79,215,110201,1,0,1:1:0:0:
105,260,110296,1,2,1:3:0:0:
161,273,110391,1,0,1:1:0:0:
214,247,110486,1,0,1:1:0:0:
271,236,110582,1,0,1:1:0:0:
330,262,110677,1,0,1:1:0:0:
342,330,110772,1,0,1:1:0:0:
279,368,110867,6,0,P|229:369|187:380,1,91.199997216797,2|2,2:3|2:3,2:0:0:0:
187,379,111151,1,2,2:3:0:0:
187,379,111246,1,2,2:3:0:0:
339,184,111436,1,2,2:2:0:0:
339,184,111531,1,2,2:2:0:0:
339,184,111626,1,0,1:1:0:0:
331,161,111720,1,2,2:3:0:0:
324,139,111815,1,2,2:3:0:0:
319,118,111911,1,0,1:1:0:0:
312,95,112006,1,2,2:3:0:0:
229,0,112196,5,2,1:3:0:0:
229,0,112291,1,2,1:3:0:0:
229,0,112386,1,4,1:1:0:0:
256,192,112481,12,0,118082,2:0:0:0:
