osu file format v14

[General]
AudioFilename: audio.mp3
AudioLeadIn: 0
PreviewTime: 63296
Countdown: 0
SampleSet: Soft
StackLeniency: 0.7
Mode: 0
LetterboxInBreaks: 0
WidescreenStoryboard: 1

[Editor]
Bookmarks: 9087,15153,39457,51609,63761,88065,112369
DistanceSpacing: 1
BeatDivisor: 8
GridSize: 4
TimelineZoom: 3.199999

[Metadata]
Title:Violet Soul
TitleUnicode:Violet Soul
Artist:Soleily
ArtistUnicode:Soleily
Creator:Ascended
Version:ADVANCED
Source:SOUND VOLTEX III GRAVITY WARS
Tags:soliely sdvx3 soundvoltex3 instrumental electronic trance The First VOLTEX Character Theme Song Contest stwi frostwich synderes zhuxiaoyan Flask
BeatmapID:3954860
BeatmapSetID:1915988

[Difficulty]
HPDrainRate:4.2
CircleSize:3.8
OverallDifficulty:6
ApproachRate:7.5
SliderMultiplier:1.42
SliderTickRate:1

[Events]
//Background and Video events
0,0,"purple].jpg",0,0
//Break Periods
2,45750,50801
//Storyboard Layer 0 (Background)
//Storyboard Layer 1 (Fail)
//Storyboard Layer 2 (Pass)
//Storyboard Layer 3 (Foreground)
//Storyboard Layer 4 (Overlay)
//Storyboard Sound Samples

[TimingPoints]
1500,379.746835443038,4,2,1,40,1,0
3018,-111.111111111111,4,2,1,50,0,0
9094,-111.111111111111,4,2,1,55,0,0
15170,-100,4,2,1,60,0,0
39474,-100,4,2,1,55,0,0
51626,-125,4,2,1,60,0,0
57702,-111.111111111111,4,2,1,60,0,0
63778,-90.9090909090908,4,2,1,70,0,1
63825,-90.9090909090908,4,2,1,70,0,0
88082,-83.3333333333333,4,2,1,80,0,1
100234,-83.3333333333333,4,2,1,80,0,0
100613,-83.3333333333333,4,2,1,80,0,1
112386,-111.111111111111,4,2,1,60,0,0
112433,-111.111111111111,4,2,1,5,0,0

[Colours]
Combo1 : 17,254,176
Combo2 : 173,255,95
Combo3 : 255,88,100
Combo4 : 255,94,55

[HitObjects]
231,63,3018,6,0,P|226:24|222:-4,2,63.8999980499268,4|0|0,1:2|0:0|1:1,0:0:0:0:
299,129,3588,2,0,P|296:144|294:160,1,31.9499990249634
286,191,3778,2,0,P|220:211|210:267,1,127.799996099854,0|0,1:1|1:1,0:0:0:0:
350,347,4537,6,0,P|389:352|417:356,2,63.8999980499268,0|0|0,1:1|0:0|1:1,0:0:0:0:
260,378,5107,2,0,P|244:374|228:372,1,31.9499990249634
197,364,5297,2,0,P|134:351|70:343,1,127.799996099854,0|0,1:1|1:1,0:0:0:0:
63,177,6056,6,0,P|24:182|-4:186,2,63.8999980499268,0|0|0,1:1|0:0|1:1,0:0:0:0:
151,112,6626,2,0,P|166:114|182:116,1,31.9499990249634
205,92,6816,2,0,P|267:99|278:157,1,127.799996099854,0|0,1:1|1:1,0:0:0:0:
237,307,7575,6,0,P|242:346|246:374,2,63.8999980499268,0|0|0,1:1|0:0|1:1,0:0:0:0:
331,314,8145,2,0,P|346:311|362:309,1,31.9499990249634
393,325,8335,2,0,B|458:315|432:271|503:263,1,127.799996099854,0|0,1:1|1:1,0:0:0:0:
434,104,9094,5,4,1:2:0:0:
434,104,9189,2,0,P|372:90|340:81,1,95.8499970748902,2|8,2:2|1:1,0:0:0:0:
249,64,9664,1,0,0:0:0:0:
249,64,9759,1,2,2:2:0:0:
249,64,9854,2,0,P|251:29|249:0,2,63.8999980499268,0|2|8,1:1|2:2|1:1,0:0:0:0:
219,217,10613,6,0,P|177:226|156:232,1,63.8999980499268,4|2,1:2|2:2,0:0:0:0:
70,201,10993,1,8,1:1:0:0:
70,201,11088,2,0,P|14:235|14:269,1,95.8499970748902,2|0,2:2|1:1,0:0:0:0:
101,313,11563,1,2,2:2:0:0:
101,313,11658,1,2,2:2:0:0:
101,313,11753,2,0,P|97:328|93:344,3,31.9499990249634,8|0|2|2,1:1|0:0|2:2|2:2,0:0:0:0:
125,370,12132,6,0,P|167:379|188:385,1,63.8999980499268,4|0,1:2|1:1,0:0:0:0:
268,341,12512,1,8,1:1:0:0:
268,341,12607,2,0,P|276:310|282:278,1,63.8999980499268,0|0,1:1|1:1,0:0:0:0:
306,244,12892,2,0,P|301:228|298:212,3,31.9499990249634,4|0|0|0,1:2|1:1|1:1|1:1,0:0:0:0:
267,184,13272,1,8,1:1:0:0:
283,90,13462,5,0,1:1:0:0:
283,90,13556,1,0,1:1:0:0:
283,90,13651,2,0,P|300:86|317:80,1,31.9499990249634,0|2,1:1|1:3,0:0:0:0:
384,12,13936,1,2,1:3:0:0:
489,50,14126,1,0,1:1:0:0:
489,50,14221,2,0,P|480:89|477:116,1,63.8999980499268,0|0,1:1|0:0,0:0:0:0:
410,169,14601,2,0,P|415:191|416:207,1,31.9499990249634,2|2,2:2|2:2,0:0:0:0:
451,233,14791,2,0,P|446:255|445:271,3,31.9499990249634,0|2|0|2,1:1|2:3|1:1|2:3,0:0:0:0:
439,317,15170,5,0,1:1:0:0:
356,354,15360,1,2,2:2:0:0:
271,319,15550,1,8,1:1:0:0:
270,319,15645,2,0,P|273:265|270:236,1,71,2|2,2:3|2:3,0:0:0:0:
315,217,15930,2,0,P|321:152|236:128,1,142,0|8,1:1|1:1,0:0:0:0:
192,63,16500,1,2,2:3:0:0:
96,82,16689,5,0,1:1:0:0:
96,82,16784,2,0,P|94:117|95:152,1,71,2|2,2:3|2:3,0:0:0:0:
72,181,17069,1,8,1:1:0:0:
66,344,17449,5,0,1:1:0:0:
66,344,17544,2,0,P|83:344|101:344,1,35.5,2|0,2:3|1:1,0:0:0:0:
178,300,17829,2,0,P|195:300|213:300,3,35.5,0|0|0|0,1:1|1:1|1:1|1:1,0:0:0:0:
247,350,18208,6,0,B|291:317|291:317|352:334,1,106.5,4|4,1:2|1:2,0:0:0:0:
407,192,18778,1,4,1:2:0:0:
407,192,18873,2,0,P|424:192|442:192,2,35.5,0|0|4,1:1|1:1|1:2,0:0:0:0:
317,166,19253,2,0,B|272:201|272:201|221:189,1,106.5,0|0,1:1|1:1,0:0:0:0:
184,217,19632,5,0,1:1:0:0:
184,217,19727,2,0,P|68:220|65:133,1,213,4|0,2:3|1:1,0:0:0:0:
106,53,20487,2,0,P|103:29|100:7,2,47.3333333333333,2|2|2,2:3|2:3|2:3,0:0:0:0:
168,76,20867,2,0,P|171:100|174:122,2,47.3333333333333,2|2|2,2:3|2:3|2:3,0:0:0:0:
226,37,21246,6,0,P|261:39|296:38,1,71,0|2,1:1|2:2,0:0:0:0:
395,34,21626,1,8,1:1:0:0:
394,34,21721,2,0,P|436:50|442:84,1,71,2|2,2:3|2:3,0:0:0:0:
443,125,22006,6,0,P|386:130|304:147,1,142,0|8,1:1|1:1,0:0:0:0:
324,245,22575,1,2,2:3:0:0:
230,216,22765,5,0,1:1:0:0:
230,216,22860,2,0,P|194:214|159:215,1,71,2|2,2:3|2:3,0:0:0:0:
131,179,23145,2,0,P|95:180|60:179,1,71,8|0,1:1|0:0,0:0:0:0:
10,270,23525,5,0,1:1:0:0:
10,270,23620,2,0,P|9:287|9:305,1,35.5,2|0,2:3|1:1,0:0:0:0:
49,344,23810,1,0,1:1:0:0:
49,344,23905,2,0,P|48:361|48:379,2,35.5,0|0|0,1:1|1:1|1:1,0:0:0:0:
98,327,24189,1,0,1:1:0:0:
98,327,24284,1,4,1:2:0:0:
98,327,25803,6,0,B|131:310|131:310|167:319,1,71,4|2,1:2|2:2,0:0:0:0:
209,340,26088,2,0,P|201:277|197:231,1,106.5,4|4,1:2|1:2,0:0:0:0:
252,164,26563,1,0,0:0:0:0:
252,164,26658,2,0,P|248:137|246:118,2,35.5,6|2|2,2:2|2:2|2:2,0:0:0:0:
285,187,26943,1,0,1:1:0:0:
308,190,27037,1,2,2:3:0:0:
328,203,27132,1,0,1:1:0:0:
342,223,27227,1,0,1:1:0:0:
342,249,27322,6,0,P|342:283|338:323,1,71,0|2,1:1|2:2,0:0:0:0:
435,322,27702,1,8,1:1:0:0:
435,322,27797,2,0,P|476:316|488:288,1,71,2|2,2:3|2:3,0:0:0:0:
493,248,28082,2,0,P|492:196|499:101,1,142,0|8,1:1|1:1,0:0:0:0:
420,50,28651,1,2,2:3:0:0:
336,91,28841,5,0,1:1:0:0:
336,91,28936,2,0,P|297:94|270:116,1,71,2|2,2:3|2:3,0:0:0:0:
258,145,29221,1,8,1:1:0:0:
300,306,29601,1,0,1:1:0:0:
300,306,29696,2,0,P|300:323|300:341,2,35.5,8|0|0,1:1|0:0|1:1,0:0:0:0:
266,318,29981,2,0,P|230:321|195:326,1,71,8|0,1:1|1:1,0:0:0:0:
105,375,30360,6,0,P|58:368|31:366,1,71,0|2,1:1|2:3,0:0:0:0:
8,329,30645,1,2,2:3:0:0:
8,329,30740,2,0,P|15:282|17:255,1,71,8|0,1:1|0:0,0:0:0:0:
79,178,31120,1,0,1:1:0:0:
79,178,31215,2,0,P|75:135|68:92,1,71,8|0,1:1|1:1,0:0:0:0:
105,66,31500,2,0,P|122:63|140:62,3,35.5,8|0|2|2,1:1|1:1|2:3|2:3,0:0:0:0:
189,82,31879,6,0,P|224:86|259:89,1,71,0|2,1:1|2:3,0:0:0:0:
299,181,32259,1,8,1:1:0:0:
299,181,32449,1,0,0:0:0:0:
207,201,32639,2,0,P|203:236|200:271,1,71,0|0,1:1|1:1,0:0:0:0:
233,356,33018,2,0,P|250:358|268:359,3,35.5,0|2|0|2,1:1|2:3|1:1|2:3,0:0:0:0:
310,326,33398,6,0,P|345:321|380:318,1,71,4|0,1:2|1:1,0:0:0:0:
473,309,33778,1,8,1:1:0:0:
473,309,33873,2,0,P|490:306|508:305,2,35.5,0|0|0,1:1|1:1|1:1,0:0:0:0:
457,266,34158,1,0,1:1:0:0:
507,191,34348,1,0,0:0:0:0:
507,191,34443,1,0,1:1:0:0:
506,191,34537,2,0,P|497:157|466:142,1,71,8|2,2:1|1:3,0:0:0:0:
401,68,34917,6,0,P|384:71|366:72,3,35.5,4|0|0|0,1:2|1:1|1:1|1:1,0:0:0:0:
330,76,35297,1,8,1:1:0:0:
350,182,35487,1,0,1:1:0:0:
286,256,35677,1,0,1:1:0:0:
286,256,35772,2,0,P|245:247|211:242,1,71,8|0,1:1|1:1,0:0:0:0:
169,267,36056,2,0,P|128:258|94:253,1,71,8|2,2:1|1:3,0:0:0:0:
21,203,36436,5,4,1:2:0:0:
59,121,36626,1,0,1:1:0:0:
59,121,36721,1,2,2:3:0:0:
59,121,36816,2,0,P|50:80|45:46,1,71,8|0,1:1|1:1,0:0:0:0:
136,9,37196,1,4,1:2:0:0:
136,9,37386,1,0,1:1:0:0:
219,45,37575,2,0,P|213:80|205:114,1,71,8|0,1:1|1:1,0:0:0:0:
263,188,37955,6,0,P|284:179|300:177,3,35.5,2|2|2|2,1:2|1:2|1:2|1:2,0:0:0:0:
334,169,38335,1,8,1:1:0:0:
415,217,38525,2,0,P|418:234|421:251,1,35.5,2|2,2:2|2:2,0:0:0:0:
398,300,38715,6,0,P|401:317|404:334,3,35.5,10|10|0|2,2:2|2:2|0:0|2:2,0:0:0:0:
381,362,39094,1,2,2:3:0:0:
359,371,39189,1,2,2:3:0:0:
331,365,39283,1,2,2:3:0:0:
313,345,39378,1,2,2:3:0:0:
309,319,39473,1,4,2:2:0:0:
256,192,39569,12,2,45550,2:2:0:0:
261,0,51626,5,6,2:2:0:0:
253,171,52006,2,0,P|258:233|255:295,1,113.6,8|0,2:1|0:0,0:0:0:0:
320,356,52575,2,0,P|318:370|319:384,2,28.4,0|0|8,0:0|0:0|2:1,0:0:0:0:
344,341,52860,1,0,0:0:0:0:
434,372,53050,1,0,0:0:0:0:
434,372,53145,2,0,P|490:352|498:325,1,85.2,2|0,2:2|0:0,0:0:0:0:
491,304,53525,1,8,2:1:0:0:
427,157,53905,5,2,2:2:0:0:
427,157,54000,2,0,P|392:152|368:154,1,56.8,8|2,2:1|2:2,0:0:0:0:
345,167,54284,2,0,P|310:162|286:164,1,56.8,8|0,2:1|0:0,0:0:0:0:
202,119,54664,6,0,B|141:126|154:149|89:161,1,113.6,2|8,2:2|2:1,0:0:0:0:
19,113,55234,2,0,P|28:53|80:41,1,113.6,2|2,2:2|2:2,0:0:0:0:
157,0,55803,1,8,2:1:0:0:
257,36,55993,5,2,2:2:0:0:
257,36,56088,1,2,2:2:0:0:
257,36,56183,2,0,P|314:37|369:29,1,113.6,2|8,2:2|2:1,0:0:0:0:
471,169,56943,1,2,2:2:0:0:
471,169,57037,2,0,B|486:196|486:196|477:227,1,56.8,8|2,2:1|2:2,0:0:0:0:
464,245,57322,2,0,L|430:235,3,28.4,8|0|2|2,2:1|0:0|2:2|2:2,0:0:0:0:
406,226,57702,5,0,1:1:0:0:
322,273,57892,1,0,1:1:0:0:
322,273,57987,1,0,1:1:0:0:
322,273,58082,2,0,P|324:309|324:340,1,63.8999980499268,8|0,2:1|1:1,0:0:0:0:
223,368,58462,1,0,1:1:0:0:
223,368,58556,2,0,P|223:336|225:304,1,63.8999980499268,2|0,2:3|0:0,0:0:0:0:
194,272,58841,2,0,P|194:255|195:240,2,31.9499990249634,8|2|2,1:2|1:3|1:3,0:0:0:0:
158,285,59125,1,2,1:3:0:0:
128,277,59221,5,0,1:1:0:0:
47,217,59411,2,0,P|26:217|5:216,2,31.9499990249634,0|0|8,1:1|1:1|2:1,0:0:0:0:
94,130,59791,1,0,1:1:0:0:
193,148,59981,2,0,P|193:127|194:106,2,31.9499990249634,2|2|2,1:3|2:3|2:3,0:0:0:0:
286,143,60360,2,0,P|322:148|353:152,1,63.8999980499268,0|2,1:1|2:3,0:0:0:0:
410,230,60740,6,0,P|445:218|458:187,1,63.8999980499268,2|0,1:3|0:0,0:0:0:0:
483,177,61025,1,0,1:1:0:0:
483,177,61120,2,0,P|478:137|478:106,1,63.8999980499268,8|2,1:1|1:3,0:0:0:0:
421,18,61500,2,0,P|381:23|350:23,1,63.8999980499268,2|0,1:3|0:0,0:0:0:0:
331,41,61784,1,0,1:1:0:0:
331,41,61879,2,0,P|291:46|260:46,1,63.8999980499268,8|0,1:1|1:1,0:0:0:0:
178,65,62259,6,0,P|178:49|175:33,2,31.9499990249634,2|2|2,2:2|2:2|2:2,0:0:0:0:
245,135,62639,1,8,2:2:0:0:
167,194,62829,2,0,P|151:194|135:197,1,31.9499990249634,2|2,2:2|2:2,0:0:0:0:
99,207,63018,1,0,1:1:0:0:
99,207,63113,1,0,1:1:0:0:
13,235,63303,1,0,1:1:0:0:
13,235,63398,2,0,P|15:276|12:309,1,63.8999980499268,2|2,1:3|2:3,0:0:0:0:
92,369,63778,6,0,P|139:308|187:321,1,117.150003575134,4|0,1:1|1:1,0:0:0:0:
196,329,64158,1,8,1:1:0:0:
291,288,64348,2,0,P|277:225|273:208,1,78.1000023834229,2|0,1:3|1:1,0:0:0:0:
280,180,64632,1,0,1:1:0:0:
220,111,64822,1,0,1:1:0:0:
220,111,64917,2,0,P|228:72|237:34,1,78.1000023834229,8|2,1:1|2:3,0:0:0:0:
322,1,65297,6,0,P|378:5|402:60,1,117.150003575134,0|0,1:1|0:0,0:0:0:0:
407,93,65677,2,0,P|448:87|490:84,1,78.1000023834229,8|0,1:1|1:1,0:0:0:0:
491,182,66056,1,0,1:1:0:0:
491,182,66151,2,0,P|479:231|474:268,1,78.1000023834229,2|0,2:3|1:1,0:0:0:0:
482,300,66436,1,8,1:1:0:0:
318,360,66816,6,0,P|253:325|255:277,1,117.150003575134,0|0,1:1|1:1,0:0:0:0:
268,262,67196,2,0,P|317:250|354:245,1,78.1000023834229,8|0,1:1|1:1,0:0:0:0:
383,155,67575,1,0,1:1:0:0:
383,155,67765,2,0,P|370:113|366:77,1,78.1000023834229,0|8,1:1|1:1,0:0:0:0:
280,24,68145,5,2,2:3:0:0:
280,24,68240,1,2,2:3:0:0:
280,23,68335,2,0,P|242:34|203:40,1,78.1000023834229,0|0,1:1|0:0,0:0:0:0:
171,27,68620,1,0,1:1:0:0:
171,27,68715,2,0,P|131:43|115:83,1,78.1000023834229,8|0,1:1|0:0,0:0:0:0:
38,124,69094,1,0,1:1:0:0:
38,124,69189,2,0,P|47:168|53:204,1,78.1000023834229,8|0,1:1|1:1,0:0:0:0:
31,239,69474,1,8,1:1:0:0:
99,299,69664,1,0,1:1:0:0:
178,249,69854,6,0,P|181:229|185:210,3,39.0500011917115,0|2|2|2,1:1|2:3|2:3|2:3,0:0:0:0:
214,189,70234,2,0,P|254:203|268:240,2,78.1000023834229,8|2|0,1:1|2:3|1:1,0:0:0:0:
181,105,70803,1,2,2:3:0:0:
181,105,70993,2,0,P|214:71|244:73,1,78.1000023834229,8|2,1:1|2:3,0:0:0:0:
333,104,71373,2,0,P|370:115|415:121,1,78.1000023834229,0|0,1:1|0:0,0:0:0:0:
512,93,71753,2,0,P|501:130|495:175,1,78.1000023834229,8|0,1:1|0:0,0:0:0:0:
512,272,72132,5,0,1:1:0:0:
512,272,72227,2,0,P|468:280|427:291,1,78.1000023834229,8|0,1:1|1:1,0:0:0:0:
406,307,72512,1,8,1:1:0:0:
349,240,72702,1,2,2:3:0:0:
263,282,72892,6,0,P|190:301|174:346,1,117.150003575134,0|0,1:1|1:1,0:0:0:0:
141,355,73272,1,8,1:1:0:0:
42,327,73462,1,2,2:3:0:0:
42,327,73651,2,0,P|40:248|25:165,1,156.200004766846,0|8,1:1|1:1,0:0:0:0:
101,106,74221,5,2,2:3:0:0:
101,106,74411,2,0,P|142:121|154:161,1,78.1000023834229,0|2,1:1|2:3,0:0:0:0:
193,184,74696,1,0,0:0:0:0:
193,184,74791,2,0,P|200:227|171:257,1,78.1000023834229,8|2,1:1|2:3,0:0:0:0:
235,329,75170,1,0,1:1:0:0:
389,271,75550,2,0,P|424:275|466:286,1,78.1000023834229,8|2,1:1|1:3,0:0:0:0:
507,190,75930,6,0,P|460:129|412:142,1,117.150003575134,4|0,1:1|1:1,0:0:0:0:
400,147,76310,1,8,1:1:0:0:
344,72,76500,2,0,P|281:58|264:54,1,78.1000023834229,2|0,1:3|1:1,0:0:0:0:
240,66,76784,1,0,1:1:0:0:
285,150,76974,1,0,1:1:0:0:
285,150,77069,2,0,P|277:189|268:227,1,78.1000023834229,8|2,1:1|2:3,0:0:0:0:
199,289,77449,6,0,P|143:285|119:230,1,117.150003575134,0|0,1:1|0:0,0:0:0:0:
84,224,77829,2,0,P|80:183|75:141,1,78.1000023834229,8|0,1:1|1:1,0:0:0:0:
31,54,78208,1,0,1:1:0:0:
31,54,78303,2,0,P|81:47|117:39,1,78.1000023834229,2|0,2:3|1:1,0:0:0:0:
125,14,78588,1,8,1:1:0:0:
246,116,78968,6,0,B|253:178|210:176|220:237,1,117.150003575134,0|0,1:1|1:1,0:0:0:0:
230,254,79348,1,8,1:1:0:0:
263,358,79537,1,0,1:1:0:0:
263,358,79632,1,2,2:3:0:0:
262,357,79727,2,0,P|300:358|329:333,1,78.1000023834229,0|0,1:1|1:1,0:0:0:0:
395,272,80107,1,8,1:1:0:0:
395,272,80297,1,2,2:3:0:0:
483,305,80487,6,0,P|473:229|470:185,1,117.150003575134,0|0,1:1|1:1,0:0:0:0:
463,142,80867,2,0,P|420:148|382:150,1,78.1000023834229,8|0,1:1|0:0,0:0:0:0:
313,82,81246,1,0,1:1:0:0:
313,82,81341,2,0,P|274:88|256:132,1,78.1000023834229,8|0,1:1|1:1,0:0:0:0:
275,153,81626,2,0,P|276:172|278:191,3,39.0500011917115,8|0|0|2,1:1|0:0|1:1|2:3,0:0:0:0:
258,221,82006,6,0,P|249:273|244:308,1,78.1000023834229,0|2,1:1|2:3,0:0:0:0:
240,331,82291,1,2,2:3:0:0:
240,331,82386,1,8,1:1:0:0:
151,374,82575,2,0,P|103:359|72:353,1,78.1000023834229,0|0,1:1|1:1,0:0:0:0:
48,325,82860,1,0,1:1:0:0:
55,307,82954,1,2,2:3:0:0:
60,289,83049,1,2,2:3:0:0:
66,270,83145,2,0,P|70:251|75:233,3,39.0500011917115,8|2|0|0,1:1|2:3|1:1|1:1,0:0:0:0:
42,192,83525,6,0,P|38:138|90:110,1,117.150003575134,0|0,1:1|1:1,0:0:0:0:
118,85,83905,2,0,P|159:94|200:101,1,78.1000023834229,8|2,1:1|2:3,0:0:0:0:
286,52,84284,1,0,1:1:0:0:
285,51,84379,2,0,P|292:89|290:128,1,78.1000023834229,8|0,1:1|1:1,0:0:0:0:
278,159,84664,1,8,1:1:0:0:
215,241,84854,5,2,2:3:0:0:
215,241,84949,1,2,2:3:0:0:
215,241,85044,2,0,P|224:285|226:320,1,78.1000023834229,4|0,1:2|1:1,0:0:0:0:
311,367,85424,1,0,1:1:0:0:
311,367,85613,1,2,1:3:0:0:
402,330,85803,2,0,P|440:327|479:318,1,78.1000023834229,4|2,1:2|1:3,0:0:0:0:
418,234,86183,1,0,1:1:0:0:
418,234,86373,1,0,1:1:0:0:
475,158,86563,5,4,1:2:0:0:
479,139,86657,1,0,1:1:0:0:
482,120,86752,1,0,1:1:0:0:
484,100,86847,1,0,1:1:0:0:
485,81,86942,1,0,1:1:0:0:
404,27,87132,2,0,P|378:32|362:36,1,39.0500011917115,0|0,1:1|1:1,0:0:0:0:
320,11,87322,2,0,B|286:60|286:60|308:116,1,117.150003575134,4|4,1:2|1:2,0:0:0:0:
254,238,87892,5,2,1:3:0:0:
254,238,87987,1,2,1:3:0:0:
254,238,88082,2,0,B|189:253|211:295|144:311,1,127.799996099854,4|0,1:1|1:1,0:0:0:0:
124,328,88462,1,8,1:1:0:0:
30,297,88651,2,0,P|20:238|22:208,1,85.1999973999024,2|0,1:3|1:1,0:0:0:0:
41,187,88935,1,0,1:1:0:0:
17,94,89125,1,0,1:1:0:0:
17,94,89220,2,0,P|45:100|92:58,1,85.1999973999024,8|2,1:1|2:3,0:0:0:0:
166,12,89600,6,0,P|222:16|249:84,1,127.799996099854,0|0,1:1|0:0,0:0:0:0:
273,97,89981,2,0,P|264:139|256:182,1,85.1999973999024,8|0,1:1|1:1,0:0:0:0:
201,260,90359,1,0,1:1:0:0:
201,260,90454,2,0,P|250:272|293:276,1,85.1999973999024,0|0,1:1|1:1,0:0:0:0:
304,301,90740,1,8,1:1:0:0:
385,369,90930,5,2,2:3:0:0:
385,369,91025,1,2,2:3:0:0:
385,369,91120,2,0,P|438:349|447:283,1,127.799996099854,0|0,1:1|1:1,0:0:0:0:
479,264,91500,2,0,P|473:219|470:170,1,85.1999973999024,8|0,1:1|1:1,0:0:0:0:
464,84,91879,1,0,1:1:0:0:
464,84,91974,1,0,1:1:0:0:
464,84,92069,1,0,0:0:0:0:
379,29,92259,2,0,P|373:78|365:117,1,85.1999973999024,8|2,1:1|2:3,0:0:0:0:
335,136,92544,5,2,2:3:0:0:
335,136,92639,2,0,P|288:152|276:187,1,85.1999973999024,0|2,1:1|2:3,0:0:0:0:
349,246,93018,2,0,P|340:287|335:330,1,85.1999973999024,8|2,1:1|2:3,0:0:0:0:
246,354,93398,1,0,1:1:0:0:
246,354,93493,2,0,P|200:341|152:337,1,85.1999973999024,8|2,1:1|1:3,0:0:0:0:
115,341,93778,2,0,B|87:305|87:305|101:266,1,85.1999973999024,8|0,1:1|1:1,0:0:0:0:
28,209,94158,6,0,P|27:187|24:166,3,42.5999986999512,0|2|2|2,1:1|2:3|2:3|2:3,0:0:0:0:
56,131,94537,2,0,P|47:84|42:44,2,85.1999973999024,8|2|0,1:1|2:3|1:1,0:0:0:0:
142,72,95107,1,2,2:3:0:0:
142,72,95297,2,0,P|187:93|197:138,1,85.1999973999024,8|2,1:1|2:3,0:0:0:0:
139,197,95677,1,0,1:1:0:0:
191,278,95867,1,0,0:0:0:0:
191,278,95962,1,0,1:1:0:0:
191,278,96056,2,0,P|233:268|276:260,1,85.1999973999024,8|0,1:1|0:0,0:0:0:0:
367,310,96436,5,0,1:1:0:0:
367,310,96531,2,0,P|377:267|377:224,1,85.1999973999024,8|0,1:1|1:1,0:0:0:0:
370,193,96816,1,8,1:1:0:0:
284,152,97006,1,2,2:3:0:0:
318,63,97196,6,0,P|375:54|444:38,1,127.799996099854,0|0,1:1|1:1,0:0:0:0:
489,48,97575,2,0,P|487:93|478:151,1,85.1999973999024,8|2,1:1|2:3,0:0:0:0:
495,230,97955,1,0,1:1:0:0:
495,230,98050,1,2,2:3:0:0:
495,230,98145,2,0,P|487:276|484:333,1,85.1999973999024,2|8,2:3|1:1,0:0:0:0:
393,364,98525,5,2,2:3:0:0:
393,364,98715,2,0,P|352:337|347:297,1,85.1999973999024,4|0,1:2|1:1,0:0:0:0:
252,310,99094,2,0,P|254:260|287:236,1,85.1999973999024,0|0,1:1|1:1,0:0:0:0:
308,220,99379,1,0,1:1:0:0:
308,220,99474,2,0,P|337:190|336:148,1,85.1999973999024,4|0,1:2|1:1,0:0:0:0:
304,65,99854,1,0,1:1:0:0:
139,10,100234,5,0,1:1:0:0:
117,10,100328,1,0,1:1:0:0:
99,19,100423,1,0,1:1:0:0:
86,36,100518,1,0,1:1:0:0:
81,60,100613,6,0,P|91:111|96:145,1,85.1999973999024,12|2,1:1|1:3,0:0:0:0:
30,217,100993,1,0,1:1:0:0:
30,217,101088,2,0,P|31:265|64:288,1,85.1999973999024,0|0,1:1|1:1,0:0:0:0:
86,285,101373,1,8,1:1:0:0:
174,241,101563,5,2,2:3:0:0:
174,241,101658,1,2,2:3:0:0:
174,241,101753,2,0,P|228:255|244:327,1,127.799996099854,0|0,1:1|0:0,0:0:0:0:
238,349,102132,2,0,P|284:339|327:336,1,85.1999973999024,8|0,1:1|1:1,0:0:0:0:
418,366,102512,1,0,1:1:0:0:
418,366,102607,2,0,P|432:321|432:279,1,85.1999973999024,2|0,2:3|1:1,0:0:0:0:
413,239,102892,1,8,1:1:0:0:
448,142,103082,6,0,P|466:147|496:152,2,42.5999986999512,2|2|0,2:3|2:3|1:1,0:0:0:0:
485,53,103462,1,2,2:3:0:0:
485,53,103556,1,0,1:1:0:0:
485,53,103651,2,0,P|432:45|388:31,1,85.1999973999024,8|0,1:1|1:1,0:0:0:0:
355,46,103936,2,0,P|359:71|359:92,1,42.5999986999512,0|0,0:0|1:1,0:0:0:0:
283,150,104221,1,0,1:1:0:0:
300,243,104411,1,8,1:1:0:0:
300,243,104601,1,2,2:3:0:0:
226,313,104791,6,0,P|180:324|127:338,1,85.1999973999024,0|2,1:1|2:3,0:0:0:0:
98,320,105075,1,0,1:1:0:0:
98,320,105170,2,0,P|68:286|75:245,1,85.1999973999024,8|0,1:1|1:1,0:0:0:0:
125,177,105550,2,0,B|92:149|92:149|6:171,2,127.799996099854,4|4|4,1:2|1:2|1:2,0:0:0:0:
119,67,106310,6,0,P|137:23|176:12,1,85.1999973999024,4|0,1:2|1:0,0:0:0:0:
261,63,106689,1,0,1:1:0:0:
261,63,106784,1,0,1:1:0:0:
261,63,106879,2,0,P|252:115|247:158,1,85.1999973999024,0|0,1:1|1:1,0:0:0:0:
266,177,107164,1,2,2:3:0:0:
266,177,107259,2,0,P|257:229|252:272,1,85.1999973999024,0|2,1:1|1:3,0:0:0:0:
205,349,107639,5,2,1:3:0:0:
205,349,107734,1,2,2:3:0:0:
205,349,107829,2,0,B|276:337|266:391|353:380,1,127.799996099854,4|2,1:2|2:3,0:0:0:0:
371,351,108208,2,0,P|392:356|413:362,3,42.5999986999512,0|2|0|2,1:1|2:3|1:1|2:3,0:0:0:0:
445,334,108588,1,0,1:1:0:0:
445,334,108683,2,0,P|462:287|459:243,1,85.1999973999024,8|0,1:1|1:1,0:0:0:0:
436,216,108968,1,8,1:1:0:0:
341,230,109158,5,2,2:3:0:0:
341,230,109253,1,2,2:3:0:0:
341,230,109348,2,0,P|308:233|285:240,3,42.5999986999512,4|0|0|0,1:2|1:1|1:1|1:1,0:0:0:0:
251,216,109727,2,0,P|248:183|241:160,3,42.5999986999512,0|0|2|0,1:1|1:1|1:3|1:1,0:0:0:0:
283,144,110107,2,0,P|282:122|286:101,3,42.5999986999512,4|0|2|0,1:2|1:1|1:3|1:1,0:0:0:0:
266,70,110487,5,0,1:1:0:0:
242,67,110581,1,0,1:1:0:0:
218,64,110676,1,0,1:1:0:0:
194,60,110771,1,0,1:1:0:0:
171,56,110866,1,2,2:3:0:0:
80,97,111056,2,0,P|72:75|65:55,2,42.5999986999512,2|2|2,2:3|2:3|2:3,0:0:0:0:
17,163,111436,2,0,P|32:177|53:184,1,42.5999986999512,2|2,2:2|2:2,0:0:0:0:
91,213,111626,2,0,P|111:205|131:198,4,42.5999986999512,0|2|2|0|2,1:1|2:3|2:3|1:1|2:3,0:0:0:0:
34,284,112196,5,2,1:3:0:0:
34,284,112291,1,2,1:3:0:0:
34,284,112386,1,4,1:1:0:0:
