osu file format v14

[General]
AudioFilename: audio.mp3
AudioLeadIn: 0
PreviewTime: -1
Countdown: 1
SampleSet: Soft
StackLeniency: 0.4
Mode: 0
LetterboxInBreaks: 0
WidescreenStoryboard: 0

[Editor]
Bookmarks: 127,6202,12278,18354,24430,36582,48734,60886,73038,85190,97342,109494,121645,133797,139873,145949
DistanceSpacing: 1.7
BeatDivisor: 4
GridSize: 16
TimelineZoom: 1.8

[Metadata]
Title:Silent Rush
TitleUnicode:Silent Rush
Artist:Soleily
ArtistUnicode:Soleily
Creator:yaspo
Version:Planetary Exploration
Source:Arcaea
Tags:
BeatmapID:1694398
BeatmapSetID:807312

[Difficulty]
HPDrainRate:6
CircleSize:4
OverallDifficulty:8
ApproachRate:9.3
SliderMultiplier:1.6
SliderTickRate:1

[Events]
//Background and Video events
0,0,"planet_ray_light_stars_65150_1920x1080.jpg",0,0
//Break Periods
//Storyboard Layer 0 (Background)
//Storyboard Layer 1 (Fail)
//Storyboard Layer 2 (Pass)
//Storyboard Layer 3 (Foreground)
//Storyboard Sound Samples

[TimingPoints]
127,379.746835443038,4,2,1,70,1,0
12278,-66.6666666666667,4,2,1,100,0,0
24430,-66.6666666666667,4,2,1,85,0,0
63164,-100,4,2,1,100,0,0
63924,-66.6666666666667,4,2,1,100,0,0
71709,-66.6666666666667,4,2,1,70,0,0
73038,-100,4,2,1,100,0,0
97342,-50,4,2,1,100,0,0
120886,-100,4,2,1,100,0,0
121519,-50,4,2,1,100,0,0
145949,-200,4,2,1,100,0,0
146139,-200,4,2,2,5,0,0
146519,-200,4,2,2,60,0,0
146899,-200,4,2,2,5,0,0
147278,-200,4,2,2,60,0,0
147658,-200,4,2,2,5,0,0
148038,-200,4,2,2,60,0,0
148418,-200,4,2,2,5,0,0
148797,-200,4,2,2,60,0,0
149177,-200,4,2,2,5,0,0

[Colours]
Combo1 : 0,128,192
Combo2 : 128,128,192
Combo3 : 0,108,217
Combo4 : 87,51,232

[HitObjects]
144,320,127,5,2,0:1:0:0:
256,240,506,1,2,0:1:0:0:
384,320,886,1,2,0:1:0:0:
512,240,1265,1,2,0:1:0:0:
384,160,1645,6,0,L|403:60,1,80,2|0,0:1|0:0,0:0:0:0:
256,240,2025,2,0,L|275:339,1,80,2|0,0:1|0:0,0:0:0:0:
144,160,2405,2,0,L|163:60,1,80,2|0,0:1|0:0,0:0:0:0:
16,240,2785,2,0,L|35:339,1,80,2|0,0:1|0:0,0:0:0:0:
64,80,3164,6,0,L|53:28,2,40,2|0|0,0:1|0:0|0:0,0:0:0:0:
224,176,3544,2,0,L|204:275,1,80,2|0,0:1|0:0,0:0:0:0:
352,80,3924,2,0,L|341:28,2,40,2|0|0,0:1|0:0|0:0,0:0:0:0:
512,176,4304,2,0,L|492:275,1,80,2|0,0:1|0:0,0:0:0:0:
352,336,4683,6,0,L|363:388,2,40,2|0|0,0:1|0:0|0:0,0:0:0:0:
192,272,5063,2,0,L|183:311,2,40,2|0|0,0:1|0:0|0:0,0:0:0:0:
32,208,5443,2,0,L|43:260,2,40,2|0|0,0:1|0:0|0:0,0:0:0:0:
48,80,5823,2,0,L|40:42,6,20,2|0|0|0|0|0|0,0:1|0:0|0:0|0:0|0:0|0:0|0:0,0:0:0:0:
96,160,6202,5,2,0:1:0:0:
128,32,6392,1,2,0:3:0:0:
192,224,6582,1,2,0:1:0:0:
224,96,6772,1,2,0:3:0:0:
304,288,6962,1,2,0:1:0:0:
336,160,7152,1,2,0:3:0:0:
416,352,7342,1,2,0:1:0:0:
448,224,7532,1,2,0:3:0:0:
304,336,7721,6,0,L|296:297,1,40,2|0,0:1|0:0,0:0:0:0:
272,208,7911,1,2,0:3:0:0:
96,336,8101,2,0,L|88:297,1,40,2|0,0:1|0:0,0:0:0:0:
64,208,8291,1,2,0:3:0:0:
288,336,8481,2,0,L|279:297,1,40,2|0,0:1|0:0,0:0:0:0:
256,208,8671,1,2,0:3:0:0:
80,336,8861,2,0,L|71:297,1,40,2|0,0:1|0:0,0:0:0:0:
48,208,9051,1,2,0:3:0:0:
240,208,9240,5,2,0:1:0:0:
112,128,9430,2,0,L|151:136,1,40,2|0,0:3|0:0,0:0:0:0:
352,160,9620,1,2,0:1:0:0:
224,80,9810,2,0,L|263:88,1,40,2|0,0:3|0:0,0:0:0:0:
464,112,10000,1,2,0:1:0:0:
336,32,10190,2,0,L|375:40,1,40,2|0,0:3|0:0,0:0:0:0:
448,240,10380,2,0,L|482:246,3,20,2|0|0|0,0:1|0:0|0:0|0:0,0:0:0:0:
480,208,10570,2,0,L|514:214,3,20,2|0|0|0,0:3|0:0|0:0|0:0,0:0:0:0:
352,112,10759,5,8,0:1:0:0:
166,288,11044,1,2,0:1:0:0:
166,288,11139,1,2,0:3:0:0:
166,288,11329,1,2,0:1:0:0:
71,194,11519,2,0,L|74:144,1,26.6666666666667,2|0,0:0|0:0,0:0:0:0:
124,156,11645,2,0,L|150:116,1,26.6666666666667,2|2,0:0|0:0,0:0:0:0:
188,150,11772,2,0,L|230:129,1,26.6666666666667,2|2,0:0|0:0,0:0:0:0:
246,176,11899,2,0,L|292:179,1,26.6666666666667,2|2,0:0|0:0,0:0:0:0:
283,229,12026,2,0,L|322:255,1,26.6666666666667,2|2,0:0|0:0,0:0:0:0:
488,332,12183,5,0,0:0:0:0:
488,332,12278,2,0,P|510:260|484:148,1,180.000006866455,2|0,0:1|0:0,0:0:0:0:
393,63,12658,2,0,P|378:116|407:211,1,120.000004577637,8|0,0:1|0:0,0:0:0:0:
400,320,13038,5,2,0:1:0:0:
256,240,13228,1,0,0:0:0:0:
112,320,13418,1,8,0:1:0:0:
75,74,13608,5,2,0:0:0:0:
35,81,13702,1,2,0:0:0:0:
5,100,13797,2,0,P|-17:172|9:284,1,180.000006866455,2|0,0:1|0:0,0:0:0:0:
102,337,14177,2,0,P|117:284|88:189,1,120.000004577637,10|0,0:1|0:0,0:0:0:0:
140,76,14557,6,0,L|60:92,1,60.0000022888184,2|0,0:1|0:0,0:0:0:0:
285,168,14747,2,0,L|205:152,1,60.0000022888184,8|0,0:1|0:0,0:0:0:0:
387,26,14937,2,0,L|328:37,1,60.0000022888184,8|0,0:1|0:0,0:0:0:0:
454,264,15127,5,2,0:0:0:0:
481,254,15221,1,2,0:0:0:0:
508,243,15316,2,0,P|523:190|494:95,1,120.000004577637,2|0,0:1|0:0,0:0:0:0:
380,16,15601,1,2,0:0:0:0:
362,32,15696,2,0,P|347:85|376:180,1,120.000004577637,8|0,0:1|0:0,0:0:0:0:
352,320,16076,5,2,0:1:0:0:
304,295,16170,1,0,0:0:0:0:
256,272,16265,1,0,0:0:0:0:
208,297,16360,1,0,0:0:0:0:
160,320,16455,1,8,0:1:0:0:
65,80,16645,5,2,0:0:0:0:
39,92,16739,1,2,0:0:0:0:
13,104,16834,2,0,P|-2:157|27:252,1,120.000004577637,2|0,0:1|0:0,0:0:0:0:
142,336,17119,1,2,0:0:0:0:
160,320,17214,2,0,P|175:267|146:172,1,120.000004577637,8|0,0:1|0:0,0:0:0:0:
158,49,17595,5,2,0:1:0:0:
207,72,17690,1,0,0:0:0:0:
256,48,17785,1,8,0:1:0:0:
304,22,17880,1,0,0:0:0:0:
353,45,17975,1,8,0:1:0:0:
313,230,18164,1,2,3:2:0:0:
302,208,18259,1,2,3:2:0:0:
292,186,18354,6,0,L|308:106,1,60.0000022888184,2|0,3:1|3:0,3:0:0:0:
475,28,18544,1,0,3:0:0:0:
486,50,18639,1,0,3:0:0:0:
496,72,18734,2,0,L|480:152,1,60.0000022888184,8|0,3:1|3:0,3:0:0:0:
293,246,18924,1,0,3:0:0:0:
282,224,19019,1,0,3:0:0:0:
272,202,19114,2,0,L|288:122,1,60.0000022888184,2|0,3:1|3:0,3:0:0:0:
459,46,19304,1,0,3:0:0:0:
470,68,19399,1,0,3:0:0:0:
478,90,19494,1,8,3:1:0:0:
290,24,19683,5,2,3:2:0:0:
262,18,19778,1,2,3:2:0:0:
240,15,19873,1,2,3:1:0:0:
228,55,19967,1,0,3:0:0:0:
218,95,20062,1,0,3:0:0:0:
208,135,20157,1,0,3:0:0:0:
199,176,20253,2,0,L|183:237,1,60.0000022888184,8|0,3:1|3:0,3:0:0:0:
344,278,20443,5,0,3:0:0:0:
372,284,20538,1,0,3:0:0:0:
394,287,20633,1,2,3:1:0:0:
406,247,20727,1,0,3:0:0:0:
416,207,20822,1,0,3:0:0:0:
426,167,20917,1,0,3:0:0:0:
435,126,21013,2,0,L|451:65,1,60.0000022888184,8|0,3:1|3:0,3:0:0:0:
268,257,21202,5,2,3:2:0:0:
226,247,21297,1,2,3:2:0:0:
185,234,21392,1,2,3:1:0:0:
195,192,21487,1,0,3:0:0:0:
208,150,21582,1,0,3:0:0:0:
220,109,21677,1,0,3:0:0:0:
232,68,21772,1,8,3:1:0:0:
191,52,21867,1,0,3:0:0:0:
150,41,21962,1,0,3:0:0:0:
108,27,22057,1,0,3:0:0:0:
66,15,22152,5,2,3:1:0:0:
55,57,22247,1,0,3:0:0:0:
43,99,22342,1,0,3:0:0:0:
30,140,22437,1,0,3:0:0:0:
18,182,22532,1,8,3:1:0:0:
59,197,22627,1,0,3:0:0:0:
101,209,22722,1,0,3:0:0:0:
142,222,22817,1,0,3:0:0:0:
177,200,22911,5,2,0:3:0:0:
211,176,23006,1,2,0:3:0:0:
247,154,23101,1,2,0:3:0:0:
280,179,23196,1,2,0:3:0:0:
313,204,23291,1,2,0:3:0:0:
243,366,23576,1,2,0:1:0:0:
142,315,23766,5,8,0:1:0:0:
142,323,23861,1,0,0:0:0:0:
142,331,23956,1,0,0:0:0:0:
142,339,24051,2,0,L|63:370,3,60.0000022888184
57,246,24430,5,6,0:1:0:0:
96,222,24524,1,0,0:0:0:0:
142,215,24619,1,0,0:0:0:0:
188,223,24714,1,0,0:0:0:0:
232,238,24809,1,8,0:1:0:0:
275,256,24904,1,0,0:0:0:0:
320,270,24999,1,0,0:0:0:0:
366,276,25094,1,0,0:0:0:0:
412,269,25189,1,2,0:1:0:0:
453,248,25284,1,0,0:0:0:0:
476,207,25380,6,0,P|484:170|477:121,1,60.0000022888184,4|0,0:1|0:0,0:0:0:0:
306,343,25570,2,0,P|342:351|391:344,1,60.0000022888184,14|0,0:1|0:0,0:0:0:0:
283,108,25759,2,8,P|250:127|221:167,1,60.0000022888184,4|0,0:1|0:0,0:0:0:0:
57,246,25949,5,6,0:1:0:0:
47,197,26043,1,0,0:0:0:0:
56,148,26138,1,0,0:0:0:0:
86,108,26233,1,0,0:0:0:0:
128,82,26328,1,8,0:1:0:0:
177,75,26423,1,0,0:0:0:0:
224,88,26518,1,0,0:0:0:0:
263,121,26613,1,0,0:0:0:0:
286,163,26708,1,2,0:1:0:0:
290,213,26803,1,0,0:1:0:0:
272,260,26898,5,4,0:1:0:0:
47,197,27088,1,12,0:1:0:0:
224,88,27278,1,4,0:1:0:0:
2,268,27468,5,6,0:1:0:0:
51,278,27562,1,0,0:0:0:0:
99,267,27657,1,0,0:0:0:0:
139,237,27752,5,4,0:1:0:0:
186,218,27847,1,8,0:1:0:0:
240,220,27942,1,0,0:0:0:0:
284,249,28038,5,4,0:1:0:0:
330,286,28132,1,0,0:0:0:0:
389,290,28227,1,2,0:1:0:0:
438,258,28322,1,0,0:0:0:0:
459,203,28417,1,0,0:0:0:0:
443,146,28512,1,0,0:0:0:0:
396,110,28607,1,8,0:1:0:0:
344,112,28702,1,0,0:0:0:0:
293,141,28797,1,0,0:0:0:0:
278,190,28892,1,0,0:0:0:0:
284,249,28987,5,2,0:1:0:0:
160,160,29177,2,0,L|48:176,1,60.0000022888184
0,224,29367,2,0,L|112:240,1,60.0000022888184,8|0,0:1|0:0,0:0:0:0:
160,288,29557,2,0,L|48:304,1,60.0000022888184
24,104,29747,1,2,0:1:0:0:
24,104,29842,1,8,0:1:0:0:
24,104,29937,5,12,0:1:0:0:
183,12,30127,1,12,0:1:0:0:
320,105,30316,1,4,0:1:0:0:
84,26,30506,5,6,0:1:0:0:
49,60,30600,1,0,0:0:0:0:
24,104,30695,1,0,0:0:0:0:
12,152,30790,1,0,0:0:0:0:
13,202,30885,1,8,0:1:0:0:
27,249,30980,1,0,0:0:0:0:
54,291,31075,5,4,0:1:0:0:
105,272,31170,1,0,0:0:0:0:
146,243,31265,1,2,0:1:0:0:
178,205,31360,1,0,0:0:0:0:
198,159,31455,1,0,0:0:0:0:
205,110,31550,1,0,0:0:0:0:
199,60,31645,1,12,0:1:0:0:
103,149,31835,1,4,0:1:0:0:
277,306,32026,5,6,0:1:0:0:
313,271,32120,1,0,0:0:0:0:
338,227,32215,1,0,0:0:0:0:
350,179,32310,1,0,0:0:0:0:
349,129,32405,1,8,0:1:0:0:
335,82,32500,1,0,0:0:0:0:
308,40,32595,5,4,0:1:0:0:
354,58,32689,1,0,0:0:0:0:
393,89,32784,1,2,0:1:0:0:
423,129,32879,1,0,0:0:0:0:
441,176,32974,1,0,0:0:0:0:
445,225,33069,1,0,0:0:0:0:
436,274,33164,1,12,0:1:0:0:
338,227,33354,1,4,0:1:0:0:
198,346,33543,5,6,0:1:0:0:
150,350,33638,1,0,0:0:0:0:
109,346,33733,1,0,0:0:0:0:
80,336,33828,1,0,0:0:0:0:
52,320,33923,1,8,0:1:0:0:
35,301,34019,1,0,0:0:0:0:
28,284,34114,2,0,P|17:211|61:137,1,120.000004577637,4|2,0:1|0:1,0:0:0:0:
191,50,34494,2,0,P|202:122|157:196,1,120.000004577637,4|8,0:1|0:1,0:0:0:0:
198,346,34873,5,4,0:1:0:0:
215,269,34967,1,0,0:0:0:0:
262,214,35062,1,2,0:1:0:0:
310,186,35157,1,0,0:0:0:0:
349,177,35252,1,0,0:0:0:0:
385,175,35347,1,0,0:0:0:0:
405,178,35443,6,0,L|379:110,1,60.0000022888184,8|0,0:1|0:0,0:0:0:0:
308,78,35633,2,0,L|240:104,1,60.0000022888184
385,45,35823,1,2,0:1:0:0:
512,19,36013,5,2,0:0:0:0:
512,92,36108,1,2,0:0:0:0:
512,151,36202,1,2,0:0:0:0:
512,185,36297,1,2,0:0:0:0:
512,216,36392,1,2,0:0:0:0:
512,238,36487,1,2,0:0:0:0:
512,255,36583,5,6,0:1:0:0:
446,227,36677,1,0,0:0:0:0:
374,223,36772,1,0,0:0:0:0:
304,240,36867,1,0,0:0:0:0:
253,260,36962,1,8,0:1:0:0:
207,275,37057,1,0,0:0:0:0:
160,287,37152,1,0,0:0:0:0:
112,290,37247,1,0,0:0:0:0:
65,277,37342,1,2,0:1:0:0:
24,250,37437,1,0,0:0:0:0:
8,204,37532,6,0,P|6:166|21:119,1,60.0000022888184,4|0,0:1|0:0,0:0:0:0:
204,353,37721,2,0,P|167:364|118:361,1,60.0000022888184,12|0,2:1|2:0,2:0:0:0:
234,100,37911,2,0,P|254:132|264:180,1,60.0000022888184,4|0,2:1|2:0,2:0:0:0:
468,245,38101,5,6,0:1:0:0:
491,176,38196,1,0,0:0:0:0:
474,105,38291,1,0,0:0:0:0:
423,54,38386,1,0,0:0:0:0:
372,34,38481,1,8,0:1:0:0:
324,37,38576,1,0,0:0:0:0:
279,55,38671,1,0,0:0:0:0:
244,88,38766,1,0,0:0:0:0:
223,131,38861,1,2,0:1:0:0:
218,178,38956,1,0,0:0:0:0:
228,229,39051,5,4,0:1:0:0:
403,124,39240,1,12,0:1:0:0:
280,300,39430,1,4,0:1:0:0:
512,259,39620,5,6,0:1:0:0:
460,309,39715,1,0,0:0:0:0:
389,324,39810,1,0,0:0:0:0:
324,291,39905,5,4,0:1:0:0:
252,288,40000,1,8,0:1:0:0:
192,329,40095,1,0,0:0:0:0:
141,336,40190,5,4,0:1:0:0:
94,328,40284,1,0,0:0:0:0:
55,300,40379,1,2,0:1:0:0:
26,262,40474,1,0,0:0:0:0:
12,216,40569,1,0,0:0:0:0:
14,169,40664,1,0,0:0:0:0:
32,124,40759,1,8,0:1:0:0:
63,88,40854,1,0,0:0:0:0:
106,66,40949,1,2,0:0:0:0:
153,58,41044,1,2,0:0:0:0:
153,58,41139,6,0,L|256:80,1,60.0000022888184,2|0,0:1|0:0,0:0:0:0:
296,139,41329,2,0,L|193:161,1,60.0000022888184
150,217,41519,2,0,L|253:239,1,60.0000022888184,8|0,0:1|0:0,0:0:0:0:
472,248,41709,1,4,0:1:0:0:
404,222,41804,1,0,0:0:0:0:
332,238,41899,1,8,0:1:0:0:
289,271,41994,1,8,0:1:0:0:
267,313,42089,6,0,P|237:320|186:317,1,60.0000022888184,8|0,0:1|0:0,0:0:0:0:
0,269,42278,2,0,P|30:262|81:265,1,60.0000022888184,8|0,0:1|0:0,0:0:0:0:
279,331,42468,2,0,P|249:338|198:335,1,60.0000022888184
31,121,42658,5,6,3:1:0:0:
31,121,42753,2,0,L|64:179,1,60.0000022888184,0|0,3:0|3:0,3:0:0:0:
149,263,42943,1,4,3:1:0:0:
149,263,43038,2,0,L|207:229,1,60.0000022888184,8|0,3:1|3:0,3:0:0:0:
311,157,43228,5,4,3:1:0:0:
287,118,43323,1,0,3:0:0:0:
262,77,43418,1,2,3:1:0:0:
240,36,43513,1,0,3:0:0:0:
209,0,43608,2,0,L|154:33,1,60.0000022888184,0|0,3:0|3:0,3:0:0:0:
34,224,43797,5,8,3:1:0:0:
32,212,43892,1,2,3:2:0:0:
31,201,43987,1,2,3:2:0:0:
30,190,44082,1,2,3:2:0:0:
29,181,44177,5,6,3:1:0:0:
79,148,44272,1,0,3:0:0:0:
133,123,44367,1,0,3:0:0:0:
187,97,44462,5,4,3:1:0:0:
218,147,44557,1,8,3:1:0:0:
250,197,44652,1,0,3:0:0:0:
279,249,44747,5,4,3:1:0:0:
318,224,44842,1,0,3:0:0:0:
359,200,44937,1,2,3:1:0:0:
399,178,45032,1,0,3:0:0:0:
439,150,45127,2,0,L|500:110,1,60.0000022888184,0|0,3:0|3:0,3:0:0:0:
234,4,45316,1,2,3:1:0:0:
307,114,45506,1,2,0:1:0:0:
488,245,45696,5,6,0:1:0:0:
461,291,45791,1,0,0:0:0:0:
436,339,45886,1,2,0:1:0:0:
390,310,45981,1,0,0:0:0:0:
343,282,46076,1,2,0:1:0:0:
369,234,46171,1,0,0:0:0:0:
397,188,46266,1,2,0:1:0:0:
353,156,46361,1,0,0:0:0:0:
305,130,46456,5,2,0:1:0:0:
277,176,46551,1,0,0:0:0:0:
252,223,46645,1,2,0:1:0:0:
202,201,46740,1,0,0:0:0:0:
156,172,46835,1,2,0:1:0:0:
180,123,46930,1,0,0:0:0:0:
205,75,47025,5,8,0:1:0:0:
141,41,47120,1,8,0:1:0:0:
75,11,47215,2,0,L|4:163,1,120.000004577637,8|0,0:1|0:0,0:0:0:0:
31,197,47500,1,8,0:1:0:0:
31,197,47595,1,2,0:1:0:0:
202,201,47785,2,0,L|354:272,1,120.000004577637,2|0,0:1|0:0,0:0:0:0:
421,351,48070,2,0,L|269:280,1,120.000004577637,2|0,0:1|0:0,0:0:0:0:
177,249,48354,1,0,0:1:0:0:
256,64,48544,6,0,L|299:46,4,30.0000011444092,2|0|2|0|2,0:1|0:1|0:1|0:1|0:1,0:0:0:0:
57,249,48924,1,2,0:1:0:0:
57,249,49019,2,0,L|181:249,1,120.000004577637,8|0,0:3|0:0,0:0:0:0:
312,300,49304,5,2,0:1:0:0:
511,115,49494,1,2,0:1:0:0:
511,115,49589,2,0,L|387:115,1,120.000004577637,8|0,0:3|0:0,0:0:0:0:
256,64,49874,5,2,0:1:0:0:
128,192,50063,1,2,0:1:0:0:
256,304,50253,5,2,0:1:0:0:
511,115,50443,1,2,0:1:0:0:
511,115,50538,2,0,L|356:115,1,120.000004577637,8|0,0:3|0:0,0:0:0:0:
256,192,50823,5,2,0:1:0:0:
512,272,51013,1,2,0:1:0:0:
512,272,51108,2,0,L|352:272,1,120.000004577637,8|0,0:3|0:0,0:0:0:0:
256,336,51392,5,2,0:1:0:0:
349,188,51582,1,2,0:1:0:0:
349,188,51677,1,2,0:1:0:0:
349,188,51772,1,2,0:1:0:0:
80,240,51962,5,2,0:1:0:0:
80,240,52057,1,8,0:3:0:0:
128,240,52152,1,0,0:0:0:0:
176,240,52247,1,0,0:0:0:0:
224,240,52342,1,2,0:1:0:0:
0,80,52532,5,2,0:1:0:0:
0,80,52627,1,8,0:3:0:0:
48,80,52722,1,0,0:0:0:0:
96,80,52817,1,0,0:0:0:0:
144,80,52912,1,2,0:1:0:0:
80,240,53101,1,2,0:1:0:0:
256,128,53291,1,2,0:1:0:0:
496,176,53481,5,2,0:1:0:0:
496,176,53576,1,8,0:3:0:0:
448,176,53671,1,0,0:0:0:0:
400,176,53766,1,0,0:0:0:0:
352,176,53861,1,2,0:1:0:0:
128,336,54051,5,2,0:1:0:0:
128,336,54146,1,8,0:3:0:0:
176,336,54241,1,0,0:0:0:0:
224,336,54336,1,0,0:0:0:0:
272,336,54431,1,2,0:1:0:0:
368,128,54620,5,10,0:1:0:0:
352,176,54715,1,10,0:1:0:0:
336,224,54810,1,10,0:1:0:0:
512,272,55000,5,2,0:1:0:0:
496,320,55095,1,8,0:3:0:0:
448,320,55190,1,0,0:0:0:0:
400,320,55285,1,0,0:0:0:0:
352,320,55380,1,2,0:1:0:0:
192,272,55570,5,2,0:1:0:0:
176,320,55665,1,8,0:3:0:0:
128,320,55760,1,0,0:0:0:0:
80,320,55855,1,0,0:0:0:0:
32,320,55950,1,2,0:1:0:0:
176,176,56139,1,2,0:1:0:0:
352,256,56329,1,2,0:1:0:0:
512,128,56519,5,2,0:1:0:0:
496,176,56614,1,8,0:3:0:0:
448,176,56709,1,0,0:0:0:0:
400,176,56804,1,0,0:0:0:0:
352,176,56899,1,2,0:1:0:0:
224,224,57089,5,2,0:1:0:0:
208,176,57184,1,8,0:3:0:0:
160,176,57279,1,0,0:0:0:0:
112,176,57374,1,0,0:0:0:0:
64,176,57469,1,2,0:1:0:0:
5,24,57658,5,10,0:1:0:0:
35,100,57753,1,10,0:1:0:0:
64,176,57848,1,10,0:1:0:0:
240,16,58038,5,2,0:1:0:0:
269,92,58133,1,8,0:3:0:0:
317,92,58228,1,0,0:0:0:0:
365,92,58323,1,0,0:0:0:0:
413,92,58418,1,2,0:1:0:0:
35,100,58608,5,2,0:1:0:0:
64,176,58703,1,8,0:3:0:0:
112,176,58798,1,0,0:0:0:0:
160,176,58893,1,0,0:0:0:0:
208,176,58988,1,2,0:1:0:0:
256,336,59177,1,2,0:1:0:0:
352,192,59367,1,2,0:1:0:0:
480,352,59557,5,2,0:1:0:0:
451,276,59652,1,8,0:3:0:0:
403,276,59747,1,0,0:0:0:0:
355,276,59842,1,0,0:0:0:0:
307,276,59937,1,2,0:1:0:0:
448,160,60127,5,0,0:1:0:0:
419,84,60222,1,0,0:1:0:0:
371,84,60317,1,0,0:1:0:0:
323,84,60412,1,0,0:1:0:0:
275,84,60506,6,0,L|235:83,2,30.0000011444092,2|0|2,0:1|0:0|0:1,0:0:0:0:
163,148,60696,2,0,L|147:148,4,15.0000005722046,2|0|2|0|2,0:1|0:1|0:1|0:1|0:1,0:0:0:0:
32,272,60886,5,10,0:1:0:0:
112,272,60981,1,10,0:1:0:0:
192,272,61076,1,10,0:1:0:0:
240,336,61171,1,10,0:3:0:0:
371,84,61456,5,10,0:1:0:0:
291,84,61551,1,10,0:1:0:0:
211,84,61646,1,10,0:1:0:0:
163,148,61741,1,10,0:3:0:0:
480,272,62025,5,8,0:1:0:0:
416,272,62120,1,8,0:1:0:0:
352,272,62215,1,8,0:1:0:0:
288,272,62310,1,8,0:1:0:0:
240,336,62405,5,10,0:1:0:0:
160,336,62500,1,10,0:1:0:0:
80,336,62595,1,10,0:1:0:0:
32,272,62690,1,10,0:3:0:0:
256,176,62975,5,10,0:1:0:0:
336,176,63070,1,10,0:1:0:0:
416,176,63164,6,0,L|430:132,4,26.6666666666667,2|0|2|0|2,1:2|0:0|0:0|0:0|0:0,0:0:0:0:
480,288,63544,2,0,L|458:272,1,26.6666666666667,2|0,0:0|0:0,0:0:0:0:
414,275,63671,2,0,L|387:272,1,26.6666666666667,2|2,0:0|0:0,0:0:0:0:
368,306,63797,2,0,L|343:316,1,26.6666666666667,2|2,0:0|0:0,0:0:0:0:
256,352,63924,5,10,0:1:0:0:
176,352,64019,1,10,0:1:0:0:
112,304,64114,1,10,0:1:0:0:
32,304,64209,1,10,0:3:0:0:
32,80,64494,5,10,0:1:0:0:
112,80,64589,1,10,0:1:0:0:
176,128,64684,1,10,0:1:0:0:
256,128,64779,1,10,0:3:0:0:
496,112,65063,6,0,L|505:79,2,30.0000011444092,2|0|2,0:1|0:0|0:1,0:0:0:0:
416,144,65253,2,0,L|425:111,2,30.0000011444092,2|0|2,0:1|0:0|0:1,0:0:0:0:
496,224,65443,5,10,0:1:0:0:
416,256,65538,1,10,0:1:0:0:
336,288,65633,1,10,0:1:0:0:
256,256,65728,2,0,L|256:316,2,60.0000022888184,10|0|0,0:3|0:0|0:0,0:0:0:0:
96,112,66013,5,10,0:1:0:0:
176,144,66108,1,10,0:1:0:0:
256,176,66203,1,10,0:1:0:0:
336,144,66298,2,0,L|336:204,2,60.0000022888184,10|0|0,0:3|0:0|0:0,0:0:0:0:
208,32,66582,6,0,L|256:32,2,30.0000011444092,2|0|2,0:1|0:0|0:1,0:0:0:0:
96,112,66772,2,0,L|112:112,4,15.0000005722046,2|0|2|0|2,0:1|0:0|0:1|0:0|0:1,0:0:0:0:
0,224,66962,5,10,0:1:0:0:
80,224,67057,1,10,0:1:0:0:
160,224,67152,1,10,0:1:0:0:
208,288,67247,1,10,0:3:0:0:
208,300,67342,1,0,0:0:0:0:
208,311,67437,1,0,0:0:0:0:
208,322,67532,5,10,0:1:0:0:
288,322,67627,1,10,0:1:0:0:
368,322,67722,1,10,0:1:0:0:
416,258,67817,1,10,0:3:0:0:
416,248,67911,1,0,0:0:0:0:
416,239,68006,1,0,0:0:0:0:
415,229,68101,5,8,0:1:0:0:
351,229,68196,1,8,0:1:0:0:
287,229,68291,1,8,0:1:0:0:
223,229,68386,1,8,0:1:0:0:
256,152,68481,5,10,0:1:0:0:
208,88,68576,1,10,0:1:0:0:
128,88,68671,1,10,0:1:0:0:
48,88,68766,1,10,0:3:0:0:
16,368,69051,5,10,0:1:0:0:
82,317,69145,1,10,0:1:0:0:
80,240,69240,1,10,0:1:0:0:
80,160,69335,1,10,0:3:0:0:
90,160,69430,1,0,0:0:0:0:
99,161,69525,1,0,0:0:0:0:
107,161,69620,5,10,0:1:0:0:
176,208,69715,1,10,0:1:0:0:
256,160,69810,1,10,0:1:0:0:
336,112,69905,1,10,0:3:0:0:
416,160,70000,6,0,L|432:128,2,30.0000011444092,2|0|2,0:1|0:0|0:1,0:0:0:0:
359,259,70190,5,8,0:1:0:0:
445,276,70285,2,0,L|474:256,2,30.0000011444092,2|0|2,0:1|0:0|0:1,0:0:0:0:
280,296,70475,5,8,2:1:0:0:
328,367,70570,2,0,L|362:373,2,30.0000011444092,2|0|2,3:1|3:0|3:1,3:0:0:0:
198,268,70759,5,8,2:1:0:0:
180,351,70854,2,0,L|200:379,2,30.0000011444092,2|0|2,3:1|3:0|3:1,3:0:0:0:
168,187,71044,5,8,2:1:0:0:
95,230,71139,2,0,L|88:264,2,30.0000011444092,2|2|2,3:1|3:1|3:1,3:0:0:0:
72,66,71329,6,0,L|65:31,2,30.0000011444092,2|0|0,2:1|3:0|3:0,3:0:0:0:
95,146,71519,1,8,0:1:0:0:
306,45,71804,1,2,0:0:0:0:
470,136,72089,1,2,0:0:0:0:
460,283,72373,1,2,0:0:0:0:
379,329,72658,1,8,0:3:0:0:
256,256,72848,1,2,0:0:0:0:
230,288,72943,1,2,0:0:0:0:
197,311,73038,6,0,P|76:292|23:170,1,240,2|2,0:0|0:0,0:0:0:0:
188,93,74177,1,2,0:0:0:0:
396,313,74557,2,0,P|484:228|486:159,1,160,2|0,0:0|0:0,0:0:0:0:
485,176,75127,1,2,0:0:0:0:
219,74,75886,5,2,0:0:0:0:
198,101,75981,1,2,0:0:0:0:
177,126,76076,2,0,P|58:91|-1:124,1,160,2|0,0:0|0:0,0:0:0:0:
16,116,76645,1,2,0:0:0:0:
71,324,77215,1,2,0:0:0:0:
335,126,77595,2,0,P|454:91|513:124,1,160,2|0,0:0|0:0,0:0:0:0:
496,116,78164,1,2,0:0:0:0:
441,324,78734,1,2,0:0:0:0:
496,116,79114,6,0,P|445:83|366:79,1,120,2|0,0:0|0:0,0:0:0:0:
347,82,79494,1,0,0:0:0:0:
256,144,79683,1,0,0:0:0:0:
164,82,79873,2,0,P|85:78|16:116,1,160,2|0,0:0|0:0,0:0:0:0:
13,295,80443,1,2,0:0:0:0:
23,334,80538,1,2,0:0:0:0:
32,369,80633,6,0,P|70:301|161:249,1,160,2|0,0:0|0:0,0:0:0:0:
256,272,81202,2,0,L|256:368,2,80,2|0|0,0:0|0:0|0:0,0:0:0:0:
256,112,81772,1,2,0:0:0:0:
480,15,82152,2,0,P|441:82|350:134,1,160,2|0,0:0|0:0,0:0:0:0:
176,48,82721,1,2,0:0:0:0:
336,336,83101,1,2,0:0:0:0:
256,192,83481,5,0,0:0:0:0:
256,192,83671,1,2,0:0:0:0:
368,240,83956,1,2,0:0:0:0:
144,144,84240,1,2,0:0:0:0:
279,148,84430,5,2,0:0:0:0:
303,178,84524,1,2,0:0:0:0:
297,216,84619,1,2,0:0:0:0:
264,238,84714,1,2,0:0:0:0:
227,229,84809,1,2,0:0:0:0:
207,196,84904,1,2,0:0:0:0:
219,159,84999,1,2,0:0:0:0:
254,142,85094,1,2,0:0:0:0:
291,153,85190,6,0,P|354:135|397:62,1,120,2|0,0:1|0:0,0:0:0:0:
412,62,85570,1,2,0:1:0:0:
464,192,85759,1,0,0:0:0:0:
412,322,85949,2,0,P|386:268|334:239,1,120,2|0,2:1|2:0,3:0:0:0:
291,231,86329,1,2,0:1:0:0:
100,322,86709,6,0,P|126:268|178:239,1,120,2|0,2:1|2:0,2:0:0:0:
221,231,87089,1,2,0:1:0:0:
221,153,87278,1,0,0:0:0:0:
100,62,87468,2,0,P|126:116|178:145,1,120,2|0,2:1|2:0,2:0:0:0:
221,153,87848,1,2,0:1:0:0:
306,267,88038,1,2,0:0:0:0:
326,301,88133,1,2,0:0:0:0:
355,327,88228,6,0,P|416:346|486:315,1,120,2|0,0:1|0:0,0:0:0:0:
468,330,88608,1,2,0:1:0:0:
416,192,88797,1,0,0:0:0:0:
467,53,88987,2,0,P|410:38|355:57,1,120,2|0,0:1|0:0,0:0:0:0:
354,57,89367,1,2,0:1:0:0:
206,117,89557,1,0,0:0:0:0:
186,83,89652,1,0,0:0:0:0:
157,57,89747,6,0,P|96:38|26:69,1,120,2|0,0:1|0:0,0:0:0:0:
44,54,90127,1,2,0:1:0:0:
96,192,90316,1,0,0:0:0:0:
45,331,90506,2,0,P|102:346|157:327,1,120,2|0,0:1|0:0,0:0:0:0:
158,327,90886,1,2,0:1:0:0:
256,128,91076,1,2,0:0:0:0:
256,160,91171,1,2,0:0:0:0:
255,191,91266,5,2,0:1:0:0:
416,192,91456,2,0,L|400:256,1,40,2|0,0:1|0:0,0:0:0:0:
368,368,91645,1,2,0:1:0:0:
144,368,91835,1,2,0:1:0:0:
96,192,92025,2,0,L|112:256,1,40,2|0,0:1|0:0,0:0:0:0:
256,80,92214,1,2,0:1:0:0:
176,256,92405,1,2,0:1:0:0:
210,222,92500,1,2,0:0:0:0:
256,208,92595,1,2,0:0:0:0:
301,223,92690,1,2,0:0:0:0:
336,256,92785,5,2,0:1:0:0:
96,192,92975,2,0,L|112:128,1,40,2|0,0:1|0:0,0:0:0:0:
144,16,93164,1,2,0:1:0:0:
368,16,93354,1,2,0:1:0:0:
416,192,93544,2,0,L|400:128,1,40,2|0,0:1|0:0,0:0:0:0:
256,304,93733,1,2,0:1:0:0:
336,128,93924,1,2,0:1:0:0:
301,161,94019,1,0,0:0:0:0:
256,176,94114,1,2,0:1:0:0:
210,162,94209,1,0,0:0:0:0:
176,128,94304,5,2,0:1:0:0:
146,90,94399,1,2,0:1:0:0:
100,73,94494,1,2,0:1:0:0:
54,89,94589,5,2,0:1:0:0:
31,131,94683,1,2,0:1:0:0:
41,177,94778,1,2,0:1:0:0:
80,204,94873,1,2,0:1:0:0:
122,225,94968,1,2,0:1:0:0:
145,266,95063,5,2,0:1:0:0:
138,313,95158,1,2,0:1:0:0:
101,344,95253,1,2,0:1:0:0:
55,342,95348,1,2,0:1:0:0:
197,209,95538,5,2,0:0:0:0:
250,170,95633,1,2,0:0:0:0:
314,184,95728,1,2,0:0:0:0:
348,241,95823,1,2,0:0:0:0:
250,346,96108,1,8,0:1:0:0:
80,204,96392,1,8,0:1:0:0:
96,32,96582,6,0,L|87:-3,5,26.6666666666667,2|0|2|0|2|0,0:0|0:0|0:0|0:0|0:0|0:0,0:0:0:0:
126,27,96962,1,2,0:0:0:0:
154,32,97057,1,2,0:0:0:0:
179,51,97152,1,2,0:0:0:0:
193,79,97247,1,2,0:0:0:0:
204,104,97342,6,0,P|263:62|377:69,1,160,6|0,0:1|0:0,0:0:0:0:
422,90,97627,1,4,0:1:0:0:
306,340,97911,1,4,0:1:0:0:
232,222,98101,2,0,P|173:180|59:187,1,160,6|0,0:1|0:0,0:0:0:0:
14,208,98386,1,4,0:1:0:0:
166,15,98576,1,2,0:0:0:0:
181,31,98671,2,2,L|197:111,1,80
294,170,98861,6,0,P|353:128|467:135,1,160,6|0,0:1|0:0,0:0:0:0:
512,156,99146,1,4,0:1:0:0:
236,338,99430,1,4,0:1:0:0:
153,215,99620,2,0,P|146:142|209:47,1,160,6|0,0:1|0:1,0:1:0:0:
249,19,99905,1,4,0:1:0:0:
396,176,100095,1,2,0:0:0:0:
384,198,100190,2,2,L|304:214,1,80
205,101,100380,5,6,0:1:0:0:
162,44,100475,1,0,0:0:0:0:
91,35,100570,1,0,0:0:0:0:
34,78,100664,1,4,0:1:0:0:
173,291,100949,1,4,0:1:0:0:
266,166,101139,2,0,P|339:159|434:222,1,160,6|0,0:1|0:0,0:0:0:0:
462,262,101424,1,4,0:1:0:0:
277,333,101614,1,2,0:0:0:0:
267,314,101709,2,2,L|187:298,1,80
106,157,101899,5,6,0:1:0:0:
94,86,101994,1,0,0:0:0:0:
138,29,102089,1,0,0:0:0:0:
209,20,102183,1,4,0:1:0:0:
416,158,102468,1,4,0:1:0:0:
362,321,102659,5,6,0:1:0:0:
319,263,102754,1,0,0:0:0:0:
246,254,102849,1,0,0:0:0:0:
188,298,102943,1,4,0:1:0:0:
31,355,103133,1,2,0:0:0:0:
18,371,103228,2,2,L|2:291,1,80
7,127,103418,5,6,0:1:0:0:
15,200,103513,1,0,0:0:0:0:
72,243,103608,1,0,0:0:0:0:
142,234,103702,1,4,0:1:0:0:
225,0,103987,1,4,0:1:0:0:
259,158,104178,5,6,0:1:0:0:
315,201,104272,1,0,0:0:0:0:
386,192,104367,1,0,0:0:0:0:
428,136,104462,1,4,0:1:0:0:
344,3,104652,1,2,0:0:0:0:
329,21,104747,2,2,L|343:118,1,80
462,205,104937,5,6,0:1:0:0:
453,276,105031,1,0,0:0:0:0:
400,323,105126,1,0,0:0:0:0:
331,319,105221,1,4,0:1:0:0:
183,90,105506,1,4,0:1:0:0:
189,231,105696,5,6,0:1:0:0:
132,272,105791,1,0,0:0:0:0:
62,262,105886,1,0,0:0:0:0:
17,208,105980,1,4,0:1:0:0:
14,51,106171,1,2,0:0:0:0:
24,68,106266,2,2,L|136:85,1,80
287,183,106456,5,6,0:1:0:0:
242,129,106550,1,0,0:0:0:0:
172,119,106645,1,0,0:0:0:0:
115,160,106740,1,4,0:1:0:0:
307,358,107025,1,4,0:1:0:0:
287,183,107216,5,6,0:1:0:0:
314,118,107310,1,0,0:0:0:0:
380,91,107405,1,0,0:0:0:0:
444,115,107500,1,4,0:1:0:0:
253,0,107690,1,2,0:0:0:0:
243,13,107785,2,2,L|227:93,1,80
126,212,107975,5,6,0:1:0:0:
181,168,108070,1,0,0:0:0:0:
251,174,108165,1,0,0:0:0:0:
299,225,108259,1,4,0:1:0:0:
321,159,108354,1,0,0:0:0:0:
381,123,108449,1,0,0:0:0:0:
450,139,108544,1,4,0:1:0:0:
186,258,108734,5,6,0:1:0:0:
171,187,108829,1,0,0:0:0:0:
205,126,108924,1,0,0:0:0:0:
273,106,109019,1,6,0:1:0:0:
485,242,109209,1,2,0:0:0:0:
468,254,109304,2,2,L|386:247,1,80,2|2,0:1|0:0,0:0:0:0:
257,322,109494,5,6,0:1:0:0:
188,344,109589,1,0,0:0:0:0:
117,327,109684,1,0,0:0:0:0:
67,275,109779,1,4,0:1:0:0:
102,214,109873,1,0,0:0:0:0:
164,179,109968,1,0,0:0:0:0:
235,170,110063,1,4,0:1:0:0:
2,195,110253,5,6,0:1:0:0:
37,134,110347,1,0,0:0:0:0:
99,99,110442,1,0,0:0:0:0:
170,90,110537,1,4,0:1:0:0:
102,214,110728,1,2,0:0:0:0:
106,232,110823,2,2,L|202:248,1,80
333,240,111013,5,6,0:1:0:0:
404,231,111108,1,0,0:0:0:0:
466,196,111203,1,0,0:0:0:0:
501,135,111297,1,4,0:1:0:0:
451,83,111392,1,0,0:0:0:0:
380,66,111487,1,0,0:0:0:0:
311,88,111582,1,4,0:1:0:0:
273,311,111772,5,6,0:1:0:0:
338,338,111867,1,0,0:0:0:0:
410,339,111962,1,0,0:0:0:0:
470,304,112056,1,4,0:1:0:0:
358,152,112247,1,2,0:0:0:0:
360,164,112342,2,2,L|276:171,1,80
74,241,112532,5,6,2:1:0:0:
133,199,112627,1,0,2:0:0:0:
206,197,112722,1,0,2:0:0:0:
269,232,112817,1,4,2:1:0:0:
272,162,112912,1,0,2:0:0:0:
234,98,113007,1,0,2:0:0:0:
172,64,113101,1,4,2:1:0:0:
331,11,113291,5,6,2:1:0:0:
395,39,113386,1,0,2:0:0:0:
434,103,113481,1,0,2:0:0:0:
437,174,113575,1,4,2:1:0:0:
283,145,113766,1,2,0:0:0:0:
293,158,113861,2,2,L|277:270,1,80
242,374,114051,5,6,2:1:0:0:
180,336,114146,1,0,2:0:0:0:
107,338,114241,1,0,2:0:0:0:
46,377,114336,1,4,2:1:0:0:
39,307,114431,1,0,2:0:0:0:
74,241,114526,1,0,2:0:0:0:
134,203,114620,1,4,2:1:0:0:
207,199,114715,1,0,2:0:0:0:
271,233,114810,5,6,2:1:0:0:
269,157,114906,1,0,2:0:0:0:
230,97,115000,1,0,2:0:0:0:
165,63,115095,1,0,2:0:0:0:
128,305,115285,1,2,0:0:0:0:
146,316,115380,2,2,L|242:300,1,80
482,246,115569,5,6,3:1:0:0:
447,210,115664,1,0,3:0:0:0:
414,175,115759,1,0,3:0:0:0:
379,139,115854,1,4,3:1:0:0:
343,170,115949,1,2,3:1:0:0:
306,201,116044,1,0,3:0:0:0:
271,233,116139,1,4,3:1:0:0:
239,196,116234,1,0,3:0:0:0:
207,159,116329,5,6,3:1:0:0:
172,191,116424,1,0,3:0:0:0:
135,221,116519,1,0,3:0:0:0:
100,253,116614,1,4,3:1:0:0:
14,63,116804,1,2,0:0:0:0:
30,76,116899,2,2,L|61:156,1,80
66,260,117089,5,6,3:1:0:0:
114,218,117183,1,0,3:0:0:0:
163,177,117278,1,0,3:0:0:0:
208,132,117373,1,4,3:1:0:0:
250,179,117468,1,2,3:1:0:0:
294,225,117563,1,0,3:0:0:0:
338,270,117658,1,4,3:1:0:0:
387,228,117753,1,0,3:0:0:0:
435,185,117848,5,6,3:1:0:0:
392,136,117943,1,0,3:0:0:0:
350,87,118038,1,0,3:0:0:0:
305,40,118133,1,4,3:1:0:0:
206,270,118323,1,2,2:0:0:0:
197,253,118418,2,2,L|264:194,1,80,2|2,2:0|2:0,2:0:0:0:
455,181,118608,5,6,3:1:0:0:
407,127,118702,1,0,3:0:0:0:
359,73,118797,1,0,3:0:0:0:
310,19,118892,1,4,3:1:0:0:
257,67,118987,1,2,3:1:0:0:
203,114,119082,1,0,3:0:0:0:
148,161,119177,1,4,3:1:0:0:
196,214,119272,1,0,3:0:0:0:
244,267,119367,5,6,3:1:0:0:
299,220,119462,1,0,3:0:0:0:
353,172,119557,1,0,3:0:0:0:
407,127,119652,1,4,3:1:0:0:
237,282,119842,1,4,3:1:0:0:
187,227,119937,1,2,3:2:0:0:
139,174,120032,1,2,3:2:0:0:
99,113,120127,6,0,L|105:60,4,40,6|0|0|0|0,3:1|0:0|3:0|0:0|3:0,0:0:0:0:
26,225,120411,2,0,L|32:169,4,40,6|0|0|0|0,3:1|0:0|3:0|0:0|3:0,0:0:0:0:
75,303,120696,2,0,L|71:343,3,40,6|0|0|0,3:1|0:0|3:0|0:0,0:0:0:0:
107,311,120886,6,0,L|144:344,1,26.6666666666667,2|0,2:0|2:0,2:0:0:0:
171,300,121012,2,0,L|217:309,1,26.6666666666667,2|0,2:0|2:0,2:0:0:0:
220,259,121139,2,0,L|264:244,1,26.6666666666667,2|0,2:0|2:0,2:0:0:0:
243,199,121266,2,0,L|273:164,1,26.6666666666667,2|0,2:0|2:0,2:0:0:0:
232,135,121393,2,0,L|241:89,1,26.6666666666667,2|0,2:0|2:0,2:0:0:0:
0,66,121645,5,6,0:1:0:0:
62,16,121740,1,0,0:0:0:0:
141,11,121835,1,0,0:0:0:0:
206,57,121930,1,0,0:0:0:0:
220,135,122025,1,8,0:1:0:0:
179,203,122120,1,0,0:0:0:0:
94,200,122215,5,4,0:1:0:0:
117,149,122310,1,0,0:0:0:0:
166,123,122405,1,2,0:1:0:0:
220,135,122500,1,0,0:0:0:0:
254,179,122595,1,0,0:0:0:0:
252,235,122690,1,0,0:0:0:0:
274,278,122785,5,12,0:1:0:0:
322,305,122880,1,0,0:0:0:0:
377,300,122975,1,0,0:0:0:0:
411,255,123070,1,0,0:0:0:0:
410,204,123164,5,6,0:1:0:0:
334,229,123259,1,0,0:0:0:0:
255,214,123354,1,0,0:0:0:0:
182,180,123449,1,0,0:0:0:0:
101,180,123544,1,8,0:1:0:0:
40,231,123639,1,0,0:0:0:0:
28,285,123734,1,0,0:0:0:0:
52,335,123829,1,0,0:0:0:0:
100,363,123924,1,2,0:1:0:0:
155,358,124019,1,0,0:0:0:0:
199,324,124114,1,0,0:0:0:0:
253,312,124209,1,0,0:0:0:0:
308,315,124304,1,8,0:1:0:0:
476,349,124494,5,4,0:1:0:0:
485,261,124589,1,4,0:1:0:0:
493,174,124683,1,6,0:1:0:0:
462,124,124778,5,0,0:0:0:0:
412,94,124872,1,0,0:0:0:0:
355,84,124967,1,0,0:0:0:0:
299,99,125062,1,8,0:1:0:0:
252,131,125157,1,0,0:0:0:0:
198,149,125252,5,4,0:1:0:0:
145,132,125347,1,0,0:0:0:0:
120,81,125442,1,2,0:1:0:0:
138,28,125537,1,0,0:0:0:0:
189,3,125632,1,0,0:0:0:0:
241,23,125727,1,0,0:0:0:0:
265,75,125822,5,12,0:1:0:0:
314,48,125917,1,0,0:0:0:0:
370,42,126013,1,0,0:0:0:0:
422,62,126108,1,0,0:0:0:0:
476,119,126202,5,6,0:1:0:0:
485,198,126297,1,0,0:0:0:0:
449,269,126392,1,0,0:0:0:0:
378,306,126487,1,0,0:0:0:0:
298,297,126582,1,8,0:1:0:0:
240,241,126677,1,0,0:0:0:0:
224,162,126772,5,4,0:1:0:0:
170,146,126867,1,0,0:0:0:0:
120,172,126962,1,2,0:1:0:0:
104,225,127057,1,0,0:0:0:0:
128,275,127152,1,0,0:0:0:0:
182,289,127247,1,0,0:0:0:0:
233,267,127342,5,12,0:1:0:0:
282,240,127437,1,2,0:0:0:0:
338,241,127532,2,2,P|377:259|407:291,1,80
158,381,127721,5,6,0:1:0:0:
132,331,127815,1,0,0:0:0:0:
128,275,127910,1,0,0:0:0:0:
143,222,128005,1,0,0:0:0:0:
166,170,128100,1,8,0:1:0:0:
184,118,128195,1,0,0:0:0:0:
173,58,128290,1,0,0:0:0:0:
131,19,128385,1,0,0:0:0:0:
74,19,128481,1,2,0:1:0:0:
30,54,128576,1,0,0:0:0:0:
21,109,128671,1,0,0:0:0:0:
48,158,128766,1,0,0:0:0:0:
101,174,128861,1,8,0:1:0:0:
378,69,129051,5,4,0:1:0:0:
365,155,129145,1,4,0:1:0:0:
350,241,129240,1,6,0:1:0:0:
311,282,129336,1,0,0:0:0:0:
260,305,129430,1,0,0:0:0:0:
205,298,129525,1,0,0:0:0:0:
154,276,129620,1,8,0:1:0:0:
101,259,129715,1,0,0:0:0:0:
46,262,129811,5,4,0:1:0:0:
28,209,129905,1,0,0:0:0:0:
40,155,130000,1,2,0:1:0:0:
76,113,130095,1,0,0:0:0:0:
128,95,130190,1,0,0:0:0:0:
183,105,130285,1,0,0:0:0:0:
225,140,130380,1,8,0:1:0:0:
245,192,130475,1,2,0:0:0:0:
252,247,130570,2,2,P|263:280|311:339,1,80
510,229,130759,5,6,0:1:0:0:
453,272,130853,1,0,0:0:0:0:
382,263,130948,1,0,0:0:0:0:
339,206,131043,5,4,0:1:0:0:
296,149,131139,1,8,0:1:0:0:
225,140,131234,1,0,0:0:0:0:
168,183,131328,1,4,0:1:0:0:
439,103,131519,5,6,0:1:0:0:
396,46,131615,1,0,0:0:0:0:
325,37,131710,1,0,0:0:0:0:
268,80,131804,1,4,0:1:0:0:
436,201,131994,1,2,0:0:0:0:
425,215,132089,2,2,L|336:215,1,80
241,304,132278,5,6,0:1:0:0:
184,347,132372,1,0,0:0:0:0:
113,338,132467,1,0,0:0:0:0:
70,281,132563,1,4,0:1:0:0:
180,51,132848,1,4,0:1:0:0:
327,189,133038,5,2,0:1:0:0:
306,241,133132,1,2,0:0:0:0:
254,261,133227,1,2,0:0:0:0:
202,235,133322,1,2,0:1:0:0:
186,182,133417,1,2,0:2:0:0:
213,133,133512,1,2,0:0:0:0:
269,121,133607,1,2,0:1:0:0:
315,153,133702,1,2,0:0:0:0:
341,229,133797,5,6,0:1:0:0:
272,280,133892,1,0,0:0:0:0:
186,293,133987,1,0,0:0:0:0:
103,266,134082,1,0,0:0:0:0:
42,203,134177,1,8,0:1:0:0:
17,119,134272,1,0,0:0:0:0:
46,36,134367,5,4,0:1:0:0:
46,108,134462,1,0,0:0:0:0:
86,168,134557,1,2,0:1:0:0:
154,193,134652,1,0,0:0:0:0:
224,175,134747,1,0,0:0:0:0:
270,119,134842,1,0,0:0:0:0:
300,72,134936,5,12,0:1:0:0:
350,50,135031,1,0,0:0:0:0:
405,58,135126,1,0,0:0:0:0:
447,93,135221,1,0,0:0:0:0:
464,146,135317,5,6,0:1:0:0:
383,176,135411,1,0,0:0:0:0:
297,160,135506,1,0,0:0:0:0:
214,131,135601,1,0,0:0:0:0:
128,115,135696,1,8,0:1:0:0:
47,146,135791,1,0,0:0:0:0:
20,212,135886,1,0,0:0:0:0:
43,280,135981,1,0,0:0:0:0:
104,316,136076,1,2,0:1:0:0:
174,301,136172,1,0,0:0:0:0:
238,269,136266,1,0,0:0:0:0:
308,278,136361,1,0,0:0:0:0:
376,303,136456,1,8,0:1:0:0:
447,311,136551,1,0,0:0:0:0:
512,291,136646,5,4,0:1:0:0:
489,199,136740,1,4,0:1:0:0:
455,103,136835,1,6,0:1:0:0:
386,51,136930,1,0,0:0:0:0:
299,46,137025,1,0,0:0:0:0:
225,91,137120,1,0,0:0:0:0:
188,170,137215,1,8,0:1:0:0:
202,255,137310,1,0,0:0:0:0:
261,319,137405,5,4,0:1:0:0:
302,242,137500,1,0,0:0:0:0:
290,157,137595,1,2,0:1:0:0:
230,95,137690,1,0,0:0:0:0:
144,80,137785,1,0,0:0:0:0:
67,119,137880,1,0,0:0:0:0:
39,202,137975,5,12,0:1:0:0:
53,272,138070,1,0,0:0:0:0:
101,323,138164,1,0,0:0:0:0:
170,342,138259,1,0,0:0:0:0:
238,320,138354,5,6,0:1:0:0:
169,270,138449,1,0,0:0:0:0:
137,189,138544,1,0,0:0:0:0:
154,102,138639,1,0,0:0:0:0:
216,42,138734,1,8,0:1:0:0:
300,24,138829,1,0,0:0:0:0:
382,53,138924,5,4,0:1:0:0:
428,107,139018,1,0,0:0:0:0:
446,177,139114,1,2,0:1:0:0:
433,248,139209,1,0,0:0:0:0:
388,304,139304,1,0,0:0:0:0:
320,328,139399,5,6,0:1:0:0:
248,320,139494,1,0,0:1:0:0:
184,282,139589,1,0,0:0:0:0:
112,282,139683,1,2,0:1:0:0:
50,319,139778,1,0,0:0:0:0:
21,384,139873,5,6,3:1:0:0:
27,328,139968,1,0,3:0:0:0:
31,272,140063,1,0,3:0:0:0:
35,216,140158,1,4,3:1:0:0:
90,222,140253,1,0,3:0:0:0:
145,228,140348,1,0,3:0:0:0:
200,230,140443,1,4,3:1:0:0:
208,174,140538,1,0,3:0:0:0:
215,118,140633,5,4,3:1:0:0:
270,126,140728,1,0,3:0:0:0:
325,131,140823,1,0,3:0:0:0:
380,138,140918,1,0,3:0:0:0:
435,147,141013,1,4,3:1:0:0:
435,219,141108,1,2,3:2:0:0:
397,279,141202,1,2,3:2:0:0:
328,300,141297,1,2,3:2:0:0:
258,282,141392,5,4,3:1:0:0:
267,226,141487,1,0,3:0:0:0:
277,170,141582,1,0,3:0:0:0:
284,114,141677,1,4,3:1:0:0:
229,102,141772,1,0,3:0:0:0:
173,94,141867,1,0,3:0:0:0:
117,86,141962,1,4,3:1:0:0:
107,141,142057,1,0,3:0:0:0:
100,196,142152,5,4,3:1:0:0:
155,206,142247,1,0,3:0:0:0:
209,218,142342,1,0,3:0:0:0:
267,226,142437,1,4,3:1:0:0:
298,200,142532,1,0,3:0:0:0:
336,189,142627,1,2,2:0:0:0:
373,200,142721,1,2,2:0:0:0:
400,228,142816,1,2,2:0:0:0:
407,267,142911,5,2,2:1:0:0:
256,192,144240,1,2,0:0:0:0:
256,192,144430,1,2,0:0:0:0:
368,192,145190,1,0,0:0:0:0:
335,265,145380,1,2,0:0:0:0:
175,265,145759,1,0,0:0:0:0:
139,193,145949,2,0,P|394:86|217:339,1,800,2|0,0:0|0:0,0:0:0:0:
