osu file format v14

[General]
AudioFilename: audio.mp3
AudioLeadIn: 0
PreviewTime: 185528
Countdown: 0
SampleSet: Soft
StackLeniency: 0.7
Mode: 0
LetterboxInBreaks: 0
WidescreenStoryboard: 1

[Editor]
Bookmarks: 119635,140734,143371,146091,148646,151283,153921,156558,159195,161833,206668,227767
DistanceSpacing: 1
BeatDivisor: 1
GridSize: 32
TimelineZoom: 1.5

[Metadata]
Title:Renatus
TitleUnicode:Renatus
Artist:Soleily
ArtistUnicode:Soleily
Creator:pewdekz
Version:Reborn
Source:
Tags:jixxi jordanlr7 bag103 bmm badmapmaker electronic instrumental d&b dnb drum and bass Unisphere 地球ヤバイEP Chikyu Yabai
BeatmapID:4337889
BeatmapSetID:2072797

[Difficulty]
HPDrainRate:6
CircleSize:4
OverallDifficulty:9
ApproachRate:9.3
SliderMultiplier:1.8
SliderTickRate:0.5

[Events]
//Background and Video events
0,0,"RENATUS HQ WOW.jpg",0,0
//Break Periods
//Storyboard Layer 0 (Background)
//Storyboard Layer 1 (Fail)
//Storyboard Layer 2 (Pass)
//Storyboard Layer 3 (Foreground)
//Storyboard Layer 4 (Overlay)
//Storyboard Sound Samples

[TimingPoints]
954,329.67032967033,4,2,1,75,1,0
954,-100,4,2,1,75,0,0
22052,-100,4,2,1,80,0,0
53371,-90.9090909090909,4,2,1,80,0,0
116997,-76.9230769230769,4,2,1,75,0,0
117245,-76.9230769230769,4,2,1,75,0,0
117327,-90.9090909090909,4,2,1,75,0,0
119635,-1000,4,2,1,45,0,0
120954,-1000,4,2,1,30,0,0
128701,-1000,4,2,1,10,0,0
128866,-1000,4,2,1,30,0,0
130019,-1000,4,2,1,10,0,0
130184,-1000,4,2,1,30,0,0
140734,-200,4,2,1,45,0,0
151283,-200,4,2,1,55,0,0
161833,-100,4,2,1,75,0,1
161915,-100,4,2,1,75,0,0
163151,-100,4,2,1,80,0,1
164140,-100,4,2,1,90,0,0
164470,-83.3333333333333,4,2,1,85,0,1
205349,-76.9230769230769,4,2,1,85,0,1
206008,-83.3333333333333,4,2,1,85,0,1
206668,-666.666666666667,4,2,1,40,0,0
207327,-666.666666666667,4,2,1,35,0,0
207986,-500,4,2,1,35,0,0
225129,-400,4,2,1,35,0,0
226448,-250,4,2,1,45,0,0
227107,-250,4,2,1,55,0,0

[Colours]
Combo1 : 120,120,120
Combo2 : 201,201,201

[HitObjects]
22,224,954,5,6,3:2:0:0:
109,120,1118,1,2,0:2:0:0:
109,120,1283,2,0,L|118:208,1,90,2|2,1:2|0:2,0:0:0:0:
121,232,1530,1,0,0:2:0:0:
124,254,1613,2,0,L|128:299,1,45,0|0,0:2|0:2,0:0:0:0:
179,369,1778,1,2,3:2:0:0:
297,263,1943,2,0,P|317:223|314:179,1,90,0|2,1:2|0:2,0:0:0:0:
34,76,2272,5,2,3:2:0:0:
31,98,2354,1,0,0:2:0:0:
28,120,2436,1,0,0:2:0:0:
99,288,2602,2,0,L|195:277,1,90,2|2,1:2|3:2,0:0:0:0:
228,207,2849,1,0,0:2:0:0:
228,207,2932,2,0,L|286:214,1,45,0|0,0:2|0:2,0:0:0:0:
188,278,3096,1,2,3:2:0:0:
28,121,3261,2,0,L|38:24,1,90,2|0,1:2|0:2,0:0:0:0:
283,25,3591,6,0,P|303:64|301:108,1,90,2|0,3:2|0:2,0:0:0:0:
132,156,3921,2,0,P|147:114|181:86,1,90,2|0,1:2|0:2,0:0:0:0:
359,191,4250,1,0,0:2:0:0:
359,191,4333,1,0,0:2:0:0:
359,191,4415,1,2,3:2:0:0:
446,168,4580,2,0,L|456:71,1,90,2|0,1:2|0:2,0:0:0:0:
218,166,4910,6,0,L|228:262,1,90,2|0,3:2|0:2,0:0:0:0:
359,191,5239,1,2,1:2:0:0:
121,143,5404,1,2,3:2:0:0:
123,165,5486,1,0,0:2:0:0:
125,187,5568,1,0,0:2:0:0:
128,210,5651,1,0,0:2:0:0:
130,232,5733,1,2,3:2:0:0:
275,346,5899,2,0,P|318:348|355:371,1,90,2|0,1:2|0:2,0:0:0:0:
357,371,6146,1,0,0:2:0:0:
357,371,6228,5,2,3:2:0:0:
420,301,6393,1,0,0:2:0:0:
368,175,6558,2,0,L|270:184,1,90,2|0,1:2|0:2,0:0:0:0:
251,184,6805,1,0,0:2:0:0:
224,181,6887,1,0,0:2:0:0:
199,170,6969,1,0,0:2:0:0:
179,152,7052,1,2,3:2:0:0:
251,98,7217,1,2,1:2:0:0:
366,264,7382,1,0,0:2:0:0:
366,264,7464,1,0,0:2:0:0:
366,264,7547,6,0,L|462:273,1,90,2|0,3:2|0:2,0:0:0:0:
314,36,7877,1,2,1:2:0:0:
251,98,8041,2,0,L|154:88,1,90,2|0,3:2|0:2,0:0:0:0:
138,86,8289,1,0,0:2:0:0:
115,83,8371,1,2,3:2:0:0:
39,257,8536,2,0,P|83:261|123:243,1,90,2|0,1:2|0:2,0:0:0:0:
100,56,8866,6,0,P|56:52|16:70,1,90,2|0,3:2|0:2,0:0:0:0:
72,161,9195,1,2,1:2:0:0:
228,12,9360,2,0,L|290:18,1,45,0|0,0:2|0:2,0:0:0:0:
316,83,9525,2,0,L|378:76,1,45,0|0,0:2|0:2,0:0:0:0:
417,21,9690,1,2,3:2:0:0:
498,148,9855,2,0,L|489:244,1,90,2|0,1:2|0:2,0:0:0:0:
273,246,10184,6,0,P|257:204|264:160,1,90,2|0,3:2|0:2,0:0:0:0:
316,83,10514,1,2,1:2:0:0:
427,302,10679,1,2,3:2:0:0:
405,304,10761,1,0,0:2:0:0:
383,306,10843,1,0,0:2:0:0:
360,309,10926,1,0,0:2:0:0:
338,311,11008,1,2,3:2:0:0:
273,246,11173,2,0,L|211:239,1,45,2|0,1:2|1:2,0:0:0:0:
164,344,11338,1,0,3:2:0:0:
58,229,11503,5,6,3:2:0:0:
129,99,11668,1,2,0:2:0:0:
264,160,11833,1,2,1:2:0:0:
392,84,11997,1,2,0:2:0:0:
392,84,12080,1,0,0:2:0:0:
392,84,12162,2,0,L|462:95,1,45,0|0,0:2|0:2,0:0:0:0:
480,222,12327,2,0,L|378:205,2,90,2|2|2,3:2|1:2|0:2,0:0:0:0:
392,62,12822,5,2,3:2:0:0:
370,64,12904,1,0,0:2:0:0:
348,66,12986,1,0,0:2:0:0:
250,197,13151,2,0,L|148:180,1,90,2|2,1:2|3:2,0:0:0:0:
116,112,13399,1,0,0:2:0:0:
116,112,13481,2,0,L|62:121,1,45,0|0,0:2|0:2,0:0:0:0:
161,182,13646,1,2,3:2:0:0:
126,315,13811,2,0,P|88:339|43:341,1,90,2|0,1:2|0:2,0:0:0:0:
197,99,14140,6,0,P|241:102|278:126,1,90,2|0,3:2|0:2,0:0:0:0:
58,203,14470,2,0,P|33:165|31:121,1,90,2|0,1:2|0:2,0:0:0:0:
256,299,14800,1,0,0:2:0:0:
256,299,14882,1,0,0:2:0:0:
256,299,14964,1,2,3:2:0:0:
305,223,15129,2,0,L|393:237,1,90,2|0,1:2|0:2,0:0:0:0:
201,370,15459,6,0,L|113:384,1,90,2|0,3:2|0:2,0:0:0:0:
200,211,15789,1,2,1:2:0:0:
413,332,15954,1,2,3:2:0:0:
434,326,16036,1,0,0:2:0:0:
454,315,16118,1,0,0:2:0:0:
470,300,16201,1,0,0:2:0:0:
482,281,16283,1,2,3:2:0:0:
432,159,16448,2,0,L|344:145,1,90,2|0,1:2|0:2,0:0:0:0:
284,86,16696,1,0,0:2:0:0:
284,86,16778,5,2,3:2:0:0:
144,148,16943,1,0,0:2:0:0:
30,75,17107,2,0,P|8:113|8:158,1,90,2|0,1:2|0:2,0:0:0:0:
57,230,17355,1,0,0:2:0:0:
57,230,17437,2,0,L|112:221,1,45,0|0,0:2|0:2,0:0:0:0:
144,148,17602,1,2,3:2:0:0:
292,231,17767,2,0,L|278:319,1,90,2|0,1:2|0:2,0:0:0:0:
40,324,18096,5,2,3:2:0:0:
40,324,18179,1,0,0:2:0:0:
40,324,18261,1,0,0:2:0:0:
144,148,18426,2,0,L|232:162,1,90,2|2,1:2|3:2,0:0:0:0:
232,162,18673,1,0,0:2:0:0:
232,162,18756,1,0,0:2:0:0:
205,66,18921,1,2,3:2:0:0:
40,141,19085,2,0,L|54:229,1,90,2|0,1:2|0:2,0:0:0:0:
328,146,19415,6,0,P|334:101|354:60,1,90,2|0,3:2|0:2,0:0:0:0:
163,239,19745,2,0,P|157:284|137:325,1,90,2|0,1:2|0:2,0:0:0:0:
120,344,19992,1,0,0:2:0:0:
98,358,20074,1,0,0:2:0:0:
73,368,20156,1,0,0:2:0:0:
46,372,20239,1,2,3:2:0:0:
67,274,20404,1,2,1:2:0:0:
211,366,20569,1,0,0:2:0:0:
344,341,20734,5,6,3:2:0:0:
349,305,20816,1,2,0:2:0:0:
355,269,20898,1,2,0:2:0:0:
361,234,20981,1,2,0:2:0:0:
344,202,21063,1,2,1:2:0:0:
349,166,21145,1,2,0:2:0:0:
355,130,21227,1,2,3:2:0:0:
361,95,21310,1,2,0:2:0:0:
381,65,21393,6,0,L|432:60,1,45,2|2,0:2|0:2,0:0:0:0:
432,148,21558,2,0,L|476:143,1,45,2|2,3:2|0:2,0:0:0:0:
314,14,21723,1,2,0:2:0:0:
314,14,21805,1,2,0:2:0:0:
314,14,21888,2,0,L|263:9,1,45,2|2,1:2|0:2,0:0:0:0:
138,181,22052,5,6,3:2:0:0:
197,32,22217,1,2,0:2:0:0:
332,125,22382,1,2,1:2:0:0:
294,275,22547,2,0,L|241:270,1,45,2|0,0:2|0:2,0:0:0:0:
192,204,22712,2,0,L|139:210,1,45,0|0,0:2|0:2,0:0:0:0:
104,288,22877,1,2,3:2:0:0:
57,73,23041,2,0,P|95:94|139:98,1,90,0|2,1:2|0:2,0:0:0:0:
249,140,23289,1,0,0:2:0:0:
249,140,23371,6,0,P|290:126|334:131,1,90,0|2,3:2|0:2,0:0:0:0:
387,205,23701,1,2,1:2:0:0:
345,376,23866,1,2,3:2:0:0:
311,378,23948,1,0,0:2:0:0:
278,372,24030,1,0,0:2:0:0:
249,355,24113,1,0,0:2:0:0:
225,332,24195,1,2,3:2:0:0:
297,210,24360,1,2,1:2:0:0:
345,376,24525,1,2,0:2:0:0:
185,226,24690,6,0,L|96:235,1,90,2|2,3:2|0:2,0:0:0:0:
52,315,25019,1,2,1:2:0:0:
3,79,25184,1,2,0:2:0:0:
3,79,25267,1,0,0:2:0:0:
3,79,25349,2,0,L|69:85,1,45,0|0,0:2|0:2,0:0:0:0:
100,146,25514,2,0,L|189:137,1,90,2|0,3:2|1:2,0:0:0:0:
389,16,25844,6,0,P|410:54|414:98,1,90,2|0,0:2|3:2,0:0:0:0:
271,182,26173,1,2,0:2:0:0:
310,54,26338,1,2,1:2:0:0:
493,146,26503,2,0,L|484:235,1,90,2|0,3:2|0:2,0:0:0:0:
342,136,26833,1,2,3:2:0:0:
190,212,26997,2,0,L|199:301,1,90,0|2,1:2|0:2,0:0:0:0:
202,335,27245,1,0,0:2:0:0:
205,368,27327,5,0,3:2:0:0:
331,263,27492,1,2,0:2:0:0:
187,94,27657,2,0,P|142:104|104:128,1,90,2|2,1:2|0:2,0:0:0:0:
83,153,27904,1,0,0:2:0:0:
70,184,27986,1,0,0:2:0:0:
67,217,28068,1,0,0:2:0:0:
70,251,28151,1,2,3:2:0:0:
190,212,28316,1,2,1:2:0:0:
331,263,28481,2,0,L|340:352,1,90,2|0,0:2|3:2,0:0:0:0:
470,194,28811,5,2,0:2:0:0:
322,165,28975,1,2,1:2:0:0:
428,281,29140,1,2,3:2:0:0:
403,112,29305,1,2,0:2:0:0:
189,63,29470,1,2,3:2:0:0:
189,63,29552,1,0,0:2:0:0:
189,63,29635,1,2,1:2:0:0:
115,173,29800,1,2,0:2:0:0:
176,247,29964,6,0,L|265:238,1,90,2|0,3:2|0:2,0:0:0:0:
322,165,30294,1,2,1:2:0:0:
385,347,30459,2,0,L|282:336,1,90,2|0,0:2|0:2,0:0:0:0:
209,156,30789,1,2,3:2:0:0:
341,77,30954,2,0,P|379:97|408:133,1,90,2|0,1:2|0:2,0:0:0:0:
385,347,31283,5,2,3:2:0:0:
351,343,31365,1,0,1:2:0:0:
317,339,31447,1,2,1:2:0:0:
209,156,31613,2,0,L|106:166,1,90,0|2,1:2|3:2,0:0:0:0:
80,243,31860,1,0,0:2:0:0:
80,243,31943,2,0,L|25:236,1,45,0|0,0:2|0:2,0:0:0:0:
119,165,32107,1,2,3:2:0:0:
203,384,32272,1,2,1:2:0:0:
236,381,32354,1,0,1:2:0:0:
270,377,32436,1,2,3:2:0:0:
288,193,32602,5,6,3:2:0:0:
176,301,32767,1,2,0:2:0:0:
35,237,32932,2,0,L|47:131,1,90,2|2,1:2|0:2,0:0:0:0:
19,73,33179,1,0,0:2:0:0:
45,53,33261,1,0,0:2:0:0:
78,47,33343,1,0,0:2:0:0:
111,51,33426,1,2,3:2:0:0:
186,2,33591,1,0,1:2:0:0:
394,134,33756,6,0,L|406:239,1,90,2|0,0:2|3:2,0:0:0:0:
480,75,34085,1,2,0:2:0:0:
358,30,34250,1,2,1:2:0:0:
285,159,34415,2,0,L|233:153,1,45,2|0,3:2|0:2,0:0:0:0:
195,89,34580,2,0,L|143:95,1,45,0|0,0:2|0:2,0:0:0:0:
104,163,34745,1,2,3:2:0:0:
296,317,34910,2,0,P|318:280|326:235,1,90,2|2,1:2|0:2,0:0:0:0:
362,72,35239,6,0,L|240:87,2,90,2|2|2,3:2|0:2|1:2,0:0:0:0:
450,156,35734,1,2,0:2:0:0:
450,156,35816,1,0,0:2:0:0:
450,156,35899,2,0,L|435:248,1,90,0|2,0:2|3:2,0:0:0:0:
472,327,36228,1,0,1:2:0:0:
280,369,36393,6,0,P|244:341|202:326,1,90,2|0,0:2|3:2,0:0:0:0:
59,267,36723,1,2,0:2:0:0:
136,384,36888,1,2,1:2:0:0:
260,263,37052,1,2,3:2:0:0:
255,228,37134,1,0,0:2:0:0:
250,194,37216,1,0,0:2:0:0:
245,160,37300,1,0,0:2:0:0:
240,126,37382,1,2,3:2:0:0:
268,41,37547,1,0,1:2:0:0:
55,65,37712,6,0,P|36:104|33:149,1,90,2|0,0:2|3:2,0:0:0:0:
153,259,38041,1,2,0:2:0:0:
119,131,38206,1,2,1:2:0:0:
268,41,38371,2,0,L|360:56,1,90,2|0,0:2|0:2,0:0:0:0:
253,175,38701,1,2,3:2:0:0:
119,131,38866,1,2,1:2:0:0:
17,231,39030,6,0,L|32:323,1,90,0|0,0:2|3:2,0:0:0:0:
146,372,39360,1,2,0:2:0:0:
238,287,39525,1,2,1:2:0:0:
357,328,39690,1,2,3:2:0:0:
425,222,39855,1,2,0:2:0:0:
357,129,40019,1,2,3:2:0:0:
357,129,40102,1,0,0:2:0:0:
357,129,40184,1,2,1:2:0:0:
425,222,40349,1,2,0:2:0:0:
221,196,40514,5,6,3:2:0:0:
215,160,40596,1,0,3:2:0:0:
209,124,40679,1,0,3:2:0:0:
238,287,40844,1,2,3:2:0:0:
133,161,41008,5,6,3:2:0:0:
97,155,41091,1,0,3:2:0:0:
61,149,41173,1,0,3:2:0:0:
303,187,41338,1,2,3:2:0:0:
134,249,41503,5,6,3:2:0:0:
140,285,41585,1,0,3:2:0:0:
146,321,41668,1,0,3:2:0:0:
98,65,41833,6,0,P|136:41|180:31,1,90,6|2,3:2|3:2,0:0:0:0:
251,2,42080,2,0,L|341:16,1,90,4|0,0:2|3:2,0:0:0:0:
393,75,42327,1,6,3:2:0:0:
327,224,42492,5,4,0:2:0:0:
305,93,42657,1,2,0:2:0:0:
474,127,42822,2,0,L|458:225,1,90,2|2,0:2|0:2,0:0:0:0:
307,370,43151,6,0,P|255:357|222:327,1,90,6|0,3:2|0:2,0:0:0:0:
99,352,43481,2,0,L|88:254,1,90,2|0,1:2|0:2,0:0:0:0:
85,240,43728,1,0,0:2:0:0:
82,217,43810,1,0,0:2:0:0:
80,194,43892,1,0,0:2:0:0:
77,172,43975,1,2,3:2:0:0:
305,200,44140,2,0,L|294:297,1,90,2|0,1:2|0:2,0:0:0:0:
413,254,44470,5,2,3:2:0:0:
371,119,44635,1,2,0:2:0:0:
407,36,44800,2,0,P|450:45|486:72,1,90,2|0,1:2|3:2,0:0:0:0:
305,200,45129,2,0,P|279:163|270:119,2,90,2|2|2,0:2|3:2|1:2,0:0:0:0:
292,29,45624,1,2,0:2:0:0:
269,27,45706,1,0,0:2:0:0:
247,25,45789,6,0,L|156:15,1,90,2|0,3:2|0:2,0:0:0:0:
65,200,46118,2,0,L|155:190,1,90,2|0,1:2|0:2,0:0:0:0:
208,121,46366,1,0,0:2:0:0:
208,121,46448,2,0,L|268:127,1,45,0|0,0:2|0:2,0:0:0:0:
305,200,46613,1,2,3:2:0:0:
229,344,46778,2,0,P|177:328|146:296,1,90,2|0,1:2|0:2,0:0:0:0:
99,183,47107,5,2,3:2:0:0:
223,251,47272,1,2,0:2:0:0:
339,115,47437,2,0,L|327:7,1,90,2|0,1:2|3:2,0:0:0:0:
415,0,47684,1,0,0:2:0:0:
415,0,47767,2,0,L|426:107,2,90,2|2|0,0:2|3:2|1:2,0:0:0:0:
505,121,48261,1,2,0:2:0:0:
459,287,48426,6,0,P|422:262|377:254,1,90,6|0,3:2|0:2,0:0:0:0:
291,220,48673,1,0,0:2:0:0:
291,220,48756,2,0,P|275:178|278:133,1,90,2|0,1:2|0:2,0:0:0:0:
301,308,49002,1,0,0:2:0:0:
301,308,49085,2,0,P|272:343|232:363,1,90,0|2,0:2|3:2,0:0:0:0:
377,254,49333,1,0,0:2:0:0:
377,254,49415,2,0,P|421:260|458:285,1,90,2|0,1:2|0:2,0:0:0:0:
134,283,49745,6,0,L|150:173,1,90,6|2,3:2|0:2,0:0:0:0:
112,115,49992,1,0,0:2:0:0:
112,115,50074,1,2,1:2:0:0:
195,22,50239,2,0,P|242:19|287:0,1,90,0|2,3:2|0:2,0:0:0:0:
112,115,50569,2,0,P|64:117|19:136,2,90,2|0|2,3:2|1:2|0:2,0:0:0:0:
394,215,51063,6,0,P|386:280|335:322,1,135,6|0,3:2|0:2,0:0:0:0:
264,356,51393,2,0,L|156:338,1,90,2|0,1:2|0:2,0:0:0:0:
148,336,51640,1,0,0:2:0:0:
121,333,51722,1,0,0:2:0:0:
94,334,51804,1,0,0:2:0:0:
67,342,51887,1,2,3:2:0:0:
10,271,52052,2,0,L|28:163,1,90,2|0,1:2|0:2,0:0:0:0:
43,99,52300,1,0,0:2:0:0:
43,99,52382,5,2,3:2:0:0:
135,150,52547,1,2,0:2:0:0:
242,47,52712,2,0,P|195:50|150:69,1,90,2|0,1:2|3:2,0:0:0:0:
106,238,53041,2,0,P|153:235|198:216,1,90,2|2,0:2|3:2,0:0:0:0:
419,61,53371,5,2,1:2:0:0:
453,79,53453,1,2,0:2:0:0:
476,111,53535,1,2,0:2:0:0:
484,149,53618,1,2,0:2:0:0:
472,187,53701,6,0,L|356:174,1,99.0000030212403,6|2,3:2|0:2,0:0:0:0:
315,242,53948,1,0,0:2:0:0:
315,242,54030,1,2,1:2:0:0:
261,99,54195,1,0,0:2:0:0:
445,214,54360,5,2,0:2:0:0:
440,253,54442,1,2,0:2:0:0:
436,292,54524,1,2,3:2:0:0:
243,183,54690,1,0,1:2:0:0:
288,17,54855,2,0,L|403:4,1,99.0000030212403,2|0,0:2|3:2,0:0:0:0:
187,109,55184,5,2,0:2:0:0:
187,109,55267,1,2,0:2:0:0:
187,109,55349,1,2,1:2:0:0:
323,161,55514,1,2,3:2:0:0:
148,199,55679,1,2,0:2:0:0:
269,69,55844,1,2,3:2:0:0:
332,275,56008,2,0,P|283:263|245:231,1,99.0000030212403,2|2,1:2|0:2,0:0:0:0:
82,79,56338,5,0,3:2:0:0:
52,282,56503,2,0,L|104:276,1,49.5000015106202,2|2,0:2|0:2,0:0:0:0:
148,199,56668,1,2,1:2:0:0:
165,87,56833,1,2,0:2:0:0:
23,137,56997,1,2,0:2:0:0:
52,282,57162,1,2,3:2:0:0:
165,87,57327,2,0,L|275:98,1,99.0000030212403,2|2,1:2|0:2,0:0:0:0:
322,24,57657,5,0,3:2:0:0:
202,180,57822,1,2,0:2:0:0:
137,6,57986,1,2,1:2:0:0:
329,31,58151,1,2,3:2:0:0:
329,31,58234,1,0,0:2:0:0:
329,31,58316,1,2,0:2:0:0:
263,98,58481,1,2,3:2:0:0:
313,249,58646,2,0,L|419:260,1,99.0000030212403,2|2,1:2|0:2,0:0:0:0:
263,98,58975,6,0,P|214:106|174:136,1,99.0000030212403,2|0,3:2|0:2,0:0:0:0:
301,343,59305,2,0,P|318:297|312:246,1,99.0000030212403,2|0,1:2|0:2,0:0:0:0:
250,184,59552,1,0,0:2:0:0:
250,184,59635,2,0,L|182:177,1,49.5000015106202,2|0,0:2|0:2,0:0:0:0:
223,270,59800,1,2,3:2:0:0:
306,118,59964,1,2,1:2:0:0:
251,28,60129,6,0,L|152:39,1,99.0000030212403,2|0,0:2|3:2,0:0:0:0:
100,217,60459,1,2,0:2:0:0:
20,24,60624,1,2,1:2:0:0:
187,130,60789,5,2,3:2:0:0:
187,130,60871,1,2,0:2:0:0:
187,130,60954,2,0,L|180:190,1,49.5000015106202,2|2,0:2|0:2,0:0:0:0:
29,265,61118,1,2,3:2:0:0:
29,265,61200,1,2,0:2:0:0:
29,265,61283,2,0,L|36:325,1,49.5000015106202,2|2,1:2|0:2,0:0:0:0:
61,139,61448,2,0,L|68:79,1,49.5000015106202,2|2,0:2|0:2,0:0:0:0:
100,217,61613,5,2,3:2:0:0:
264,158,61778,1,2,0:2:0:0:
100,217,61943,1,2,1:2:0:0:
261,372,62107,1,2,0:2:0:0:
287,345,62189,1,0,0:2:0:0:
304,313,62271,1,0,0:2:0:0:
311,277,62354,1,0,0:2:0:0:
309,240,62436,1,2,3:2:0:0:
264,158,62602,1,2,1:2:0:0:
338,24,62767,6,0,L|438:34,1,99.0000030212403,2|0,0:2|3:2,0:0:0:0:
205,225,63096,2,0,L|104:235,1,99.0000030212403,2|0,0:2|1:2,0:0:0:0:
146,141,63426,1,2,3:2:0:0:
146,141,63508,1,0,0:2:0:0:
146,141,63591,1,0,0:2:0:0:
205,225,63756,1,2,3:2:0:0:
40,359,63921,6,0,L|45:309,1,49.5000015106202,2|2,1:2|1:2,0:0:0:0:
16,225,64085,1,2,3:2:0:0:
207,322,64250,6,0,P|252:303|286:265,1,99.0000030212403,6|2,3:2|0:2,0:0:0:0:
289,170,64497,1,0,0:2:0:0:
289,170,64580,1,2,1:2:0:0:
318,68,64745,1,0,0:2:0:0:
143,157,64910,5,2,0:2:0:0:
149,196,64992,1,2,0:2:0:0:
155,235,65074,1,2,3:2:0:0:
289,170,65239,1,0,1:2:0:0:
228,28,65404,2,0,P|182:10|133:13,1,99.0000030212403,2|0,0:2|3:2,0:0:0:0:
64,219,65734,5,2,0:2:0:0:
64,219,65816,1,2,0:2:0:0:
64,219,65899,1,2,1:2:0:0:
167,91,66063,1,2,3:2:0:0:
97,307,66228,1,2,0:2:0:0:
64,114,66393,1,2,3:2:0:0:
289,170,66558,2,0,L|304:270,1,99.0000030212403,2|2,1:2|0:2,0:0:0:0:
258,354,66888,5,0,3:2:0:0:
375,130,67052,1,2,0:2:0:0:
414,136,67134,1,2,0:2:0:0:
453,142,67216,1,2,1:2:0:0:
289,170,67382,1,2,0:2:0:0:
372,45,67547,1,2,0:2:0:0:
426,221,67713,1,2,3:2:0:0:
258,354,67877,2,0,L|158:339,1,99.0000030212403,2|2,1:2|0:2,0:0:0:0:
99,104,68206,5,0,3:2:0:0:
146,232,68371,1,2,0:2:0:0:
12,323,68536,1,2,1:2:0:0:
59,193,68701,1,2,3:2:0:0:
197,137,68866,2,0,L|307:154,1,99.0000030212403,2|2,0:2|3:2,0:0:0:0:
130,19,69113,1,2,0:2:0:0:
130,19,69195,2,0,L|19:36,1,99.0000030212403,2|2,1:2|0:2,0:0:0:0:
59,193,69525,5,2,3:2:0:0:
158,361,69690,1,2,0:2:0:0:
194,356,69772,1,2,0:2:0:0:
231,350,69854,1,2,1:2:0:0:
268,344,69937,1,2,0:2:0:0:
304,339,70019,2,0,P|353:343|395:368,1,99.0000030212403,2|0,0:2|0:2,0:0:0:0:
395,368,70267,1,0,0:2:0:0:
395,368,70349,1,2,3:2:0:0:
484,186,70514,1,0,1:2:0:0:
439,188,70596,1,2,0:2:0:0:
396,177,70678,1,2,0:2:0:0:
358,153,70761,1,2,0:2:0:0:
330,120,70843,5,2,3:2:0:0:
445,54,71008,1,2,0:2:0:0:
364,263,71173,5,2,1:2:0:0:
238,215,71338,1,2,3:2:0:0:
78,267,71503,5,0,0:2:0:0:
78,267,71585,1,0,0:2:0:0:
77,267,71668,2,0,L|94:377,2,99.0000030212403,2|2|2,3:2|1:2|0:2,0:0:0:0:
54,120,72162,5,2,3:2:0:0:
108,36,72327,2,0,P|157:39|199:65,1,99.0000030212403,2|0,0:2|1:2,0:0:0:0:
312,234,72657,2,0,P|361:230|403:205,1,99.0000030212403,2|0,0:2|0:2,0:0:0:0:
289,50,72986,1,0,3:2:0:0:
134,125,73151,2,0,L|117:235,1,99.0000030212403,0|2,1:2|0:2,0:0:0:0:
53,290,73399,1,2,0:2:0:0:
53,290,73481,6,0,L|45:339,3,49.5000015106202,6|2|2|2,1:2|0:2|0:2|1:2,0:0:0:0:
204,265,73811,2,0,L|211:215,1,49.5000015106202,2|2,3:2|0:2,0:0:0:0:
304,223,73975,1,6,1:2:0:0:
304,223,74058,1,2,0:2:0:0:
304,223,74140,2,0,L|292:149,1,49.5000015106202,2|2,0:2|1:2,0:0:0:0:
394,159,74305,2,0,L|358:109,1,49.5000015106202,2|2,3:2|0:2,0:0:0:0:
469,18,74470,1,2,1:2:0:0:
452,60,74552,1,2,1:2:0:0:
421,91,74634,1,2,3:2:0:0:
377,104,74718,1,2,1:2:0:0:
334,97,74800,6,0,P|290:73|241:71,1,99.0000030212403,6|0,3:2|0:2,0:0:0:0:
162,212,75129,1,0,1:2:0:0:
41,62,75294,2,0,P|101:20|174:17,1,148.50000453186,6|0,3:2|0:2,0:0:0:0:
241,70,75624,2,0,L|252:180,1,99.0000030212403,0|0,0:2|0:2,0:0:0:0:
419,254,75954,1,0,1:2:0:0:
419,254,76036,1,0,0:2:0:0:
419,254,76118,6,0,L|407:364,2,99.0000030212403,6|4|0,3:2|3:2|1:2,0:0:0:0:
472,170,76613,1,4,3:2:0:0:
327,31,76778,2,0,P|278:38|240:69,1,99.0000030212403,2|0,0:2|0:2,0:0:0:0:
472,170,77107,2,0,P|489:124|482:75,1,99.0000030212403,2|0,0:2|1:2,0:0:0:0:
138,32,77437,6,0,L|144:88,3,49.5000015106202,6|2|2|2,3:2|0:2|0:2|0:2,0:0:0:0:
240,68,77767,1,2,1:2:0:0:
221,113,77849,1,2,0:2:0:0:
185,147,77931,1,2,0:2:0:0:
139,163,78014,1,2,0:2:0:0:
90,172,78096,1,2,0:2:0:0:
50,202,78178,1,2,0:2:0:0:
26,245,78260,1,2,3:2:0:0:
23,294,78343,1,2,0:2:0:0:
39,341,78426,2,0,L|95:346,1,49.5000015106202,2|0,1:2|0:2,0:0:0:0:
118,263,78591,2,0,L|167:257,1,49.5000015106202,0|0,0:2|0:2,0:0:0:0:
348,331,78756,6,0,L|353:274,3,49.5000015106202,2|2|2|2,3:2|0:2|0:2|0:2,0:0:0:0:
445,287,79085,1,2,1:2:0:0:
428,240,79167,1,2,0:2:0:0:
391,208,79249,1,2,3:2:0:0:
343,199,79332,1,2,0:2:0:0:
293,206,79415,1,2,0:2:0:0:
244,215,79497,1,2,0:2:0:0:
198,199,79579,1,2,3:2:0:0:
166,161,79662,1,2,0:2:0:0:
156,112,79745,2,0,L|149:49,1,49.5000015106202,2|0,1:2|1:2,0:0:0:0:
252,118,79910,1,0,3:2:0:0:
161,326,80074,6,0,L|61:310,1,99.0000030212403,6|0,3:2|0:2,0:0:0:0:
38,156,80404,1,0,1:2:0:0:
263,27,80569,2,0,P|324:64|337:136,1,148.50000453186,6|0,3:2|0:2,0:0:0:0:
299,223,80899,2,0,L|199:238,1,99.0000030212403,0|0,0:2|0:2,0:0:0:0:
278,355,81228,1,0,1:2:0:0:
278,355,81311,1,0,0:2:0:0:
278,354,81393,6,0,P|326:359|369:384,1,99.0000030212403,6|4,3:2|3:2,0:0:0:0:
299,223,81723,1,0,1:2:0:0:
252,118,81888,1,4,3:2:0:0:
252,118,81970,1,0,0:0:0:0:
252,118,82052,2,0,P|204:113|161:88,1,99.0000030212403,2|0,0:2|0:2,0:0:0:0:
394,6,82382,2,0,P|433:34|462:109,1,99.0000030212403,0|0,0:2|1:2,0:0:0:0:
371,321,82712,6,0,L|309:311,3,49.5000015106202,6|2|2|2,3:2|0:2|0:2|0:2,0:0:0:0:
247,348,83041,1,2,1:2:0:0:
286,317,83123,1,2,0:2:0:0:
305,272,83205,1,2,0:2:0:0:
299,223,83288,1,2,0:2:0:0:
283,175,83371,1,2,0:2:0:0:
275,126,83453,1,2,0:2:0:0:
291,80,83535,1,2,3:2:0:0:
328,48,83618,1,2,0:2:0:0:
377,39,83701,2,0,L|438:48,1,49.5000015106202,2|0,1:2|0:2,0:0:0:0:
446,176,83866,2,0,L|384:185,1,49.5000015106202,0|0,0:2|0:2,0:0:0:0:
217,66,84030,6,0,L|168:58,3,49.5000015106202,2|2|2|2,3:2|0:2|0:2|0:2,0:0:0:0:
102,11,84360,1,2,1:2:0:0:
141,42,84442,1,2,0:2:0:0:
160,87,84524,1,2,3:2:0:0:
154,136,84607,1,2,0:2:0:0:
141,184,84690,1,2,0:2:0:0:
147,232,84772,1,2,0:2:0:0:
171,276,84854,1,2,3:2:0:0:
213,302,84937,1,2,0:2:0:0:
262,306,85019,2,0,L|330:295,1,49.5000015106202,2|0,1:2|1:2,0:0:0:0:
245,203,85184,1,0,0:2:0:0:
144,365,85349,6,0,L|40:354,1,99.0000030212403,6|0,3:2|0:2,0:0:0:0:
12,259,85679,1,0,1:2:0:0:
95,82,85844,2,0,L|243:66,1,148.50000453186,6|0,3:2|0:2,0:0:0:0:
300,0,86173,2,0,P|348:5|391:30,1,99.0000030212403,0|0,0:2|0:2,0:0:0:0:
505,180,86503,1,0,1:2:0:0:
505,180,86585,1,0,0:2:0:0:
505,180,86668,6,0,L|494:283,2,99.0000030212403,6|4|0,3:2|3:2|1:2,0:0:0:0:
323,89,87162,1,4,3:2:0:0:
242,213,87327,2,0,P|283:237|333:242,1,99.0000030212403,2|0,0:2|0:2,0:0:0:0:
355,3,87657,2,0,P|306:1|261:23,1,99.0000030212403,2|0,0:2|1:2,0:0:0:0:
85,157,87986,6,0,L|94:217,3,49.5000015106202,6|2|2|2,3:2|0:2|0:2|0:2,0:0:0:0:
40,74,88316,1,2,1:2:0:0:
88,67,88398,1,2,0:2:0:0:
135,82,88480,1,2,0:2:0:0:
172,113,88563,1,2,0:2:0:0:
205,151,88645,1,2,0:2:0:0:
251,171,88727,1,2,0:2:0:0:
300,170,88811,1,2,3:2:0:0:
344,148,88892,1,2,0:2:0:0:
376,111,88975,2,0,L|383:62,1,49.5000015106202,2|0,1:2|0:2,0:0:0:0:
264,41,89140,2,0,L|271:89,1,49.5000015106202,0|0,0:2|0:2,0:0:0:0:
451,213,89305,6,0,L|460:153,3,49.5000015106202,2|2|2|2,3:2|0:2|0:2|0:2,0:0:0:0:
503,280,89635,1,2,1:2:0:0:
470,315,89717,1,2,0:2:0:0:
424,333,89799,1,2,3:2:0:0:
375,332,89882,1,2,0:2:0:0:
331,308,89964,1,2,0:2:0:0:
288,284,90046,1,2,0:2:0:0:
239,282,90128,1,2,3:2:0:0:
193,298,90211,1,2,0:2:0:0:
159,335,90294,2,0,L|168:400,1,49.5000015106202,2|0,1:2|1:2,0:0:0:0:
195,197,90459,1,0,3:2:0:0:
120,38,90624,6,0,L|0:56,1,99.0000030212403,6|0,3:2|0:2,0:0:0:0:
195,197,90954,1,0,1:2:0:0:
369,109,91118,2,0,P|325:51|253:45,1,148.50000453186,6|0,3:2|0:2,0:0:0:0:
180,106,91448,2,0,L|161:225,1,99.0000030212403,0|0,0:2|0:2,0:0:0:0:
82,298,91778,1,0,1:2:0:0:
82,298,91860,1,0,0:2:0:0:
82,298,91943,5,6,3:2:0:0:
301,220,92107,2,0,L|282:100,1,99.0000030212403,4|0,3:2|1:2,0:0:0:0:
401,4,92437,1,4,3:2:0:0:
401,4,92519,1,0,0:0:0:0:
401,4,92602,2,0,P|449:2|494:22,1,99.0000030212403,2|0,0:2|0:2,0:0:0:0:
285,122,92932,2,0,P|242:99|213:59,1,99.0000030212403,0|0,0:2|1:2,0:0:0:0:
325,285,93261,5,6,3:2:0:0:
291,383,93426,1,2,3:2:0:0:
252,222,93591,1,10,3:2:0:0:
285,122,93756,1,2,3:2:0:0:
220,312,93921,1,2,3:2:0:0:
118,280,94085,1,2,3:2:0:0:
350,195,94250,1,10,3:2:0:0:
449,229,94415,1,2,3:2:0:0:
136,377,94580,5,2,3:2:0:0:
117,331,94662,1,2,3:2:0:0:
118,280,94744,1,2,3:2:0:0:
139,234,94827,1,2,3:2:0:0:
181,209,94909,1,10,3:2:0:0:
229,203,94991,1,2,3:2:0:0:
276,218,95074,1,2,3:2:0:0:
324,226,95156,1,2,3:2:0:0:
371,211,95238,1,2,3:2:0:0:
413,184,95321,1,10,3:2:0:0:
434,139,95403,1,2,3:2:0:0:
430,89,95485,1,2,3:2:0:0:
397,50,95569,2,0,L|329:46,1,49.5000015106202,10|2,3:2|3:2,0:0:0:0:
272,111,95734,2,0,L|206:93,1,49.5000015106202,2|2,3:2|3:2,0:0:0:0:
109,14,95899,6,0,P|65:36|35:75,1,99.0000030212403,6|0,3:2|0:2,0:0:0:0:
94,259,96228,1,0,1:2:0:0:
126,109,96393,1,2,0:2:0:0:
126,109,96475,1,0,0:2:0:0:
18,173,96641,1,2,0:2:0:0:
18,173,96723,1,0,3:2:0:0:
55,349,96888,2,0,L|175:336,1,99.0000030212403,2|2,1:2|0:2,0:0:0:0:
331,197,97217,5,2,3:2:0:0:
370,197,97299,1,0,0:2:0:0:
407,209,97381,1,2,0:2:0:0:
439,233,97464,1,0,0:2:0:0:
459,267,97547,2,0,L|448:369,1,99.0000030212403,2|2,1:2|3:2,0:0:0:0:
448,365,97794,1,0,0:2:0:0:
448,365,97877,1,0,0:2:0:0:
355,298,98041,1,2,3:2:0:0:
394,118,98206,2,0,L|496:107,1,99.0000030212403,2|2,1:2|0:2,0:0:0:0:
257,29,98536,5,2,3:2:0:0:
257,29,98618,1,2,0:2:0:0:
257,29,98700,1,2,0:2:0:0:
175,90,98866,1,2,1:2:0:0:
166,133,98948,1,2,0:2:0:0:
176,176,99030,1,2,0:2:0:0:
203,211,99113,1,0,0:2:0:0:
227,247,99195,1,2,0:2:0:0:
236,290,99277,1,2,0:2:0:0:
226,333,99359,1,2,3:2:0:0:
199,368,99442,1,0,0:2:0:0:
156,382,99525,1,2,1:2:0:0:
112,380,99607,1,0,0:2:0:0:
73,357,99689,1,2,0:2:0:0:
46,322,99772,1,2,0:2:0:0:
40,277,99855,6,0,L|51:165,1,99.0000030212403,2|2,3:2|0:2,0:0:0:0:
12,87,100102,1,2,0:2:0:0:
12,87,100184,2,0,L|5:23,2,49.5000015106202,2|0|2,1:2|0:2|3:2,0:0:0:0:
138,301,100514,1,2,0:2:0:0:
187,295,100596,1,0,1:2:0:0:
236,290,100678,1,2,3:2:0:0:
138,179,100844,1,2,1:2:0:0:
72,359,101008,1,2,3:2:0:0:
263,197,101173,6,0,P|301:226|323:270,1,99.0000030212403,2|2,3:2|0:2,0:0:0:0:
286,384,101421,1,2,0:2:0:0:
286,384,101503,2,0,L|220:377,1,49.5000015106202,2|2,1:2|0:2,0:0:0:0:
411,345,101668,1,2,0:2:0:0:
411,345,101750,1,2,0:2:0:0:
411,345,101833,2,0,L|417:279,3,49.5000015106202,2|2|2|0,0:2|0:2|3:2|0:2,0:0:0:0:
490,246,102162,1,2,1:2:0:0:
474,203,102244,1,2,0:2:0:0:
444,170,102326,1,2,0:2:0:0:
407,144,102409,1,2,0:2:0:0:
361,137,102492,6,0,L|284:149,1,49.5000015106202,2|2,3:2|0:2,0:0:0:0:
252,243,102657,2,0,L|175:230,1,49.5000015106202,2|2,0:2|0:2,0:0:0:0:
184,151,102822,1,2,1:2:0:0:
297,318,102986,1,2,3:2:0:0:
297,318,103069,1,0,0:2:0:0:
361,137,103233,1,0,0:2:0:0:
361,137,103316,1,2,3:2:0:0:
313,31,103481,1,2,1:2:0:0:
273,25,103563,1,0,0:2:0:0:
233,19,103645,1,2,0:2:0:0:
193,13,103728,1,0,0:2:0:0:
148,7,103811,5,2,3:2:0:0:
99,13,103893,1,2,0:2:0:0:
58,41,103975,1,2,0:2:0:0:
34,83,104058,1,2,0:2:0:0:
29,128,104140,1,2,1:2:0:0:
50,171,104222,1,2,0:2:0:0:
89,203,104304,1,2,0:2:0:0:
137,211,104387,1,2,0:2:0:0:
180,199,104470,5,2,0:2:0:0:
225,176,104552,1,2,0:2:0:0:
274,178,104634,1,2,3:2:0:0:
317,198,104717,1,2,0:2:0:0:
346,235,104799,1,2,1:2:0:0:
352,282,104881,1,2,0:2:0:0:
335,330,104963,1,2,0:2:0:0:
301,363,105046,1,2,0:2:0:0:
247,376,105129,5,2,3:2:0:0:
194,361,105211,1,2,0:2:0:0:
157,321,105293,1,2,0:2:0:0:
142,268,105376,1,2,0:2:0:0:
157,215,105459,1,2,1:2:0:0:
196,175,105541,1,2,0:2:0:0:
208,122,105623,1,2,3:2:0:0:
194,69,105706,1,2,0:2:0:0:
156,28,105789,6,0,L|110:32,5,33.0000010070801,2|2|2|2|2|2,0:2|0:2|0:2|3:2|0:2|0:2,0:0:0:0:
78,116,106118,1,2,1:2:0:0:
142,268,106283,2,0,L|213:260,1,49.5000015106202,0|0,1:2|3:2,0:0:0:0:
235,189,106448,6,0,L|339:199,1,99.0000030212403,6|2,3:2|0:2,0:0:0:0:
291,330,106778,1,2,1:2:0:0:
146,169,106943,1,0,0:2:0:0:
161,135,107025,1,0,0:2:0:0:
188,111,107107,1,2,0:2:0:0:
224,99,107190,1,0,0:2:0:0:
260,103,107272,1,2,3:2:0:0:
341,53,107437,1,0,1:2:0:0:
485,156,107602,6,0,L|475:260,1,99.0000030212403,2|0,0:2|3:2,0:0:0:0:
341,53,107932,2,0,P|377:21|424:9,1,99.0000030212403,2|0,0:2|1:2,0:0:0:0:
321,199,108261,1,2,3:2:0:0:
321,199,108344,1,0,0:2:0:0:
321,199,108426,2,0,P|275:183|241:148,1,99.0000030212403,0|2,0:2|3:2,0:0:0:0:
420,97,108756,1,2,1:2:0:0:
474,212,108921,1,2,0:2:0:0:
411,348,109085,6,0,L|307:332,1,99.0000030212403,2|0,3:2|0:2,0:0:0:0:
210,235,109415,2,0,L|112:249,1,99.0000030212403,2|0,1:2|0:2,0:0:0:0:
78,328,109662,1,0,0:2:0:0:
78,328,109745,2,0,L|16:319,1,49.5000015106202,2|0,0:2|0:2,0:0:0:0:
152,384,109910,1,2,3:2:0:0:
210,235,110074,1,2,1:2:0:0:
117,127,110239,6,0,P|72:143|40:183,1,99.0000030212403,2|0,0:2|3:2,0:0:0:0:
270,305,110569,2,0,P|293:263|293:212,1,99.0000030212403,2|0,0:2|1:2,0:0:0:0:
117,127,110899,1,2,3:2:0:0:
117,127,110981,1,0,0:2:0:0:
53,272,111146,1,0,1:2:0:0:
53,272,111228,1,2,3:2:0:0:
148,384,111393,2,0,L|252:368,1,99.0000030212403,2|2,1:2|3:2,0:0:0:0:
312,266,111640,1,0,0:2:0:0:
312,266,111723,6,0,L|416:282,2,99.0000030212403,4|2|2,3:2|0:2|1:2,0:0:0:0:
230,159,112217,1,0,0:2:0:0:
230,159,112300,1,0,0:2:0:0:
230,159,112382,2,0,L|241:86,1,49.5000015106202,2|0,0:2|0:2,0:0:0:0:
318,168,112547,1,2,3:2:0:0:
219,251,112712,1,2,1:2:0:0:
116,170,112877,2,0,L|132:66,1,99.0000030212403,2|0,0:2|3:2,0:0:0:0:
312,266,113206,6,0,L|328:370,1,99.0000030212403,2|0,0:2|1:2,0:0:0:0:
450,167,113536,1,2,3:2:0:0:
450,167,113618,1,0,0:2:0:0:
450,167,113701,2,0,P|415:133|366:120,1,99.0000030212403,0|2,0:2|3:2,0:0:0:0:
270,149,114030,1,2,1:2:0:0:
337,34,114195,1,2,0:2:0:0:
450,167,114360,6,0,L|439:271,1,99.0000030212403,4|2,3:2|0:2,0:0:0:0:
270,149,114690,1,2,1:2:0:0:
238,285,114855,2,0,L|342:274,1,99.0000030212403,0|2,0:2|0:2,0:0:0:0:
270,149,115184,1,2,3:2:0:0:
217,37,115349,2,0,L|113:26,1,99.0000030212403,0|2,1:2|0:2,0:0:0:0:
89,21,115596,1,0,0:2:0:0:
59,18,115679,5,6,3:2:0:0:
5,109,115844,1,0,0:2:0:0:
57,196,116008,1,2,1:2:0:0:
185,127,116173,1,2,3:2:0:0:
185,127,116256,1,0,0:2:0:0:
185,127,116338,2,0,P|140:106|92:111,1,99.0000030212403,0|2,0:2|3:2,0:0:0:0:
62,283,116668,2,0,P|106:303|154:298,1,99.0000030212403,2|0,1:2|0:2,0:0:0:0:
429,270,116997,6,0,P|417:344|352:307,1,175.499991966248,2|0,3:2|0:2,0:0:0:0:
300,246,117327,2,0,L|311:139,1,99.0000030212403,2|0,0:2|0:2,0:0:0:0:
109,96,117657,1,2,1:2:0:0:
109,96,117739,1,2,1:2:0:0:
109,96,117822,1,10,3:2:0:0:
109,96,117904,1,2,1:2:0:0:
109,96,117986,2,0,L|120:202,1,99.0000030212403,2|0,1:2|1:2,0:0:0:0:
100,360,118316,5,2,3:2:0:0:
9,316,118481,1,2,3:2:0:0:
22,217,118646,1,2,3:2:0:0:
119,194,118811,1,2,3:2:0:0:
255,291,118975,5,2,3:2:0:0:
298,297,119057,1,2,0:2:0:0:
339,282,119139,1,2,0:2:0:0:
374,254,119222,1,2,0:2:0:0:
386,210,119305,2,0,L|378:141,1,49.5000015106202,2|2,3:2|0:2,0:0:0:0:
280,130,119470,2,0,L|287:61,1,49.5000015106202,2|2,0:2|0:2,0:0:0:0:
418,24,119635,6,0,L|490:32,1,72,6|2,3:2|0:2,0:0:0:0:
489,31,121613,1,2,0:2:0:0:
483,138,122272,2,0,P|440:124|385:149,1,108,2|2,0:2|0:2,0:0:0:0:
385,148,124580,1,2,0:2:0:0:
482,212,124910,2,0,L|407:223,1,72,2|2,0:2|0:2,0:0:0:0:
411,223,126888,1,2,0:2:0:0:
395,302,127547,2,0,P|364:286|344:263,1,63,2|0,0:2|0:2,0:0:0:0:
287,218,128866,2,0,L|297:154,1,63,2|0,0:2|0:2,0:0:0:0:
279,80,130184,6,0,P|248:96|225:126,1,72,2|2,0:2|0:2,0:0:0:0:
225,124,132162,1,2,0:2:0:0:
226,202,132492,1,2,0:2:0:0:
189,269,132822,2,0,P|223:296|283:318,1,108,2|2,0:2|0:2,0:0:0:0:
283,318,135129,1,2,0:2:0:0:
357,349,135459,2,0,L|466:330,1,108,2|2,0:2|0:2,0:0:0:0:
463,330,138096,1,2,0:2:0:0:
512,384,139415,1,2,0:2:0:0:
512,384,140734,6,0,L|451:374,1,45,6|2,3:2|0:2,0:0:0:0:
413,322,141063,2,0,L|368:329,1,45,2|2,0:2|0:2,0:0:0:0:
308,379,141393,2,0,P|264:368|229:341,1,90,2|2,1:2|1:2,0:0:0:0:
229,341,142052,2,0,P|206:342|185:349,1,45,2|2,0:2|0:2,0:0:0:0:
120,384,142382,1,2,3:2:0:0:
61,288,142712,1,2,1:2:0:0:
61,288,143371,5,2,3:2:0:0:
61,288,143536,1,2,0:2:0:0:
94,359,143701,2,0,L|155:369,1,45,2|2,0:2|0:2,0:0:0:0:
195,313,144030,2,0,L|299:295,1,90,2|2,1:2|1:2,0:0:0:0:
419,340,144690,2,0,L|414:393,1,45,2|2,0:2|0:2,0:0:0:0:
359,291,145019,1,2,3:2:0:0:
471,259,145349,1,2,1:2:0:0:
471,259,146008,6,0,P|446:257|422:265,1,45,2|2,3:2|0:2,0:0:0:0:
359,291,146338,2,0,P|335:284|315:270,1,45,2|2,0:2|0:2,0:0:0:0:
267,222,146668,2,0,P|223:232|188:259,1,90,2|2,1:2|1:2,0:0:0:0:
188,258,147327,2,0,L|136:252,1,45,2|2,0:2|0:2,0:0:0:0:
86,309,147657,1,2,3:2:0:0:
7,254,147986,1,2,1:2:0:0:
7,254,148646,5,2,3:2:0:0:
75,220,148811,1,2,0:2:0:0:
135,266,148975,2,0,L|126:318,1,45,2|2,0:2|0:2,0:0:0:0:
207,249,149305,2,0,P|243:233|298:228,1,90,2|2,1:2|1:2,0:0:0:0:
400,262,149964,2,0,P|375:265|353:275,1,45,2|2,0:2|1:2,0:0:0:0:
401,340,150294,1,2,3:2:0:0:
471,303,150459,2,0,P|493:262|490:215,1,90,2|2,0:2|0:2,0:0:0:0:
434,178,150954,1,2,0:2:0:0:
433,178,151283,5,6,3:2:0:0:
355,181,151448,1,2,0:2:0:0:
280,205,151613,1,2,0:2:0:0:
235,268,151778,1,2,0:2:0:0:
162,294,151943,2,0,L|109:288,1,45,2|2,1:2|0:2,0:0:0:0:
90,219,152272,2,0,L|37:224,1,45,2|2,1:2|0:2,0:0:0:0:
41,356,152602,1,2,0:2:0:0:
41,356,152767,1,2,0:2:0:0:
117,289,152932,1,2,3:2:0:0:
54,147,153261,1,2,1:2:0:0:
54,147,153921,5,6,3:2:0:0:
119,107,154085,1,2,0:2:0:0:
195,113,154250,1,2,0:2:0:0:
251,164,154415,1,2,0:2:0:0:
330,153,154580,2,0,L|335:98,1,45,2|2,1:2|0:2,0:0:0:0:
251,164,154910,2,0,L|245:218,1,45,2|2,1:2|0:2,0:0:0:0:
315,249,155239,1,2,0:2:0:0:
386,214,155404,1,2,0:2:0:0:
460,239,155569,1,2,3:2:0:0:
484,86,155899,1,2,1:2:0:0:
484,86,156558,5,6,3:2:0:0:
417,43,156723,1,2,0:2:0:0:
339,51,156888,1,2,0:2:0:0:
290,109,157052,2,0,L|295:165,1,45,2|2,0:2|1:2,0:0:0:0:
339,51,157382,1,2,0:2:0:0:
213,80,157547,2,0,L|207:136,1,45,2|2,1:2|0:2,0:0:0:0:
154,178,157877,1,2,0:2:0:0:
86,145,158041,1,2,0:2:0:0:
86,145,158206,2,0,P|47:164|-13:181,2,90,0|0|2,3:2|1:2|0:2,0:0:0:0:
22,15,159195,5,2,3:2:0:0:
77,73,159360,1,2,0:2:0:0:
152,45,159525,1,2,0:2:0:0:
215,93,159690,2,0,P|230:135|231:179,1,90,2|2,0:2|0:2,0:0:0:0:
154,153,160184,1,2,1:2:0:0:
154,153,160349,1,2,0:2:0:0:
290,58,160514,2,0,L|338:63,2,45,2|2|2,0:2|0:2|3:2,0:0:0:0:
381,0,161008,2,0,P|404:26|409:88,1,90,2|0,0:2|0:2,0:0:0:0:
341,157,161503,1,2,0:2:0:0:
238,128,161668,1,2,0:2:0:0:
256,15,161833,5,2,3:2:0:0:
256,37,161915,1,2,0:2:0:0:
256,60,161997,1,2,3:2:0:0:
256,82,162080,1,2,0:2:0:0:
256,105,162162,1,10,0:2:0:0:
256,127,162245,1,2,0:2:0:0:
256,150,162327,1,2,3:2:0:0:
256,172,162409,1,2,0:2:0:0:
256,195,162492,1,2,3:2:0:0:
256,217,162574,1,2,0:2:0:0:
256,240,162657,1,2,3:2:0:0:
256,262,162739,1,2,0:2:0:0:
256,285,162822,1,10,3:2:0:0:
256,307,162904,1,2,0:2:0:0:
256,330,162986,1,2,3:2:0:0:
256,352,163069,1,2,0:2:0:0:
279,383,163151,6,0,L|347:369,1,45,2|2,3:2|3:2,0:0:0:0:
170,329,163316,6,0,L|102:315,1,45,2|2,3:2|3:2,0:0:0:0:
360,208,163481,6,0,L|428:222,1,45,10|2,3:2|3:2,0:0:0:0:
117,73,163646,6,0,L|73:64,1,45,2|2,3:2|3:2,0:0:0:0:
395,73,163811,6,0,L|439:64,1,45,2|2,3:2|3:2,0:0:0:0:
152,208,163975,6,0,L|84:222,1,45,2|2,3:2|3:2,0:0:0:0:
256,15,164140,5,2,1:2:0:0:
256,15,164470,5,6,3:2:0:0:
327,216,164635,1,2,0:2:0:0:
171,74,164800,1,2,1:2:0:0:
341,64,164964,2,0,L|398:73,1,53.9999983520508,2|0,0:2|0:2,0:0:0:0:
186,205,165129,2,0,L|128:214,1,53.9999983520508,2|0,0:2|0:2,0:0:0:0:
256,15,165294,1,0,3:2:0:0:
438,189,165459,2,0,L|418:310,1,107.999996704102,2|0,1:2|0:2,0:0:0:0:
171,297,165789,5,2,3:2:0:0:
229,123,165954,1,2,0:2:0:0:
111,13,166118,2,0,P|57:22|16:61,1,107.999996704102,2|2,1:2|3:2,0:0:0:0:
2,98,166366,1,0,0:2:0:0:
6,140,166448,1,0,0:2:0:0:
29,176,166530,1,0,0:2:0:0:
67,198,166613,1,0,3:2:0:0:
229,123,166778,2,0,L|335:139,1,107.999996704102,2|0,1:2|0:2,0:0:0:0:
441,61,167107,5,2,3:2:0:0:
331,238,167272,1,2,0:2:0:0:
268,42,167437,1,2,1:2:0:0:
465,154,167602,2,0,L|471:212,1,53.9999983520508,2|0,0:2|0:2,0:0:0:0:
331,238,167767,2,0,L|324:296,1,53.9999983520508,2|0,0:2|0:2,0:0:0:0:
402,357,167932,1,0,3:2:0:0:
335,139,168096,2,0,L|229:155,1,107.999996704102,2|0,1:2|0:2,0:0:0:0:
23,284,168426,5,2,3:2:0:0:
205,336,168591,1,2,0:2:0:0:
46,194,168756,1,2,1:2:0:0:
114,382,168921,1,2,3:2:0:0:
114,382,169003,1,0,0:2:0:0:
114,382,169085,1,2,0:2:0:0:
228,155,169250,1,0,3:2:0:0:
187,62,169415,2,0,B|131:71|131:71|87:46,1,107.999996704102,2|0,1:2|0:2,0:0:0:0:
226,155,169745,5,2,3:2:0:0:
392,108,169910,1,2,0:2:0:0:
265,251,170074,1,2,1:2:0:0:
355,30,170239,2,0,L|426:22,1,53.9999983520508,2|0,0:2|0:2,0:0:0:0:
226,155,170404,2,0,L|154:147,1,53.9999983520508,2|0,0:2|0:2,0:0:0:0:
385,237,170569,1,0,3:2:0:0:
236,350,170734,2,0,P|195:316|176:262,1,107.999996704102,2|0,1:2|0:2,0:0:0:0:
204,70,171063,5,2,3:2:0:0:
265,251,171228,1,2,0:2:0:0:
417,148,171393,1,2,1:2:0:0:
485,310,171558,1,2,3:2:0:0:
461,342,171640,1,0,0:2:0:0:
427,364,171722,1,0,0:2:0:0:
388,373,171805,1,0,0:2:0:0:
348,368,171887,1,0,3:2:0:0:
265,251,172052,2,0,L|275:144,1,107.999996704102,2|0,1:2|0:2,0:0:0:0:
348,368,172382,5,2,3:2:0:0:
183,276,172547,1,2,0:2:0:0:
355,186,172712,1,2,1:2:0:0:
224,358,172877,2,0,L|155:365,1,53.9999983520508,2|0,0:2|0:2,0:0:0:0:
121,206,173041,2,0,L|52:198,1,53.9999983520508,2|0,0:2|0:2,0:0:0:0:
183,276,173206,1,0,3:2:0:0:
350,96,173371,2,0,P|401:110|437:149,1,107.999996704102,2|0,1:2|0:2,0:0:0:0:
177,134,173701,5,2,3:2:0:0:
172,85,173783,1,0,1:2:0:0:
167,37,173865,1,2,3:2:0:0:
23,117,174030,1,2,1:2:0:0:
93,299,174195,1,2,3:2:0:0:
93,299,174278,1,0,0:2:0:0:
269,173,174443,1,0,0:2:0:0:
269,173,174526,1,2,3:2:0:0:
464,258,174690,1,2,1:2:0:0:
459,307,174772,1,0,1:2:0:0:
454,355,174854,1,0,3:2:0:0:
180,237,175019,5,2,3:2:0:0:
250,87,175184,1,2,0:2:0:0:
262,286,175349,1,2,1:2:0:0:
153,66,175514,2,0,L|163:1,1,53.9999983520508,2|0,0:2|0:2,0:0:0:0:
329,43,175679,5,2,0:2:0:0:
182,152,175844,1,2,3:2:0:0:
342,246,176008,1,2,1:2:0:0:
210,369,176173,1,2,0:2:0:0:
210,369,176256,1,0,0:2:0:0:
210,369,176338,5,2,3:2:0:0:
125,220,176503,1,2,0:2:0:0:
248,85,176668,1,2,1:2:0:0:
423,149,176833,1,2,3:2:0:0:
423,149,176915,1,0,0:2:0:0:
423,149,176997,2,0,L|416:209,1,53.9999983520508,0|0,0:2|0:2,0:0:0:0:
407,295,177162,1,0,3:2:0:0:
506,106,177327,2,0,P|467:68|415:55,1,107.999996704102,2|0,1:2|0:2,0:0:0:0:
166,150,177657,5,2,3:2:0:0:
337,93,177822,1,2,0:2:0:0:
130,68,177986,1,2,1:2:0:0:
312,232,178151,2,0,L|386:220,1,53.9999983520508,2|0,0:2|0:2,0:0:0:0:
352,313,178316,5,2,0:2:0:0:
265,157,178481,1,2,3:2:0:0:
110,268,178646,1,2,1:2:0:0:
40,120,178811,1,2,0:2:0:0:
40,120,178893,1,0,0:2:0:0:
40,120,178975,5,2,3:2:0:0:
189,217,179140,1,2,0:2:0:0:
39,321,179305,1,2,1:2:0:0:
40,120,179470,2,0,L|111:131,1,53.9999983520508,2|0,3:2|0:2,0:0:0:0:
189,217,179635,2,0,L|260:205,1,53.9999983520508,0|0,0:2|0:2,0:0:0:0:
323,101,179800,1,2,3:2:0:0:
506,194,179964,2,0,L|490:300,1,107.999996704102,2|0,1:2|0:2,0:0:0:0:
400,362,180212,1,0,0:2:0:0:
400,362,180294,5,2,3:2:0:0:
338,200,180459,1,2,0:2:0:0:
462,103,180624,1,2,1:2:0:0:
334,292,180789,2,0,L|215:273,1,107.999996704102,2|2,0:2|0:2,0:0:0:0:
136,367,181118,1,2,3:2:0:0:
74,135,181283,2,0,L|180:118,1,107.999996704102,2|2,1:2|0:2,0:0:0:0:
239,48,181530,1,0,0:2:0:0:
239,48,181613,5,2,3:2:0:0:
338,200,181778,1,2,0:2:0:0:
325,5,181943,1,0,1:2:0:0:
146,50,182107,1,2,3:2:0:0:
139,90,182189,1,0,0:2:0:0:
133,130,182271,1,0,0:2:0:0:
127,170,182355,1,0,0:2:0:0:
120,210,182437,1,2,3:2:0:0:
52,58,182602,1,2,1:2:0:0:
212,204,182767,2,0,L|269:194,1,53.9999983520508,2|0,0:2|0:2,0:0:0:0:
435,83,182932,5,2,3:2:0:0:
407,283,183096,1,2,0:2:0:0:
196,302,183261,1,2,1:2:0:0:
230,94,183426,1,2,0:2:0:0:
230,94,183508,1,0,0:2:0:0:
230,94,183591,1,0,0:2:0:0:
291,329,183756,1,2,3:2:0:0:
145,142,183921,1,2,1:2:0:0:
303,42,184085,1,2,0:2:0:0:
468,241,184250,5,2,1:2:0:0:
460,288,184332,1,0,1:2:0:0:
452,336,184414,1,2,3:2:0:0:
488,146,184580,1,2,1:2:0:0:
302,42,184745,1,2,3:2:0:0:
268,75,184827,1,2,1:2:0:0:
223,94,184909,1,2,0:2:0:0:
175,95,184992,1,2,1:2:0:0:
131,75,185074,1,2,3:2:0:0:
85,60,185156,1,2,0:2:0:0:
37,64,185239,2,0,L|27:122,1,53.9999983520508,2|2,1:2|0:2,0:0:0:0:
151,224,185404,2,0,L|160:282,1,53.9999983520508,2|2,3:2|1:2,0:0:0:0:
193,12,185569,5,6,3:2:0:0:
291,190,185734,1,2,0:2:0:0:
135,103,185899,1,2,1:2:0:0:
283,68,186063,2,0,L|338:73,1,53.9999983520508,2|0,0:2|0:2,0:0:0:0:
151,224,186228,2,0,L|95:218,1,53.9999983520508,2|0,0:2|0:2,0:0:0:0:
193,12,186393,1,0,3:2:0:0:
382,188,186558,2,0,P|368:239|330:277,1,107.999996704102,2|0,1:2|0:2,0:0:0:0:
75,298,186888,5,2,3:2:0:0:
213,123,187052,1,2,0:2:0:0:
166,336,187217,1,2,1:2:0:0:
43,96,187382,1,2,3:2:0:0:
67,64,187464,1,0,0:2:0:0:
101,42,187546,1,0,0:2:0:0:
140,33,187629,1,0,0:2:0:0:
180,38,187711,1,0,3:2:0:0:
302,174,187877,2,0,L|419:161,1,107.999996704102,6|0,1:2|0:2,0:0:0:0:
474,95,188124,1,0,0:2:0:0:
474,95,188206,5,6,3:2:0:0:
420,291,188371,1,2,0:2:0:0:
347,90,188536,1,2,1:2:0:0:
505,202,188701,2,0,L|498:267,1,53.9999983520508,2|0,0:2|0:2,0:0:0:0:
302,174,188866,2,0,L|248:168,1,53.9999983520508,6|0,0:2|0:2,0:0:0:0:
416,25,189030,1,0,3:2:0:0:
383,219,189195,2,0,P|343:254|291:266,1,107.999996704102,2|0,1:2|0:2,0:0:0:0:
191,372,189525,5,6,3:2:0:0:
129,188,189690,1,2,0:2:0:0:
73,359,189855,1,2,1:2:0:0:
210,274,190019,1,2,3:2:0:0:
210,274,190102,1,0,0:2:0:0:
210,274,190184,1,6,0:2:0:0:
235,140,190349,1,0,3:2:0:0:
170,23,190514,2,0,L|62:39,1,107.999996704102,2|0,1:2|0:2,0:0:0:0:
235,140,190844,5,6,3:2:0:0:
362,59,191008,1,2,0:2:0:0:
254,231,191173,1,2,1:2:0:0:
268,53,191338,2,0,L|258:-4,1,53.9999983520508,2|0,0:2|0:2,0:0:0:0:
421,130,191503,2,0,L|411:187,1,53.9999983520508,2|0,0:2|0:2,0:0:0:0:
235,140,191668,1,0,3:2:0:0:
460,49,191833,2,0,P|497:86|512:138,1,107.999996704102,2|0,1:2|0:2,0:0:0:0:
456,370,192162,5,2,3:2:0:0:
417,363,192245,1,0,0:2:0:0:
379,357,192327,1,2,0:2:0:0:
321,157,192492,1,2,1:2:0:0:
200,318,192657,1,2,3:2:0:0:
238,312,192739,1,0,0:2:0:0:
277,305,192822,1,0,0:2:0:0:
321,157,192986,1,0,3:2:0:0:
197,32,193151,2,0,P|147:51|113:93,1,107.999996704102,6|0,1:2|0:2,0:0:0:0:
145,192,193399,1,0,0:2:0:0:
145,192,193481,5,6,3:2:0:0:
85,334,193646,1,2,0:2:0:0:
42,160,193811,1,2,1:2:0:0:
198,121,193975,2,0,L|265:130,1,53.9999983520508,2|0,0:2|0:2,0:0:0:0:
332,240,194140,2,0,L|399:230,1,53.9999983520508,6|0,0:2|0:2,0:0:0:0:
460,152,194305,1,0,3:2:0:0:
241,222,194470,2,0,L|224:328,1,107.999996704102,2|0,1:2|0:2,0:0:0:0:
460,152,194800,5,6,3:2:0:0:
451,103,194882,1,0,1:2:0:0:
444,55,194964,1,2,3:2:0:0:
301,156,195129,1,2,1:2:0:0:
157,52,195294,1,2,3:2:0:0:
162,90,195377,1,0,0:2:0:0:
28,115,195541,1,0,0:2:0:0:
22,151,195624,1,2,3:2:0:0:
175,256,195789,1,2,1:2:0:0:
182,304,195871,1,0,1:2:0:0:
189,353,195953,1,2,3:2:0:0:
301,156,196118,5,6,3:2:0:0:
174,107,196283,1,2,0:2:0:0:
273,250,196448,1,2,1:2:0:0:
397,110,196613,2,0,L|404:45,1,53.9999983520508,2|0,0:2|0:2,0:0:0:0:
253,9,196778,5,2,0:2:0:0:
301,157,196943,1,2,3:2:0:0:
108,178,197107,1,2,1:2:0:0:
142,11,197272,1,2,0:2:0:0:
142,11,197355,1,0,0:2:0:0:
142,11,197437,5,2,3:2:0:0:
204,194,197602,1,2,0:2:0:0:
320,64,197767,1,2,1:2:0:0:
447,192,197932,1,2,3:2:0:0:
447,192,198014,1,0,0:2:0:0:
447,192,198096,2,0,L|439:266,1,53.9999983520508,0|0,0:2|0:2,0:0:0:0:
301,157,198261,1,0,3:2:0:0:
119,230,198426,2,0,L|130:337,1,107.999996704102,6|0,1:2|0:2,0:0:0:0:
204,194,198673,1,0,0:2:0:0:
204,194,198756,5,6,3:2:0:0:
50,165,198921,1,2,0:2:0:0:
219,308,199085,1,2,1:2:0:0:
174,82,199250,2,0,L|96:68,1,53.9999983520508,2|0,0:2|0:2,0:0:0:0:
6,267,199415,5,2,0:2:0:0:
131,152,199580,1,2,3:2:0:0:
219,308,199745,1,2,1:2:0:0:
363,226,199910,1,2,0:2:0:0:
357,188,199992,1,0,0:2:0:0:
351,150,200074,5,6,3:2:0:0:
174,236,200239,1,2,0:2:0:0:
264,382,200404,1,2,1:2:0:0:
445,285,200569,2,0,L|455:221,1,53.9999983520508,2|0,3:2|0:2,0:0:0:0:
263,204,200734,2,0,L|253:150,1,53.9999983520508,0|0,0:2|0:2,0:0:0:0:
121,304,200899,1,2,3:2:0:0:
59,108,201063,2,0,P|112:114|163:150,1,107.999996704102,2|0,1:2|0:2,0:0:0:0:
121,304,201311,1,0,0:2:0:0:
121,304,201393,5,6,3:2:0:0:
86,194,201558,1,2,3:2:0:0:
358,123,201723,5,10,3:2:0:0:
338,238,201888,1,2,3:2:0:0:
86,194,202052,5,2,3:2:0:0:
49,83,202217,1,2,3:2:0:0:
275,35,202382,5,10,3:2:0:0:
255,150,202547,1,2,3:2:0:0:
444,314,202712,5,6,3:2:0:0:
424,199,202877,1,2,3:2:0:0:
275,35,203041,5,8,3:2:0:0:
160,60,203206,1,2,3:2:0:0:
112,275,203371,5,0,3:2:0:0:
223,312,203536,1,2,3:2:0:0:
444,84,203701,5,10,3:2:0:0:
424,199,203866,1,2,3:2:0:0:
234,14,204030,5,6,3:2:0:0:
181,21,204112,1,0,3:2:0:0:
141,56,204194,1,2,3:2:0:0:
127,108,204277,1,0,3:2:0:0:
139,161,204360,1,10,3:2:0:0:
178,197,204442,1,0,3:2:0:0:
230,206,204524,1,2,3:2:0:0:
279,184,204607,1,0,3:2:0:0:
335,165,204690,5,4,3:2:0:0:
393,172,204772,1,0,3:2:0:0:
435,213,204854,1,2,3:2:0:0:
445,271,204937,1,0,3:2:0:0:
430,329,205020,1,10,3:2:0:0:
378,358,205102,1,0,3:2:0:0:
319,363,205184,1,2,3:2:0:0:
267,333,205267,1,0,3:2:0:0:
212,309,205349,6,0,P|153:311|99:349,1,116.999994644165,14|2,3:2|3:2,0:0:0:0:
0,371,205596,2,0,P|28:325|33:262,1,116.999994644165,12|0,3:2|3:2,0:0:0:0:
4,182,205844,1,10,3:2:0:0:
4,182,205926,1,2,3:2:0:0:
4,182,206008,2,0,L|15:110,1,53.9999983520508,14|2,3:2|0:2,0:0:0:0:
188,93,206173,2,0,L|176:163,1,53.9999983520508,2|2,0:2|0:2,0:0:0:0:
220,227,206338,5,2,0:2:0:0:
167,232,206420,1,2,0:2:0:0:
120,206,206502,1,2,0:2:0:0:
96,159,206585,1,2,0:2:0:0:
95,104,206668,6,0,L|103:49,1,53.9999983520508,6|0,3:2|0:2,0:0:0:0:
103,50,207986,1,2,0:2:0:0:
103,50,209305,2,0,L|24:38,1,72,0|0,0:2|0:2,0:0:0:0:
31,39,210624,1,2,0:2:0:0:
21,203,211943,2,0,P|54:188|93:187,1,72,0|0,0:2|0:2,0:0:0:0:
89,186,213261,1,2,0:2:0:0:
145,287,214580,2,0,P|108:283|74:264,2,72,0|0|2,0:2|0:2|0:2,0:0:0:0:
214,250,216393,2,0,P|248:237|270:235,1,54,2|2,0:2|0:2,0:0:0:0:
339,258,217217,6,0,L|414:248,1,72,0|0,0:2|0:2,0:0:0:0:
410,248,218536,2,0,P|434:268|446:290,1,54,2|0,0:2|0:2,0:0:0:0:
402,382,219855,2,0,P|368:371|327:369,1,72,0|0,0:2|0:2,0:0:0:0:
331,368,221173,2,0,L|271:377,1,54,2|0,0:2|0:2,0:0:0:0:
211,337,221997,1,0,0:2:0:0:
211,337,222492,2,0,P|181:332|156:318,2,54,0|0|0,0:2|0:2|0:2,0:0:0:0:
233,262,223811,2,0,P|208:250|182:246,1,54,2|0,0:2|0:2,0:0:0:0:
91,183,224800,1,0,0:2:0:0:
6,173,225129,2,0,L|18:245,1,67.5,0|0,0:2|0:2,0:0:0:0:
181,176,226118,1,0,0:2:0:0:
203,285,226448,6,0,L|250:292,1,36,2|0,0:2|0:2,0:0:0:0:
181,176,226778,2,0,L|133:183,1,36,2|0,0:2|0:2,0:0:0:0:
36,158,227107,1,2,0:2:0:0:
31,185,227189,1,2,0:2:0:0:
27,213,227271,1,2,0:2:0:0:
22,241,227354,1,2,0:2:0:0:
18,269,227436,1,2,0:2:0:0:
13,297,227519,1,2,0:2:0:0:
9,325,227601,1,2,0:2:0:0:
5,353,227683,1,2,0:2:0:0:
0,381,227766,5,2,3:2:0:0:
