osu file format v14

[General]
AudioFilename: audio.mp3
AudioLeadIn: 0
PreviewTime: 67774
Countdown: 0
SampleSet: Soft
StackLeniency: 0.7
Mode: 3
LetterboxInBreaks: 0
SpecialStyle: 0
WidescreenStoryboard: 1

[Editor]
Bookmarks: 274,17117,35582,50352,67890,86161,108917,148643,158987,168919,185263,205125,223341
DistanceSpacing: 1.1
BeatDivisor: 1
GridSize: 32
TimelineZoom: 1.5

[Metadata]
Title:Stick Your Ins Out
TitleUnicode:Stick Your Ins Out
Artist:Solarbear
ArtistUnicode:Solarbear
Creator:Pope Gadget
Version:Turtwig's Easium
Source:
Tags:Hydria Monheim Civilization Turtwig FAMoss the cutest little hybrid progressive math rock instrumental ep solarbearchiptune
BeatmapID:2429305
BeatmapSetID:1149112

[Difficulty]
HPDrainRate:7
CircleSize:4
OverallDifficulty:7
ApproachRate:5
SliderMultiplier:1.4
SliderTickRate:1

[Events]
//Background and Video events
0,0,"bg.jpg",0,0
//Break Periods
//Storyboard Layer 0 (Background)
//Storyboard Layer 1 (Fail)
//Storyboard Layer 2 (Pass)
//Storyboard Layer 3 (Foreground)
//Storyboard Layer 4 (Overlay)
//Storyboard Sound Samples
Sample,42273,0,"tom03.wav",100
Sample,49195,0,"tom02.wav",50
Sample,105193,0,"tom01.wav",70

[TimingPoints]
274,230.769231,5,2,1,60,1,0
274,-178.571428571429,5,2,1,60,0,0
1427,230.769231,6,2,1,60,1,0
1427,-178.571428571429,6,2,1,60,0,0
2811,230.769231,5,2,1,60,1,0
2811,-178.571428571429,5,2,1,60,0,0
3964,230.769231,6,2,1,60,1,0
3964,-178.571428571429,6,2,1,60,0,0
5350,230.769231,4,2,1,60,1,0
5350,-178.571428571429,4,2,1,60,0,0
6273,230.769231,5,2,1,60,1,0
6273,-178.571428571429,5,2,1,60,0,0
7427,230.769231,6,2,1,60,1,0
7427,-178.571428571429,6,2,1,60,0,0
8811,230.769231,5,2,1,60,1,0
8811,-178.571428571429,5,2,1,60,0,0
9964,230.769231,4,2,1,60,1,0
9964,-178.571428571429,4,2,1,60,0,0
13656,230.769231,7,2,1,60,1,0
13656,-178.571428571429,7,2,1,60,0,0
15271,230.769231,4,2,1,60,1,0
15271,-178.571428571429,4,2,1,60,0,0
35582,461.538462,7,2,1,60,1,0
35582,-89.2857142857143,7,2,1,60,0,0
38812,461.538462,8,2,1,60,1,0
38812,-89.2857142857143,8,2,1,60,0,0
42504,461.538462,7,2,1,60,1,0
42504,-89.2857142857143,7,2,1,60,0,0
45734,461.538462,10,2,1,60,1,0
45734,-89.2857142857143,10,2,1,60,0,0
50352,230.769231,6,2,1,60,1,0
50352,-178.571428571429,6,2,1,60,0,0
64198,230.769231,4,2,1,60,1,0
64198,-178.571428571429,4,2,1,60,0,0
67890,461.538462,4,2,1,60,1,0
67890,-89.2857142857143,4,2,1,60,0,0
84506,413.793103,4,2,1,60,1,0
86161,413.793103,3,2,1,60,1,0
91126,413.793103,2,2,1,60,1,0
91953,413.793103,3,2,1,60,1,0
101884,413.793103,2,2,1,60,1,0
102711,413.793103,3,2,1,60,1,0
148643,206.896552,11,2,1,60,1,0
148643,-200,11,2,1,60,0,0
157746,206.896552,6,2,1,60,1,0
157746,-200,6,2,1,60,0,0
158987,-200,6,2,1,60,0,1
168919,413.793103,3,2,1,60,1,0
171401,413.793103,2,2,1,60,1,0
172229,413.793103,3,2,1,60,1,0
182161,206.896552,3,2,1,60,1,0
182161,-200,3,2,1,60,0,0
182781,413.793103,3,2,1,60,1,0
205125,413.793103,2,2,1,60,1,0
205954,206.896552,1,2,1,60,1,0
205954,-200,1,2,1,60,0,0
206161,413.793103,3,2,1,60,1,0
207402,413.793103,2,2,1,60,1,0
208231,206.896552,1,2,1,60,1,0
208231,-200,1,2,1,60,0,0
208438,413.793103,3,2,1,60,1,0
209679,413.793103,2,2,1,60,1,0
210508,206.896552,1,2,1,60,1,0
210508,-200,1,2,1,60,0,0
210715,413.793103,3,2,1,60,1,0
211956,413.793103,2,2,1,60,1,0
212785,206.896552,1,2,1,60,1,0
212785,-200,1,2,1,60,0,0
212992,413.793103,3,2,1,60,1,0
214233,413.793103,2,2,1,60,1,0
215062,206.896552,1,2,1,60,1,0
215062,-200,1,2,1,60,0,0
215269,413.793103,3,2,1,60,1,0
216510,413.793103,2,2,1,60,1,0
217339,206.896552,1,2,1,60,1,0
217339,-200,1,2,1,60,0,0
217546,413.793103,3,2,1,60,1,0
218787,413.793103,2,2,1,60,1,0
219616,206.896552,1,2,1,60,1,0
219616,-200,1,2,1,60,0,0
219823,413.793103,3,2,1,60,1,0
221064,413.793103,2,2,1,60,1,0
221893,206.896552,1,2,1,60,1,0
221893,-200,1,2,1,60,0,0
222100,413.793103,3,2,1,60,1,0
223341,413.793103,2,2,1,60,1,0
227478,413.793103,4,2,1,60,1,0

[HitObjects]
64,192,274,5,8,0:0:0:0:
192,192,274,1,4,0:0:0:0:
448,192,620,1,8,0:0:0:0:
320,192,966,1,8,0:0:0:0:
192,192,1197,1,8,0:0:0:0:
320,192,1427,1,4,0:0:0:0:
448,192,1427,1,8,0:0:0:0:
64,192,1773,1,8,0:0:0:0:
192,192,2119,1,8,0:0:0:0:
320,192,2350,1,8,0:0:0:0:
192,192,2580,1,8,0:0:0:0:
64,192,2811,1,4,0:0:0:0:
320,192,2811,1,8,0:0:0:0:
448,192,3157,1,8,0:0:0:0:
192,192,3503,1,8,0:0:0:0:
320,192,3734,1,8,0:0:0:0:
192,192,3964,1,8,0:0:0:0:
448,192,3964,1,4,0:0:0:0:
64,192,4310,1,8,0:0:0:0:
320,192,4656,1,8,0:0:0:0:
192,192,4887,1,0,0:0:0:70:tom02.wav
320,192,5117,1,2,0:0:0:0:
64,192,5350,1,0,0:0:0:0:
448,192,5696,1,2,0:0:0:0:
192,192,6042,1,8,0:0:0:0:
320,192,6042,1,0,0:0:0:0:
192,192,6965,1,6,0:0:0:0:
320,192,7196,1,12,0:0:0:0:
192,192,7427,1,0,0:0:0:0:
448,192,7427,1,12,0:0:0:0:
64,192,7773,1,8,0:0:0:0:
320,192,8119,1,8,0:0:0:0:
192,192,8350,1,8,0:0:0:0:
320,192,8580,1,8,0:0:0:0:
64,192,8811,1,4,0:0:0:0:
192,192,8811,1,8,0:0:0:0:
448,192,9157,1,8,0:0:0:0:
320,192,9503,1,8,0:0:0:0:
192,192,9734,1,8,0:0:0:0:
320,192,9964,1,8,0:0:0:0:
448,192,9964,1,4,0:0:0:0:
64,192,10310,1,8,0:0:0:0:
192,192,10656,1,8,0:0:0:0:
320,192,10887,1,8,0:0:0:0:
192,192,11117,1,8,0:0:0:0:
320,192,11348,1,8,0:0:0:0:
192,192,11579,1,8,0:0:0:0:
192,192,11925,1,8,0:0:0:0:
320,192,12156,1,8,0:0:0:0:
192,192,12387,1,8,0:0:0:0:
320,192,12617,1,8,0:0:0:0:
320,192,12964,1,8,0:0:0:0:
192,192,13194,1,8,0:0:0:0:
320,192,13425,1,8,0:0:0:0:
320,192,13771,1,8,0:0:0:0:
192,192,14002,1,8,0:0:0:0:
192,192,14348,1,2,0:0:0:0:
448,192,14809,1,0,0:0:0:50:ride08.wav
64,192,16655,1,8,0:0:0:0:
448,192,16886,1,8,0:0:0:0:
64,192,17117,1,2,0:0:0:0:
192,192,17117,1,4,0:0:0:0:
320,192,17463,1,2,0:0:0:0:
64,192,17809,1,8,0:0:0:0:
320,192,18155,1,2,0:0:0:0:
448,192,18501,1,0,0:0:0:0:
192,192,18732,1,8,0:0:0:0:
64,192,18963,1,4,0:0:0:0:
448,192,18963,1,2,0:0:0:0:
320,192,19309,1,2,0:0:0:0:
64,192,19655,1,8,0:0:0:0:
448,192,20001,1,2,0:0:0:0:
192,192,20347,1,8,0:0:0:0:
320,192,20578,1,8,0:0:0:0:
64,192,20809,1,2,0:0:0:0:
192,192,20809,1,4,0:0:0:0:
320,192,21155,1,2,0:0:0:0:
64,192,21501,1,8,0:0:0:0:
448,192,21847,1,2,0:0:0:0:
192,192,22194,1,0,0:0:0:0:
64,192,22424,1,8,0:0:0:0:
448,192,22655,1,10,0:0:0:0:
320,192,22886,1,4,0:0:0:0:
64,192,23232,1,4,0:0:0:0:
448,192,23578,1,0,0:0:0:0:
64,192,23809,1,2,0:0:0:0:
320,192,24040,1,0,0:0:0:0:
448,192,24040,1,8,0:0:0:0:
64,192,24271,1,8,0:0:0:0:
192,192,24271,1,0,0:0:0:0:
320,192,24501,1,6,0:0:0:0:
192,192,24847,1,2,0:0:0:0:
320,192,25194,1,8,0:0:0:0:
64,192,25540,1,2,0:0:0:0:
448,192,25886,1,2,0:0:0:0:
192,192,26117,1,8,0:0:0:0:
64,192,26347,1,2,0:0:0:0:
448,192,26347,1,4,0:0:0:0:
192,192,26694,1,2,0:0:0:0:
320,192,27040,1,8,0:0:0:0:
64,192,27386,1,2,0:0:0:0:
320,192,27732,1,10,0:0:0:0:
192,192,27963,1,8,0:0:0:0:
320,192,28194,1,4,0:0:0:0:
448,192,28194,1,2,0:0:0:0:
192,192,28540,1,2,0:0:0:0:
448,192,28886,1,8,0:0:0:0:
64,192,29232,1,2,0:0:0:0:
448,192,29578,1,2,0:0:0:0:
192,192,29809,1,8,0:0:0:0:
320,192,30040,1,2,0:0:0:0:
64,192,30271,1,8,0:0:0:0:
192,192,30617,1,8,0:0:0:0:
320,192,30963,1,8,0:0:0:0:
448,192,31309,1,8,0:0:0:0:
64,192,31655,1,8,0:0:0:0:
192,192,32001,1,8,0:0:0:0:
320,192,32347,1,8,0:0:0:0:
448,192,32694,1,8,0:0:0:0:
64,192,33040,1,8,0:0:0:0:
192,192,33386,1,8,0:0:0:0:
320,192,33732,1,8,0:0:0:0:
448,192,34078,1,8,0:0:0:0:
64,192,35582,1,2,0:0:0:0:
448,192,36043,1,0,0:0:0:30:LR_Drum Click.wav
320,192,36389,1,0,0:0:0:30:LR_Drum Click.wav
192,192,36851,1,0,0:0:0:30:LR_Drum Click.wav
320,192,37082,1,2,0:0:0:0:
64,192,37197,1,2,0:0:0:0:
448,192,37543,1,0,0:0:0:30:LR_Drum Click.wav
320,192,38005,1,0,0:0:0:30:LR_Drum Click.wav
192,192,38582,1,0,0:0:0:30:LR_Drum Click.wav
64,192,38812,1,2,0:0:0:0:
448,192,39273,1,0,0:0:0:30:LR_Drum Click.wav
320,192,39619,1,0,0:0:0:30:LR_Drum Click.wav
192,192,40081,1,0,0:0:0:30:LR_Drum Click.wav
320,192,40312,1,2,0:0:0:0:
64,192,40427,1,2,0:0:0:0:
448,192,40888,1,0,0:0:0:30:LR_Drum Click.wav
64,192,41235,1,2,0:0:0:0:
448,192,41350,1,14,0:0:0:0:
192,192,41465,1,14,0:0:0:0:
320,192,41696,1,14,0:0:0:0:
192,192,41927,1,14,0:0:0:0:
320,192,42158,1,6,0:0:0:0:
64,192,42273,1,4,0:0:0:0:
448,192,42388,1,0,0:0:0:100:tom04.wav
64,192,42734,1,2,0:0:0:0:
448,192,42965,1,0,0:0:0:30:LR_Drum Click.wav
320,192,43311,1,0,0:0:0:30:LR_Drum Click.wav
64,192,43773,1,0,0:0:0:30:LR_Drum Click.wav
448,192,44004,1,2,0:0:0:0:
192,192,44119,1,2,0:0:0:0:
320,192,44465,1,0,0:0:0:30:LR_Drum Click.wav
448,192,44927,1,0,0:0:0:30:LR_Drum Click.wav
192,192,45504,1,0,0:0:0:30:LR_Drum Click.wav
64,192,45734,1,2,0:0:0:0:
64,192,46080,1,0,0:0:0:0:
64,192,46426,1,2,0:0:0:0:
64,192,46772,1,2,0:0:0:0:
320,192,47003,1,0,0:0:0:30:LR_Drum Click.wav
448,192,47234,1,2,0:0:0:0:
192,192,47349,1,2,0:0:0:0:
320,192,47810,1,0,0:0:0:30:LR_Drum Click.wav
192,192,48157,1,2,0:0:0:0:
320,192,48272,1,14,0:0:0:0:
64,192,48387,1,14,0:0:0:0:
448,192,48618,1,14,0:0:0:0:
64,192,48849,1,14,0:0:0:0:
448,192,49080,1,6,0:0:0:0:
192,192,49195,1,4,0:0:0:0:
320,192,49310,1,2,0:0:0:0:
64,192,49887,1,2,0:0:0:0:
192,192,50352,1,4,0:0:0:0:
320,192,50352,1,2,0:0:0:0:
192,192,50582,1,8,0:0:0:0:
64,192,50813,1,0,0:0:0:0:
448,192,51044,1,8,0:0:0:0:
448,192,51275,1,0,0:0:0:0:
192,192,51505,1,12,0:0:0:0:
320,192,51736,1,6,0:0:0:0:
320,192,51967,1,8,0:0:0:0:
448,192,52198,1,0,0:0:0:0:
192,192,52428,1,8,0:0:0:0:
192,192,52659,1,2,0:0:0:0:
64,192,52890,1,12,0:0:0:0:
448,192,53121,1,6,0:0:0:0:
448,192,53352,1,8,0:0:0:0:
320,192,53582,1,0,0:0:0:0:
64,192,53813,1,8,0:0:0:0:
64,192,54044,1,0,0:0:0:0:
192,192,54275,1,12,0:0:0:0:
448,192,54505,1,6,0:0:0:0:
448,192,54736,1,8,0:0:0:0:
320,192,54967,1,0,0:0:0:0:
192,192,55198,1,8,0:0:0:0:
192,192,55428,1,2,0:0:0:0:
320,192,55659,1,12,0:0:0:0:
64,192,55890,1,6,0:0:0:0:
64,192,56121,1,8,0:0:0:0:
192,192,56352,1,0,0:0:0:0:
448,192,56582,1,8,0:0:0:0:
448,192,56813,1,0,0:0:0:0:
320,192,57044,1,12,0:0:0:0:
64,192,57275,1,2,0:0:0:0:
192,192,57275,1,4,0:0:0:0:
192,192,57505,1,8,0:0:0:0:
192,192,57736,1,0,0:0:0:0:
448,192,57967,1,8,0:0:0:0:
448,192,58198,1,2,0:0:0:0:
448,192,58428,1,12,0:0:0:0:
320,192,58659,1,6,0:0:0:0:
320,192,58890,1,8,0:0:0:0:
320,192,59121,1,0,0:0:0:0:
192,192,59352,1,8,0:0:0:0:
192,192,59582,1,8,0:0:0:0:
192,192,59813,1,8,0:0:0:0:
448,192,60044,1,2,0:0:0:0:
448,192,60275,1,0,0:0:0:50:tom04.wav
448,192,60505,1,8,0:0:0:0:
64,192,60736,1,2,0:0:0:0:
64,192,60967,1,2,0:0:0:0:
64,192,61198,1,12,0:0:0:0:
448,192,61428,1,6,0:0:0:0:
448,192,61659,1,8,0:0:0:0:
448,192,61890,1,0,0:0:0:0:
192,192,62121,1,8,0:0:0:0:
192,192,62352,1,2,0:0:0:0:
192,192,62582,1,12,0:0:0:0:
64,192,62813,1,6,0:0:0:0:
64,192,63044,1,8,0:0:0:0:
64,192,63275,1,0,0:0:0:0:
448,192,63505,1,8,0:0:0:0:
448,192,63736,1,2,0:0:0:0:
448,192,63967,1,12,0:0:0:0:
64,192,64198,1,2,0:0:0:0:
192,192,64198,1,4,0:0:0:0:
64,192,64428,1,10,0:0:0:0:
448,192,64659,1,10,0:0:0:0:
448,192,64890,1,10,0:0:0:0:
64,192,65121,1,10,0:0:0:0:
64,192,65351,1,10,0:0:0:0:
448,192,65582,1,10,0:0:0:0:
448,192,65813,1,10,0:0:0:0:
64,192,66044,1,10,0:0:0:0:
448,192,66274,1,10,0:0:0:0:
64,192,66505,1,10,0:0:0:0:
448,192,66736,1,10,0:0:0:0:
64,192,66967,1,14,0:0:0:0:
320,192,67428,1,8,0:0:0:0:
64,192,67890,1,4,0:0:0:0:
192,192,67890,128,2,68236:0:0:0:0:
320,192,68236,128,2,68582:0:0:0:0:
64,192,68582,128,0,68928:0:0:0:0:
448,192,68928,128,0,69274:0:0:0:0:
192,192,69274,128,8,69505:0:0:0:0:
448,192,69736,128,6,70082:0:0:0:0:
192,192,70082,128,2,70428:0:0:0:0:
320,192,70428,128,0,70774:0:0:0:0:
64,192,70774,128,0,71120:0:0:0:0:
320,192,71120,128,8,71351:0:0:0:0:
448,192,71582,128,6,71928:0:0:0:0:
64,192,71928,128,2,72274:0:0:0:0:
320,192,72274,128,0,72620:0:0:0:0:
192,192,72620,128,0,72966:0:0:0:0:
64,192,72966,128,8,73197:0:0:0:0:
448,192,73428,128,6,73774:0:0:0:0:
320,192,73774,128,2,74120:0:0:0:0:
64,192,74120,128,0,74466:0:0:0:0:
192,192,74466,128,2,74813:0:0:0:0:
448,192,74813,1,0,0:0:0:70:tom03.wav
64,192,75043,1,2,0:0:0:0:
448,192,75274,128,6,75620:0:0:0:0:
192,192,75620,128,0,75966:0:0:0:0:
64,192,75966,128,0,76313:0:0:0:0:
320,192,76313,128,0,76659:0:0:0:0:
192,192,76659,128,8,76890:0:0:0:0:
320,192,77120,128,6,77466:0:0:0:0:
64,192,77466,128,2,77813:0:0:0:0:
448,192,77813,128,2,78159:0:0:0:0:
192,192,78159,128,8,78505:0:0:0:0:
320,192,78505,128,8,78736:0:0:0:0:
192,192,78966,128,6,79313:0:0:0:0:
320,192,79313,128,2,79659:0:0:0:0:
448,192,79659,128,0,80005:0:0:0:70:tom03.wav
64,192,80005,128,0,80351:0:0:0:0:
448,192,80351,1,8,0:0:0:0:
448,192,80582,1,8,0:0:0:0:
64,192,80813,128,6,81159:0:0:0:0:
448,192,81159,128,2,81505:0:0:0:0:
192,192,81505,128,0,81851:0:0:0:0:
320,192,81851,128,2,82197:0:0:0:0:
64,192,82197,1,0,0:0:0:70:tom03.wav
192,192,82428,1,2,0:0:0:0:
448,192,82659,1,6,0:0:0:0:
64,192,83466,1,8,0:0:0:0:
448,192,83466,1,4,0:0:0:0:
192,192,84506,1,2,0:0:0:0:
448,192,84506,1,12,0:0:0:0:
64,192,84919,1,12,0:0:0:0:
320,192,84919,1,2,0:0:0:0:
192,192,85333,1,2,0:0:0:0:
448,192,85333,1,12,0:0:0:0:
64,192,86161,1,2,0:0:0:0:
192,192,86161,1,0,0:0:0:0:
448,192,86574,1,0,0:0:0:0:
448,192,86988,1,0,0:0:0:0:
320,192,87402,1,2,0:0:0:0:
448,192,87816,1,0,0:0:0:0:
448,192,88229,1,0,0:0:0:0:
64,192,88643,1,2,0:0:0:0:
448,192,89057,1,0,0:0:0:0:
448,192,89471,1,0,0:0:0:0:
192,192,89885,1,2,0:0:0:0:
448,192,90298,1,0,0:0:0:0:
448,192,90712,1,0,0:0:0:0:
64,192,91126,1,10,0:0:0:0:
448,192,91332,1,10,0:0:0:0:
64,192,91539,1,10,0:0:0:0:
192,192,91953,1,2,0:0:0:0:
448,192,92366,1,0,0:0:0:0:
448,192,92780,1,0,0:0:0:0:
320,192,93194,1,2,0:0:0:0:
448,192,93608,1,0,0:0:0:0:
448,192,94021,1,0,0:0:0:0:
64,192,94435,1,0,0:0:0:70:tom01.wav
192,192,94849,1,0,0:0:0:70:tom03.wav
448,192,95263,1,0,0:0:0:70:tom04.wav
320,192,95677,128,0,96504:0:0:0:70:tom04.wav
64,192,96504,1,8,0:0:0:0:
192,192,96918,1,4,0:0:0:0:
320,192,96918,1,2,0:0:0:0:
320,192,98159,1,8,0:0:0:0:
448,192,98159,1,0,0:0:0:0:
192,192,99815,1,8,0:0:0:0:
448,192,99815,1,4,0:0:0:0:
64,192,100435,1,8,0:0:0:0:
320,192,100435,1,0,0:0:0:0:
64,192,101470,1,8,0:0:0:0:
192,192,101470,1,4,0:0:0:0:
448,192,101884,1,10,0:0:0:0:
64,192,102090,1,10,0:0:0:0:
448,192,102297,1,10,0:0:0:0:
192,192,102711,1,8,0:0:0:0:
320,192,102711,1,4,0:0:0:0:
64,192,103124,1,8,0:0:0:0:
64,192,103538,1,8,0:0:0:0:
320,192,103952,1,8,0:0:0:0:
448,192,103952,1,0,0:0:0:0:
64,192,104366,1,8,0:0:0:0:
64,192,104779,1,8,0:0:0:0:
448,192,105193,128,8,105607:0:0:0:0:
192,192,105607,128,8,105814:0:0:0:0:
320,192,106021,128,0,106228:0:0:0:70:tom03.wav
64,192,106435,128,6,107676:0:0:0:0:
192,192,107676,1,0,0:0:0:0:
448,192,108090,1,2,0:0:0:0:
64,192,108297,1,2,0:0:0:0:
448,192,108504,1,2,0:0:0:0:
64,192,108710,1,2,0:0:0:0:
192,192,108917,1,2,0:0:0:0:
320,192,108917,1,4,0:0:0:0:
448,192,109331,1,0,0:0:0:0:
448,192,109745,1,0,0:0:0:0:
320,192,109952,1,2,0:0:0:0:
64,192,110159,128,8,110573:0:0:0:0:
320,192,110573,128,0,110986:0:0:0:0:
448,192,110986,128,0,111400:0:0:0:0:
192,192,111400,128,6,111814:0:0:0:0:
448,192,111814,1,0,0:0:0:0:
448,192,112228,1,0,0:0:0:0:
64,192,112435,1,2,0:0:0:0:
320,192,112642,128,8,113055:0:0:0:0:
192,192,113055,128,0,113469:0:0:0:0:
64,192,113469,128,0,113883:0:0:0:0:
320,192,113883,128,6,114297:0:0:0:0:
448,192,114297,1,0,0:0:0:0:
448,192,114710,1,0,0:0:0:0:
64,192,114917,1,2,0:0:0:0:
320,192,115124,1,8,0:0:0:0:
448,192,115538,1,0,0:0:0:0:
192,192,115745,1,2,0:0:0:0:
448,192,115952,1,0,0:0:0:0:
320,192,116159,1,8,0:0:0:0:
64,192,116366,1,6,0:0:0:0:
448,192,116779,1,0,0:0:0:0:
448,192,117193,1,0,0:0:0:0:
192,192,117400,1,2,0:0:0:0:
320,192,117607,128,8,118021:0:0:0:0:
192,192,118021,128,0,118435:0:0:0:0:
448,192,118435,128,0,118848:0:0:0:0:
64,192,118848,128,4,119262:0:0:0:0:
192,192,118848,1,2,0:0:0:0:
320,192,119262,1,0,0:0:0:0:
320,192,119676,1,0,0:0:0:0:
448,192,119883,1,2,0:0:0:0:
64,192,120090,128,8,120504:0:0:0:0:
192,192,120504,128,0,120917:0:0:0:0:
448,192,120917,128,0,121331:0:0:0:0:
192,192,121331,128,6,121745:0:0:0:0:
448,192,121745,1,0,0:0:0:0:
448,192,122159,1,0,0:0:0:0:
64,192,122366,1,2,0:0:0:0:
320,192,122573,128,8,122986:0:0:0:0:
192,192,122986,128,0,123400:0:0:0:0:
448,192,123400,128,0,123814:0:0:0:0:
320,192,123814,128,6,124228:0:0:0:0:
192,192,124435,1,0,0:0:0:0:
64,192,124642,1,0,0:0:0:0:
448,192,124848,1,2,0:0:0:0:
320,192,125055,1,8,0:0:0:0:
64,192,125469,1,0,0:0:0:0:
448,192,125676,1,0,0:0:0:0:
192,192,125883,1,0,0:0:0:0:
320,192,126090,1,0,0:0:0:0:
64,192,126297,1,6,0:0:0:0:
448,192,126710,1,0,0:0:0:0:
448,192,127124,1,0,0:0:0:0:
64,192,127331,1,2,0:0:0:0:
320,192,127538,128,8,127952:0:0:0:0:
192,192,127952,128,2,128366:0:0:0:0:
448,192,128366,128,0,128779:0:0:0:0:
192,192,128779,1,2,0:0:0:0:
320,192,128779,1,4,0:0:0:0:
64,192,129193,1,8,0:0:0:0:
192,192,129400,1,8,0:0:0:0:
320,192,129607,1,8,0:0:0:0:
64,192,130021,1,2,0:0:0:0:
448,192,130021,1,4,0:0:0:0:
192,192,130435,1,8,0:0:0:0:
320,192,130642,1,8,0:0:0:0:
448,192,130848,1,8,0:0:0:0:
64,192,131262,128,4,131676:0:0:0:0:
192,192,131262,1,2,0:0:0:0:
320,192,131676,128,0,132090:0:0:0:0:
192,192,132090,128,0,132504:0:0:0:0:
448,192,132504,128,2,132917:0:0:0:0:
64,192,132917,128,2,133331:0:0:0:0:
448,192,133331,128,2,133745:0:0:0:0:
192,192,133745,1,4,0:0:0:0:
320,192,133745,1,2,0:0:0:0:
64,192,134159,1,8,0:0:0:0:
192,192,134366,1,8,0:0:0:0:
320,192,134573,1,8,0:0:0:0:
64,192,134986,1,4,0:0:0:0:
448,192,134986,1,2,0:0:0:0:
192,192,135400,1,8,0:0:0:0:
320,192,135607,1,8,0:0:0:0:
448,192,135814,1,8,0:0:0:0:
64,192,136228,1,2,0:0:0:0:
192,192,136228,128,4,136642:0:0:0:0:
448,192,136642,128,0,137055:0:0:0:0:
64,192,137055,128,0,137469:0:0:0:0:
320,192,137469,128,2,137883:0:0:0:0:
448,192,137883,128,2,138297:0:0:0:0:
64,192,138297,128,2,138710:0:0:0:0:
192,192,138710,128,4,139124:0:0:0:0:
320,192,138710,1,2,0:0:0:0:
448,192,139124,128,0,139538:0:0:0:0:
64,192,139538,128,0,139952:0:0:0:0:
320,192,139952,128,2,140366:0:0:0:0:
192,192,140366,128,2,140779:0:0:0:0:
448,192,140779,128,2,141193:0:0:0:0:
64,192,141193,128,2,141607:0:0:0:0:
320,192,141193,1,4,0:0:0:0:
192,192,141607,128,0,142021:0:0:0:0:
320,192,142021,128,0,142435:0:0:0:0:
448,192,142435,128,2,142848:0:0:0:0:
192,192,142848,128,2,143262:0:0:0:0:
320,192,143262,128,2,143676:0:0:0:0:
64,192,143676,128,4,144297:0:0:0:0:
448,192,143676,1,2,0:0:0:0:
192,192,144297,128,2,144710:0:0:0:0:
448,192,144710,1,2,0:0:0:0:
320,192,144917,128,2,145331:0:0:0:0:
64,192,145331,128,2,145745:0:0:0:0:
448,192,145745,128,2,146159:0:0:0:0:
192,192,146159,128,2,148643:0:0:0:0:
320,192,146159,1,4,0:0:0:0:
64,192,148643,1,10,0:0:0:0:
192,192,148953,1,8,0:0:0:0:
448,192,149263,1,8,0:0:0:0:
320,192,149470,1,8,0:0:0:0:
320,192,149677,1,8,0:0:0:0:
192,192,149987,1,8,0:0:0:0:
448,192,150298,1,8,0:0:0:0:
320,192,150505,1,8,0:0:0:0:
192,192,150711,1,8,0:0:0:0:
64,192,150918,1,10,0:0:0:0:
192,192,151229,1,8,0:0:0:0:
448,192,151539,1,8,0:0:0:0:
320,192,151746,1,8,0:0:0:0:
320,192,151953,1,8,0:0:0:0:
192,192,152263,1,8,0:0:0:0:
448,192,152574,1,8,0:0:0:0:
320,192,152780,1,8,0:0:0:0:
192,192,152987,1,8,0:0:0:0:
64,192,153194,1,10,0:0:0:0:
192,192,153505,1,8,0:0:0:0:
448,192,153815,1,8,0:0:0:0:
320,192,154022,1,8,0:0:0:0:
320,192,154229,1,8,0:0:0:0:
192,192,154539,1,8,0:0:0:0:
448,192,154849,1,8,0:0:0:0:
320,192,155056,1,8,0:0:0:0:
192,192,155263,1,8,0:0:0:0:
64,192,155470,1,10,0:0:0:0:
192,192,155780,1,8,0:0:0:0:
448,192,156091,1,8,0:0:0:0:
320,192,156298,1,8,0:0:0:0:
320,192,156505,1,8,0:0:0:0:
192,192,156815,1,8,0:0:0:0:
448,192,157125,1,8,0:0:0:0:
320,192,157332,1,8,0:0:0:0:
192,192,157539,1,8,0:0:0:0:
64,192,157746,1,2,0:0:0:0:
64,192,158056,1,2,0:0:0:0:
64,192,158366,1,2,0:0:0:0:
64,192,158573,1,2,0:0:0:0:
448,192,158780,1,8,0:0:0:0:
320,192,158987,1,6,0:0:0:0:
64,192,159194,1,8,0:0:0:0:
192,192,159401,1,0,0:0:0:0:
448,192,159608,1,8,0:0:0:0:
320,192,159814,1,2,0:0:0:0:
192,192,160021,1,8,0:0:0:0:
320,192,160228,1,6,0:0:0:0:
64,192,160435,1,8,0:0:0:0:
448,192,160642,1,0,0:0:0:0:
192,192,160849,1,8,0:0:0:0:
320,192,161056,1,2,0:0:0:0:
64,192,161263,1,8,0:0:0:0:
448,192,161470,1,6,0:0:0:0:
192,192,161677,1,8,0:0:0:0:
64,192,161883,1,0,0:0:0:0:
320,192,162090,1,8,0:0:0:0:
192,192,162297,1,2,0:0:0:0:
448,192,162504,1,8,0:0:0:0:
64,192,162711,1,6,0:0:0:0:
192,192,162918,1,8,0:0:0:0:
320,192,163125,1,0,0:0:0:0:
64,192,163332,1,8,0:0:0:0:
448,192,163539,1,2,0:0:0:0:
320,192,163746,1,8,0:0:0:0:
192,192,163952,1,6,0:0:0:0:
64,192,164159,1,8,0:0:0:0:
320,192,164366,1,0,0:0:0:0:
64,192,164573,1,8,0:0:0:0:
192,192,164780,1,2,0:0:0:0:
448,192,164987,1,8,0:0:0:0:
64,192,165194,1,6,0:0:0:0:
320,192,165401,1,8,0:0:0:0:
448,192,165608,1,0,0:0:0:0:
192,192,165814,1,8,0:0:0:0:
64,192,166021,1,2,0:0:0:0:
320,192,166228,1,8,0:0:0:0:
192,192,166435,1,6,0:0:0:0:
448,192,166642,1,8,0:0:0:0:
64,192,166849,1,0,0:0:0:0:
320,192,167056,1,8,0:0:0:0:
448,192,167263,1,2,0:0:0:0:
192,192,167470,1,8,0:0:0:0:
448,192,167677,1,6,0:0:0:0:
320,192,167883,1,8,0:0:0:0:
64,192,168090,1,0,0:0:0:0:
448,192,168297,1,8,0:0:0:0:
192,192,168504,1,10,0:0:0:0:
320,192,168711,1,8,0:0:0:0:
192,192,168919,128,6,169229:0:0:0:0:
64,192,169229,128,2,169539:0:0:0:0:
320,192,169539,1,2,0:0:0:0:
192,192,169746,1,6,0:0:0:0:
64,192,169953,1,8,0:0:0:0:
448,192,170160,128,6,170470:0:0:0:0:
320,192,170470,128,2,170781:0:0:0:0:
192,192,170781,1,2,0:0:0:0:
64,192,170987,1,14,0:0:0:0:
320,192,171194,1,2,0:0:0:0:
448,192,171401,1,8,0:0:0:0:
448,192,172021,1,8,0:0:0:0:
320,192,172229,128,6,172539:0:0:0:0:
64,192,172539,128,2,172849:0:0:0:0:
448,192,172849,1,2,0:0:0:0:
192,192,173056,1,6,0:0:0:0:
64,192,173263,1,8,0:0:0:0:
448,192,173470,128,6,173780:0:0:0:0:
192,192,173780,128,2,174091:0:0:0:0:
320,192,174091,1,2,0:0:0:0:
64,192,174297,1,14,0:0:0:0:
192,192,174504,1,2,0:0:0:0:
448,192,174711,1,8,0:0:0:0:
64,192,175022,1,8,0:0:0:0:
448,192,175332,1,8,0:0:0:0:
64,192,175539,1,8,0:0:0:0:
448,192,175746,1,8,0:0:0:0:
64,192,175953,1,8,0:0:0:0:
448,192,176263,1,8,0:0:0:0:
64,192,176573,1,8,0:0:0:0:
448,192,176780,1,8,0:0:0:0:
64,192,176987,1,8,0:0:0:0:
448,192,177194,1,8,0:0:0:0:
64,192,177504,1,8,0:0:0:0:
448,192,177815,1,8,0:0:0:0:
64,192,178022,1,8,0:0:0:0:
448,192,178228,1,8,0:0:0:0:
64,192,178435,1,8,0:0:0:0:
448,192,178746,1,8,0:0:0:0:
64,192,179056,1,8,0:0:0:0:
320,192,179263,1,2,0:0:0:0:
192,192,179470,1,10,0:0:0:0:
448,192,179677,128,6,179987:0:0:0:0:
64,192,179987,128,2,180297:0:0:0:0:
320,192,180297,1,2,0:0:0:0:
192,192,180504,1,6,0:0:0:0:
320,192,180711,1,10,0:0:0:0:
448,192,180918,128,6,181228:0:0:0:0:
64,192,181228,128,2,181539:0:0:0:0:
448,192,181539,1,2,0:0:0:0:
320,192,181746,1,14,0:0:0:0:
192,192,181953,1,2,0:0:0:0:
64,192,182161,1,0,0:0:0:0:
320,192,182367,1,0,0:0:0:0:
192,192,182574,1,8,0:0:0:0:
448,192,182781,128,6,183091:0:0:0:0:
64,192,183091,128,2,183401:0:0:0:0:
320,192,183401,1,2,0:0:0:0:
448,192,183608,1,6,0:0:0:0:
192,192,183815,1,10,0:0:0:0:
448,192,184022,128,6,184332:0:0:0:0:
64,192,184332,128,2,184643:0:0:0:0:
448,192,184643,1,2,0:0:0:0:
192,192,184849,1,14,0:0:0:0:
320,192,185056,1,2,0:0:0:0:
192,192,185263,1,8,0:0:0:0:
64,192,185574,1,8,0:0:0:0:
320,192,185884,1,8,0:0:0:0:
192,192,186091,1,8,0:0:0:0:
64,192,186298,1,8,0:0:0:0:
448,192,186505,1,8,0:0:0:0:
64,192,186815,1,8,0:0:0:0:
448,192,187125,1,8,0:0:0:0:
192,192,187332,1,8,0:0:0:0:
64,192,187539,1,8,0:0:0:0:
448,192,187746,1,8,0:0:0:0:
192,192,188056,1,8,0:0:0:0:
448,192,188367,1,8,0:0:0:0:
320,192,188574,1,8,0:0:0:0:
64,192,188780,1,8,0:0:0:0:
320,192,188987,1,8,0:0:0:0:
192,192,189298,1,8,0:0:0:0:
448,192,189608,1,8,0:0:0:0:
320,192,189815,1,8,0:0:0:0:
192,192,190022,1,8,0:0:0:0:
448,192,190229,1,8,0:0:0:0:
64,192,190539,1,8,0:0:0:0:
448,192,190849,1,8,0:0:0:0:
320,192,191056,1,8,0:0:0:0:
64,192,191263,1,8,0:0:0:0:
320,192,191470,1,8,0:0:0:0:
192,192,191780,1,8,0:0:0:0:
448,192,192091,1,8,0:0:0:0:
192,192,192298,1,8,0:0:0:0:
64,192,192505,1,8,0:0:0:0:
448,192,192712,1,8,0:0:0:0:
192,192,193022,1,8,0:0:0:0:
320,192,193332,1,8,0:0:0:0:
192,192,193539,1,8,0:0:0:0:
64,192,193746,1,8,0:0:0:0:
320,192,193953,1,8,0:0:0:0:
192,192,194263,1,8,0:0:0:0:
448,192,194574,1,8,0:0:0:0:
320,192,194780,1,8,0:0:0:0:
192,192,194987,1,8,0:0:0:0:
448,192,195194,1,8,0:0:0:0:
64,192,195505,1,8,0:0:0:0:
320,192,195815,1,8,0:0:0:0:
192,192,196022,1,8,0:0:0:0:
64,192,196229,1,8,0:0:0:0:
448,192,196436,1,8,0:0:0:0:
192,192,196746,1,8,0:0:0:0:
448,192,197056,1,8,0:0:0:0:
320,192,197263,1,8,0:0:0:0:
64,192,197470,1,8,0:0:0:0:
448,192,197677,1,8,0:0:0:0:
320,192,197987,1,8,0:0:0:0:
448,192,198298,1,8,0:0:0:0:
192,192,198505,1,8,0:0:0:0:
320,192,198712,1,8,0:0:0:0:
192,192,198918,1,8,0:0:0:0:
64,192,199229,1,8,0:0:0:0:
448,192,199539,1,8,0:0:0:0:
192,192,199746,1,8,0:0:0:0:
320,192,199953,1,8,0:0:0:0:
64,192,200160,1,8,0:0:0:0:
448,192,200470,1,8,0:0:0:0:
320,192,200780,1,8,0:0:0:0:
192,192,200987,1,8,0:0:0:0:
448,192,201194,1,8,0:0:0:0:
192,192,201401,1,8,0:0:0:0:
64,192,201712,1,8,0:0:0:0:
448,192,202022,1,8,0:0:0:0:
320,192,202229,1,8,0:0:0:0:
64,192,202436,1,8,0:0:0:0:
448,192,202643,1,8,0:0:0:0:
320,192,202953,1,8,0:0:0:0:
192,192,203263,1,8,0:0:0:0:
64,192,203470,1,8,0:0:0:0:
320,192,203677,1,8,0:0:0:0:
448,192,203884,128,8,204298:0:0:0:0:
448,192,204505,128,8,205125:0:0:0:0:
64,192,205125,1,2,0:0:0:0:
192,192,205125,1,4,0:0:0:0:
64,192,205538,1,0,0:0:0:0:
192,192,205745,1,2,0:0:0:0:
320,192,205954,1,8,0:0:0:0:
448,192,206161,1,6,0:0:0:0:
192,192,206471,1,0,0:0:0:0:
64,192,206781,1,2,0:0:0:0:
192,192,206988,1,8,0:0:0:0:
448,192,207195,1,2,0:0:0:0:
320,192,207402,1,6,0:0:0:0:
64,192,207712,1,2,0:0:0:0:
192,192,208022,1,2,0:0:0:0:
320,192,208231,1,8,0:0:0:0:
448,192,208438,1,6,0:0:0:0:
64,192,208748,1,0,0:0:0:0:
320,192,209058,1,2,0:0:0:0:
192,192,209265,1,8,0:0:0:0:
320,192,209472,1,2,0:0:0:0:
448,192,209679,1,2,0:0:0:0:
192,192,209989,1,0,0:0:0:70:tom03.wav
64,192,210299,1,2,0:0:0:0:
192,192,210715,1,8,0:0:0:0:
320,192,210921,1,8,0:0:0:0:
192,192,211128,1,2,0:0:0:0:
448,192,211335,1,2,0:0:0:0:
64,192,211542,1,8,0:0:0:0:
192,192,211956,1,6,0:0:0:0:
448,192,212266,1,0,0:0:0:0:
64,192,212576,1,2,0:0:0:0:
448,192,212785,1,8,0:0:0:0:
192,192,212992,1,6,0:0:0:0:
64,192,213302,1,0,0:0:0:0:
192,192,213612,1,0,0:0:0:0:
448,192,213819,1,8,0:0:0:0:
320,192,214026,1,8,0:0:0:0:
64,192,214233,1,4,0:0:0:0:
192,192,214233,1,2,0:0:0:0:
320,192,214646,1,2,0:0:0:0:
64,192,214853,1,2,0:0:0:0:
448,192,215062,1,8,0:0:0:0:
192,192,215475,1,2,0:0:0:0:
320,192,215786,1,8,0:0:0:0:
64,192,215889,1,2,0:0:0:0:
192,192,216096,1,8,0:0:0:0:
448,192,216303,1,2,0:0:0:0:
320,192,216510,1,6,0:0:0:0:
64,192,216647,1,0,0:0:0:0:
448,192,216785,1,0,0:0:0:0:
192,192,216923,1,0,0:0:0:0:
64,192,217130,1,2,0:0:0:0:
320,192,217339,1,8,0:0:0:0:
192,192,217546,1,6,0:0:0:0:
448,192,217752,1,0,0:0:0:0:
192,192,218373,1,8,0:0:0:0:
320,192,218580,1,2,0:0:0:0:
448,192,218787,1,6,0:0:0:0:
192,192,218993,1,0,0:0:0:0:
320,192,219200,1,0,0:0:0:0:
64,192,219407,1,2,0:0:0:0:
320,192,219616,1,8,0:0:0:0:
192,192,219823,1,6,0:0:0:0:
448,192,219926,1,0,0:0:0:0:
320,192,220236,1,0,0:0:0:0:
192,192,220443,1,2,0:0:0:0:
64,192,220650,1,8,0:0:0:0:
320,192,220857,1,2,0:0:0:0:
448,192,221064,1,6,0:0:0:0:
192,192,221477,1,0,0:0:0:0:
64,192,221684,1,2,0:0:0:0:
448,192,221893,1,8,0:0:0:0:
192,192,222100,1,2,0:0:0:0:
320,192,222203,1,0,0:0:0:0:
192,192,222513,1,8,0:0:0:0:
192,192,222927,1,8,0:0:0:0:
320,192,223341,1,10,0:0:0:0:
64,192,223547,1,6,0:0:0:0:
320,192,223754,1,10,0:0:0:0:
64,192,223961,1,6,0:0:0:0:
320,192,224168,1,10,0:0:0:0:
192,192,224478,1,10,0:0:0:0:
448,192,224685,1,6,0:0:0:0:
192,192,224892,1,10,0:0:0:0:
448,192,225099,1,6,0:0:0:0:
320,192,225409,1,10,0:0:0:0:
64,192,225616,1,6,0:0:0:0:
320,192,225823,1,10,0:0:0:0:
448,192,226134,1,6,0:0:0:0:
192,192,226340,1,10,0:0:0:0:
64,192,226651,1,6,0:0:0:0:
320,192,227065,1,2,0:0:0:0:
64,192,227478,128,2,232495:0:0:0:0:
448,192,227478,128,4,231564:0:0:0:0:
