osu file format v14

[General]
AudioFilename: audio.mp3
AudioLeadIn: 0
PreviewTime: 67774
Countdown: 0
SampleSet: Soft
StackLeniency: 0.7
Mode: 3
LetterboxInBreaks: 0
SpecialStyle: 0
WidescreenStoryboard: 0

[Editor]
Bookmarks: 274,17117,35582,50352,67890,86161,108917,148643,158987,168919,185263,205125,223341
DistanceSpacing: 1.1
BeatDivisor: 4
GridSize: 32
TimelineZoom: 1.8

[Metadata]
Title:Stick Your Ins Out
TitleUnicode:Stick Your Ins Out
Artist:Solarbear
ArtistUnicode:Solarbear
Creator:Pope Gadget
Version:Hodgepodge
Source:
Tags:Hydria Monheim Civilization Turtwig FAMoss the cutest little hybrid progressive math rock instrumental ep solarbearchiptune
BeatmapID:2399182
BeatmapSetID:1149112

[Difficulty]
HPDrainRate:8
CircleSize:4
OverallDifficulty:8
ApproachRate:5
SliderMultiplier:1.4
SliderTickRate:1

[Events]
//Background and Video events
0,0,"bg.jpg",0,0
//Break Periods
//Storyboard Layer 0 (Background)
//Storyboard Layer 1 (Fail)
//Storyboard Layer 2 (Pass)
//Storyboard Layer 3 (Foreground)
//Storyboard Layer 4 (Overlay)
//Storyboard Sound Samples

[TimingPoints]
274,230.769231,5,2,1,60,1,0
274,-178.571428571429,5,2,1,60,0,0
1427,230.769231,6,2,1,60,1,0
1427,-178.571428571429,6,2,1,60,0,0
2811,230.769231,5,2,1,60,1,0
2811,-178.571428571429,5,2,1,60,0,0
3964,230.769231,6,2,1,60,1,0
3964,-178.571428571429,6,2,1,60,0,0
5350,230.769231,4,2,1,60,1,0
5350,-178.571428571429,4,2,1,60,0,0
6273,230.769231,5,2,1,60,1,0
6273,-178.571428571429,5,2,1,60,0,0
7427,230.769231,6,2,1,60,1,0
7427,-178.571428571429,6,2,1,60,0,0
8811,230.769231,5,2,1,60,1,0
8811,-178.571428571429,5,2,1,60,0,0
9964,230.769231,4,2,1,60,1,0
9964,-178.571428571429,4,2,1,60,0,0
13656,230.769231,7,2,1,60,1,0
13656,-178.571428571429,7,2,1,60,0,0
15271,230.769231,4,2,1,60,1,0
15271,-178.571428571429,4,2,1,60,0,0
35582,461.538462,7,2,1,60,1,0
35582,-89.2857142857143,7,2,1,60,0,0
38812,461.538462,8,2,1,60,1,0
38812,-89.2857142857143,8,2,1,60,0,0
42504,461.538462,7,2,1,60,1,0
42504,-89.2857142857143,7,2,1,60,0,0
45734,461.538462,10,2,1,60,1,0
45734,-89.2857142857143,10,2,1,60,0,0
50352,230.769231,6,2,1,60,1,0
50352,-178.571428571429,6,2,1,60,0,0
64198,230.769231,4,2,1,60,1,0
64198,-178.571428571429,4,2,1,60,0,0
67890,461.538462,4,2,1,60,1,0
67890,-89.2857142857143,4,2,1,60,0,0
84506,413.793103,4,2,1,60,1,0
85333,-133.333333333333,4,2,1,60,0,0
86161,413.793103,3,2,1,60,1,0
86161,-133.333333333333,3,2,1,60,0,0
90712,-100,3,2,1,60,0,0
91126,413.793103,2,2,1,60,1,0
91539,-105.263157894737,2,2,1,60,0,0
91643,-111.111111111111,2,2,1,60,0,0
91746,-117.647058823529,2,2,1,60,0,0
91850,-125,2,2,1,60,0,0
91953,413.793103,3,2,1,60,1,0
91953,-133.333333333333,3,2,1,60,0,0
94435,-131.578947368421,3,2,1,60,0,0
94642,-129.87012987013,3,2,1,60,0,0
94849,-128.205128205128,3,2,1,60,0,0
95056,-126.582278481013,3,2,1,60,0,0
95263,-125,3,2,1,60,0,0
95470,-123.456790123457,3,2,1,60,0,0
95677,-121.951219512195,3,2,1,60,0,0
96918,-100,3,2,1,60,0,0
97125,-117.647058823529,3,2,1,60,0,0
98159,-100,3,2,1,60,0,0
98366,-117.647058823529,3,2,1,60,0,0
99815,-100,3,2,1,60,0,0
100022,-117.647058823529,3,2,1,60,0,0
100435,-100,3,2,1,60,0,0
100642,-117.647058823529,3,2,1,60,0,0
101470,-100,3,2,1,60,0,0
101884,413.793103,2,2,1,60,1,0
102297,-102.040816326531,2,2,1,60,0,0
102401,-104.166666666667,2,2,1,60,0,0
102504,-106.382978723404,2,2,1,60,0,0
102608,-108.695652173913,2,2,1,60,0,0
102711,413.793103,3,2,1,60,1,0
102918,-111.111111111111,3,2,1,60,0,0
103952,-100,3,2,1,60,0,0
104159,-111.111111111111,3,2,1,60,0,0
105193,-109.89010989011,3,2,1,60,0,0
105400,-108.695652173913,3,2,1,60,0,0
105607,-107.52688172043,3,2,1,60,0,0
105814,-106.382978723404,3,2,1,60,0,0
106021,-104.166666666667,3,2,1,60,0,0
106228,-102.040816326531,3,2,1,60,0,0
106435,-133.333333333333,3,2,1,60,0,0
108090,-125,3,2,1,60,0,0
108297,-117.647058823529,3,2,1,60,0,0
108504,-111.111111111111,3,2,1,60,0,0
108710,-105.263157894737,3,2,1,60,0,0
108917,-100,3,2,1,60,0,0
148643,206.896552,11,2,1,60,1,0
148643,-200,11,2,1,60,0,0
157746,206.896552,6,2,1,60,1,0
157746,-200,6,2,1,60,0,0
158987,-200,6,2,1,60,0,1
168919,413.793103,3,2,1,60,1,0
171401,413.793103,2,2,1,60,1,0
172229,413.793103,3,2,1,60,1,0
182161,206.896552,3,2,1,60,1,0
182161,-200,3,2,1,60,0,0
182781,413.793103,3,2,1,60,1,0
185263,-111.111111111111,3,2,1,60,0,0
195194,-109.89010989011,3,2,1,60,0,0
196436,-108.695652173913,3,2,1,60,0,0
197677,-107.52688172043,3,2,1,60,0,0
198918,-106.382978723404,3,2,1,60,0,0
200160,-105.263157894737,3,2,1,60,0,0
201401,-104.166666666667,3,2,1,60,0,0
202643,-103.092783505155,3,2,1,60,0,0
203884,-102.040816326531,3,2,1,60,0,0
204505,-101.010101010101,3,2,1,60,0,0
205125,413.793103,2,2,1,60,1,0
205125,-76.9230769230769,2,2,1,60,0,0
205176,-90.9090909090909,2,2,1,60,0,0
205228,-100,2,2,1,60,0,0
205954,206.896552,1,2,1,60,1,0
205954,-200,1,2,1,60,0,0
206161,413.793103,3,2,1,60,1,0
206161,-76.9230769230769,2,2,1,60,0,0
206212,-90.9090909090909,2,2,1,60,0,0
206264,-100,2,2,1,60,0,0
207402,413.793103,2,2,1,60,1,0
207402,-76.9230769230769,2,2,1,60,0,0
207453,-90.9090909090909,2,2,1,60,0,0
207505,-100,2,2,1,60,0,0
208231,206.896552,1,2,1,60,1,0
208231,-200,1,2,1,60,0,0
208438,413.793103,3,2,1,60,1,0
208438,-76.9230769230769,2,2,1,60,0,0
208489,-90.9090909090909,2,2,1,60,0,0
208541,-100,2,2,1,60,0,0
209679,413.793103,2,2,1,60,1,0
210508,206.896552,1,2,1,60,1,0
210508,-200,1,2,1,60,0,0
210715,413.793103,3,2,1,60,1,0
211956,413.793103,2,2,1,60,1,0
211956,-76.9230769230769,2,2,1,60,0,0
212007,-90.9090909090909,2,2,1,60,0,0
212059,-100,2,2,1,60,0,0
212785,206.896552,1,2,1,60,1,0
212785,-200,1,2,1,60,0,0
212992,413.793103,3,2,1,60,1,0
212992,-76.9230769230769,2,2,1,60,0,0
213043,-90.9090909090909,2,2,1,60,0,0
213095,-100,2,2,1,60,0,0
214233,413.793103,2,2,1,60,1,0
214233,-86.9565217391304,2,2,1,60,0,0
214284,-95.2380952380952,2,2,1,60,0,0
214336,-100,2,2,1,60,0,0
215062,206.896552,1,2,1,60,1,0
215062,-200,1,2,1,60,0,0
215269,413.793103,3,2,1,60,1,0
215269,-86.9565217391304,2,2,1,60,0,0
215320,-95.2380952380952,2,2,1,60,0,0
215372,-100,2,2,1,60,0,0
216510,413.793103,2,2,1,60,1,0
216510,-86.9565217391304,2,2,1,60,0,0
216561,-95.2380952380952,2,2,1,60,0,0
216613,-100,2,2,1,60,0,0
217339,206.896552,1,2,1,60,1,0
217339,-200,1,2,1,60,0,0
217546,413.793103,3,2,1,60,1,0
217546,-86.9565217391304,2,2,1,60,0,0
217597,-95.2380952380952,2,2,1,60,0,0
217649,-100,2,2,1,60,0,0
218787,413.793103,2,2,1,60,1,0
218787,-86.9565217391304,2,2,1,60,0,0
218838,-95.2380952380952,2,2,1,60,0,0
218890,-100,2,2,1,60,0,0
219616,206.896552,1,2,1,60,1,0
219616,-200,1,2,1,60,0,0
219823,413.793103,3,2,1,60,1,0
219823,-86.9565217391304,2,2,1,60,0,0
219874,-95.2380952380952,2,2,1,60,0,0
219926,-100,2,2,1,60,0,0
221064,413.793103,2,2,1,60,1,0
221064,-86.9565217391304,2,2,1,60,0,0
221115,-95.2380952380952,2,2,1,60,0,0
221167,-100,2,2,1,60,0,0
221893,206.896552,1,2,1,60,1,0
221893,-200,1,2,1,60,0,0
222100,413.793103,3,2,1,60,1,0
223341,413.793103,2,2,1,60,1,0
224168,-111.111111111111,2,2,1,60,0,0
224478,-100,2,2,1,60,0,0
225099,-111.111111111111,2,2,1,60,0,0
225409,-100,2,2,1,60,0,0
225823,-111.111111111111,2,2,1,60,0,0
226133,-100,2,2,1,60,0,0
226340,-111.111111111111,2,2,1,60,0,0
226650,-100,2,2,1,60,0,0
227065,-125,2,2,1,60,0,0
227427,-100,2,2,1,60,0,0
227478,413.793103,4,2,1,60,1,0

[HitObjects]
192,192,158,5,2,0:0:0:0:
320,192,216,1,2,0:0:0:0:
64,192,274,1,8,0:0:0:0:
192,192,274,1,4,0:0:0:0:
448,192,274,1,0,0:0:0:0:
448,192,389,1,0,0:0:0:70:tom04.wav
192,192,504,1,2,0:0:0:0:
320,192,504,1,0,0:0:0:0:
64,192,620,1,8,0:0:0:0:
448,192,620,1,0,0:0:0:0:
64,192,735,1,0,0:0:0:70:tom04.wav
192,192,735,1,0,0:0:0:0:
320,192,850,1,2,0:0:0:0:
64,192,966,1,8,0:0:0:0:
320,192,966,1,0,0:0:0:0:
448,192,966,1,0,0:0:0:0:
192,192,1081,1,2,0:0:0:0:
64,192,1197,1,8,0:0:0:0:
320,192,1197,1,0,0:0:0:0:
448,192,1197,1,0,0:0:0:0:
192,192,1312,1,2,0:0:0:0:
320,192,1370,1,2,0:0:0:0:
64,192,1427,1,4,0:0:0:0:
192,192,1427,1,8,0:0:0:0:
448,192,1427,1,0,0:0:0:0:
448,192,1542,1,0,0:0:0:70:tom04.wav
192,192,1657,1,2,0:0:0:0:
320,192,1657,1,0,0:0:0:0:
64,192,1773,1,8,0:0:0:0:
448,192,1773,1,0,0:0:0:0:
64,192,1888,1,0,0:0:0:70:tom04.wav
192,192,1888,1,0,0:0:0:0:
320,192,2003,1,0,0:0:0:0:
64,192,2119,1,8,0:0:0:0:
320,192,2119,1,0,0:0:0:0:
448,192,2119,1,0,0:0:0:0:
192,192,2234,1,2,0:0:0:0:
64,192,2350,1,8,0:0:0:0:
320,192,2350,1,0,0:0:0:0:
448,192,2350,1,0,0:0:0:0:
192,192,2465,1,2,0:0:0:0:
64,192,2580,1,8,0:0:0:0:
320,192,2580,1,0,0:0:0:0:
448,192,2580,1,0,0:0:0:0:
192,192,2696,1,2,0:0:0:0:
320,192,2753,1,2,0:0:0:0:
64,192,2811,1,4,0:0:0:0:
192,192,2811,1,8,0:0:0:0:
448,192,2811,1,0,0:0:0:0:
448,192,2926,1,0,0:0:0:70:tom04.wav
192,192,3041,1,2,0:0:0:0:
320,192,3041,1,0,0:0:0:0:
64,192,3157,1,8,0:0:0:0:
448,192,3157,1,0,0:0:0:0:
64,192,3272,1,0,0:0:0:70:tom04.wav
192,192,3272,1,0,0:0:0:0:
320,192,3387,1,2,0:0:0:0:
64,192,3503,1,8,0:0:0:0:
320,192,3503,1,0,0:0:0:0:
448,192,3503,1,0,0:0:0:0:
192,192,3618,1,2,0:0:0:0:
64,192,3734,1,8,0:0:0:0:
320,192,3734,1,0,0:0:0:0:
448,192,3734,1,0,0:0:0:0:
192,192,3849,1,2,0:0:0:0:
320,192,3907,1,2,0:0:0:0:
64,192,3964,1,8,0:0:0:0:
192,192,3964,1,4,0:0:0:0:
448,192,3964,1,0,0:0:0:0:
448,192,4079,1,0,0:0:0:70:tom04.wav
192,192,4194,1,2,0:0:0:0:
320,192,4194,1,0,0:0:0:0:
64,192,4310,1,8,0:0:0:0:
448,192,4310,1,0,0:0:0:0:
64,192,4425,1,0,0:0:0:70:tom04.wav
192,192,4425,1,0,0:0:0:0:
320,192,4540,1,0,0:0:0:0:
64,192,4656,1,8,0:0:0:0:
320,192,4656,1,0,0:0:0:0:
448,192,4656,1,0,0:0:0:0:
192,192,4771,1,2,0:0:0:0:
448,192,4771,1,4,0:0:0:0:
320,192,4887,1,0,0:0:0:70:tom02.wav
448,192,5002,1,0,0:0:0:70:tom03.wav
64,192,5117,1,2,0:0:0:0:
192,192,5233,1,2,0:0:0:0:
320,192,5350,1,0,0:0:0:0:
448,192,5350,1,0,0:0:0:0:
320,192,5465,1,0,0:0:0:0:
192,192,5580,1,2,0:0:0:0:
448,192,5580,1,0,0:0:0:0:
64,192,5696,1,2,0:0:0:0:
192,192,5696,1,0,0:0:0:0:
64,192,5811,1,2,0:0:0:0:
192,192,5926,1,2,0:0:0:0:
320,192,5926,1,0,0:0:0:0:
64,192,6042,1,8,0:0:0:0:
448,192,6042,1,0,0:0:0:0:
64,192,6965,1,2,0:0:0:0:
320,192,6965,1,4,0:0:0:0:
448,192,6965,1,0,0:0:0:0:
64,192,7196,1,8,0:0:0:0:
192,192,7196,1,4,0:0:0:0:
448,192,7196,1,0,0:0:0:0:
320,192,7311,1,2,0:0:0:0:
192,192,7369,1,2,0:0:0:0:
64,192,7427,1,4,0:0:0:0:
320,192,7427,1,8,0:0:0:0:
448,192,7427,1,0,0:0:0:0:
64,192,7542,1,2,0:0:0:0:
192,192,7657,1,2,0:0:0:0:
320,192,7657,1,0,0:0:0:0:
64,192,7773,1,8,0:0:0:0:
448,192,7773,1,0,0:0:0:0:
320,192,7888,1,2,0:0:0:0:
448,192,7888,1,0,0:0:0:0:
192,192,8003,1,0,0:0:0:0:
64,192,8119,1,8,0:0:0:0:
192,192,8119,1,0,0:0:0:0:
448,192,8119,1,0,0:0:0:0:
320,192,8234,1,2,0:0:0:0:
64,192,8350,1,8,0:0:0:0:
192,192,8350,1,0,0:0:0:0:
448,192,8350,1,0,0:0:0:0:
320,192,8465,1,2,0:0:0:0:
64,192,8580,1,8,0:0:0:0:
192,192,8580,1,0,0:0:0:0:
448,192,8580,1,0,0:0:0:0:
320,192,8696,1,2,0:0:0:0:
192,192,8753,1,2,0:0:0:0:
64,192,8811,1,4,0:0:0:0:
320,192,8811,1,8,0:0:0:0:
448,192,8811,1,0,0:0:0:0:
64,192,8926,1,2,0:0:0:0:
192,192,9041,1,2,0:0:0:0:
320,192,9041,1,0,0:0:0:0:
64,192,9157,1,8,0:0:0:0:
448,192,9157,1,0,0:0:0:0:
320,192,9272,1,2,0:0:0:0:
448,192,9272,1,0,0:0:0:0:
192,192,9387,1,2,0:0:0:0:
64,192,9503,1,8,0:0:0:0:
192,192,9503,1,0,0:0:0:0:
448,192,9503,1,0,0:0:0:0:
320,192,9618,1,2,0:0:0:0:
64,192,9734,1,8,0:0:0:0:
192,192,9734,1,0,0:0:0:0:
448,192,9734,1,0,0:0:0:0:
320,192,9849,1,2,0:0:0:0:
192,192,9907,1,2,0:0:0:0:
64,192,9964,1,8,0:0:0:0:
320,192,9964,1,4,0:0:0:0:
448,192,9964,1,0,0:0:0:0:
64,192,10079,1,2,0:0:0:0:
192,192,10194,1,2,0:0:0:0:
320,192,10194,1,0,0:0:0:0:
64,192,10310,1,8,0:0:0:0:
448,192,10310,1,0,0:0:0:0:
320,192,10425,1,2,0:0:0:0:
448,192,10425,1,0,0:0:0:0:
192,192,10540,1,2,0:0:0:0:
64,192,10656,1,8,0:0:0:0:
192,192,10656,1,0,0:0:0:0:
448,192,10656,1,0,0:0:0:0:
320,192,10771,1,2,0:0:0:0:
64,192,10887,1,8,0:0:0:0:
320,192,10887,1,0,0:0:0:0:
448,192,10887,1,0,0:0:0:0:
192,192,11002,1,2,0:0:0:0:
320,192,11060,1,2,0:0:0:0:
64,192,11117,1,8,0:0:0:0:
192,192,11117,1,0,0:0:0:0:
448,192,11117,1,0,0:0:0:0:
320,192,11233,1,2,0:0:0:0:
192,192,11290,1,2,0:0:0:0:
64,192,11348,1,8,0:0:0:0:
320,192,11348,1,0,0:0:0:0:
448,192,11348,1,0,0:0:0:0:
192,192,11464,1,2,0:0:0:0:
320,192,11521,1,2,0:0:0:0:
64,192,11579,1,8,0:0:0:0:
192,192,11579,1,0,0:0:0:0:
448,192,11579,1,0,0:0:0:0:
320,192,11694,1,2,0:0:0:0:
192,192,11752,1,2,0:0:0:0:
64,192,11925,1,8,0:0:0:0:
192,192,11925,1,0,0:0:0:0:
320,192,11925,1,0,0:0:0:0:
448,192,11925,1,0,0:0:0:0:
64,192,12156,1,8,0:0:0:0:
192,192,12156,1,0,0:0:0:0:
320,192,12156,1,0,0:0:0:0:
448,192,12156,1,0,0:0:0:0:
64,192,12387,1,8,0:0:0:0:
192,192,12387,1,0,0:0:0:0:
320,192,12387,1,0,0:0:0:0:
448,192,12387,1,0,0:0:0:0:
64,192,12617,1,8,0:0:0:0:
192,192,12617,1,0,0:0:0:0:
320,192,12617,1,0,0:0:0:0:
448,192,12617,1,0,0:0:0:0:
64,192,12964,1,8,0:0:0:0:
192,192,12964,1,0,0:0:0:0:
320,192,12964,1,0,0:0:0:0:
448,192,12964,1,0,0:0:0:0:
64,192,13194,1,8,0:0:0:0:
192,192,13194,1,0,0:0:0:0:
320,192,13194,1,0,0:0:0:0:
448,192,13194,1,0,0:0:0:0:
64,192,13425,1,8,0:0:0:0:
192,192,13425,1,0,0:0:0:0:
320,192,13425,1,0,0:0:0:0:
448,192,13425,1,0,0:0:0:0:
64,192,13771,1,8,0:0:0:0:
192,192,13771,1,0,0:0:0:0:
320,192,13771,1,0,0:0:0:0:
448,192,13771,1,0,0:0:0:0:
64,192,14002,1,8,0:0:0:0:
192,192,14002,1,0,0:0:0:0:
320,192,14002,1,0,0:0:0:0:
448,192,14002,1,0,0:0:0:0:
64,192,14348,1,2,0:0:0:0:
320,192,14348,1,0,0:0:0:0:
448,192,14348,1,0,0:0:0:0:
448,192,14809,1,0,0:0:0:50:ride08.wav
320,192,16655,1,8,0:0:0:0:
448,192,16655,1,0,0:0:0:0:
64,192,16771,1,8,0:0:0:0:
192,192,16771,1,0,0:0:0:0:
320,192,16828,1,8,0:0:0:0:
448,192,16828,1,0,0:0:0:0:
64,192,16886,1,8,0:0:0:0:
192,192,16886,1,0,0:0:0:0:
320,192,17001,1,8,0:0:0:0:
448,192,17001,1,0,0:0:0:0:
64,192,17117,1,2,0:0:0:0:
320,192,17117,1,4,0:0:0:0:
448,192,17117,1,0,0:0:0:0:
64,192,17232,1,2,0:0:0:0:
192,192,17232,1,0,0:0:0:0:
192,192,17347,1,8,0:0:0:0:
320,192,17347,1,0,0:0:0:0:
448,192,17347,1,0,0:0:0:0:
64,192,17463,1,2,0:0:0:0:
320,192,17463,1,0,0:0:0:0:
448,192,17578,1,0,0:0:0:0:
64,192,17694,1,0,0:0:0:0:
192,192,17809,1,8,0:0:0:0:
320,192,17809,1,0,0:0:0:0:
448,192,17809,1,0,0:0:0:0:
64,192,17924,1,2,0:0:0:0:
192,192,17924,1,0,0:0:0:0:
320,192,18040,1,0,0:0:0:0:
64,192,18155,1,2,0:0:0:0:
192,192,18155,1,0,0:0:0:0:
192,192,18271,1,8,0:0:0:0:
320,192,18271,1,0,0:0:0:0:
448,192,18271,1,0,0:0:0:0:
64,192,18386,1,0,0:0:0:0:
448,192,18501,1,0,0:0:0:0:
192,192,18617,1,2,0:0:0:0:
320,192,18617,1,0,0:0:0:0:
64,192,18732,1,8,0:0:0:0:
320,192,18732,1,0,0:0:0:0:
448,192,18732,1,0,0:0:0:0:
192,192,18847,1,0,0:0:0:0:
320,192,18963,1,4,0:0:0:0:
448,192,18963,1,2,0:0:0:0:
192,192,19078,1,2,0:0:0:0:
320,192,19078,1,0,0:0:0:0:
64,192,19194,1,8,0:0:0:0:
192,192,19194,1,0,0:0:0:0:
448,192,19194,1,0,0:0:0:0:
320,192,19309,1,2,0:0:0:0:
448,192,19309,1,0,0:0:0:0:
64,192,19424,1,0,0:0:0:0:
192,192,19540,1,0,0:0:0:0:
64,192,19655,1,8,0:0:0:0:
320,192,19655,1,0,0:0:0:0:
448,192,19655,1,0,0:0:0:0:
192,192,19771,1,2,0:0:0:0:
320,192,19771,1,0,0:0:0:0:
448,192,19886,1,0,0:0:0:0:
64,192,20001,1,2,0:0:0:0:
320,192,20001,1,0,0:0:0:0:
192,192,20117,1,8,0:0:0:0:
320,192,20117,1,0,0:0:0:0:
448,192,20117,1,0,0:0:0:0:
64,192,20232,1,2,0:0:0:0:
192,192,20232,1,0,0:0:0:0:
320,192,20347,1,8,0:0:0:0:
448,192,20347,1,0,0:0:0:0:
192,192,20463,1,8,0:0:0:0:
320,192,20521,1,8,0:0:0:0:
192,192,20578,1,8,0:0:0:0:
448,192,20578,1,0,0:0:0:0:
320,192,20694,1,8,0:0:0:0:
192,192,20751,1,8,0:0:0:0:
64,192,20809,1,2,0:0:0:0:
320,192,20809,1,4,0:0:0:0:
448,192,20809,1,0,0:0:0:0:
64,192,20924,1,2,0:0:0:0:
192,192,20924,1,0,0:0:0:0:
192,192,21040,1,8,0:0:0:0:
320,192,21040,1,0,0:0:0:0:
448,192,21040,1,0,0:0:0:0:
64,192,21155,1,2,0:0:0:0:
448,192,21155,1,0,0:0:0:0:
192,192,21271,1,0,0:0:0:0:
320,192,21386,1,0,0:0:0:0:
64,192,21501,1,8,0:0:0:0:
192,192,21501,1,0,0:0:0:0:
448,192,21501,1,0,0:0:0:0:
320,192,21617,1,2,0:0:0:0:
448,192,21617,1,0,0:0:0:0:
64,192,21732,1,0,0:0:0:0:
320,192,21847,1,2,0:0:0:0:
448,192,21847,1,0,0:0:0:0:
64,192,21963,1,8,0:0:0:0:
192,192,21963,1,0,0:0:0:0:
320,192,21963,1,0,0:0:0:0:
448,192,22078,1,0,0:0:0:0:
192,192,22194,1,0,0:0:0:0:
64,192,22309,1,2,0:0:0:0:
320,192,22309,1,0,0:0:0:0:
64,192,22424,1,8,0:0:0:0:
192,192,22424,1,0,0:0:0:0:
448,192,22424,1,0,0:0:0:0:
320,192,22540,1,0,0:0:0:0:
64,192,22655,1,2,0:0:0:0:
192,192,22655,1,8,0:0:0:0:
64,192,22771,1,2,0:0:0:0:
192,192,22771,1,8,0:0:0:0:
320,192,22886,1,4,0:0:0:0:
448,192,22886,1,0,0:0:0:0:
192,192,22924,1,0,0:0:0:0:
64,192,22963,1,0,0:0:0:0:
320,192,23001,1,2,0:0:0:0:
64,192,23117,1,8,0:0:0:0:
448,192,23117,1,0,0:0:0:0:
192,192,23232,1,4,0:0:0:0:
320,192,23347,1,2,0:0:0:0:
448,192,23347,1,0,0:0:0:0:
64,192,23463,1,2,0:0:0:0:
192,192,23463,1,0,0:0:0:0:
448,192,23578,1,0,0:0:0:0:
320,192,23617,1,0,0:0:0:0:
192,192,23655,1,0,0:0:0:0:
64,192,23694,1,2,0:0:0:0:
448,192,23694,1,0,0:0:0:0:
192,192,23809,1,2,0:0:0:0:
320,192,23809,1,0,0:0:0:0:
448,192,23924,1,2,0:0:0:0:
64,192,24040,1,8,0:0:0:0:
192,192,24040,1,0,0:0:0:0:
320,192,24155,1,2,0:0:0:0:
64,192,24271,1,8,0:0:0:0:
192,192,24271,1,0,0:0:0:0:
320,192,24386,1,2,0:0:0:0:
64,192,24501,1,2,0:0:0:0:
192,192,24501,1,4,0:0:0:0:
448,192,24501,1,0,0:0:0:0:
448,192,24617,1,0,0:0:0:0:
64,192,24732,1,8,0:0:0:0:
192,192,24732,1,0,0:0:0:0:
320,192,24732,1,0,0:0:0:0:
192,192,24847,1,2,0:0:0:0:
448,192,24847,1,0,0:0:0:0:
64,192,24963,1,0,0:0:0:0:
320,192,25078,1,2,0:0:0:0:
448,192,25078,1,0,0:0:0:0:
64,192,25194,1,8,0:0:0:0:
192,192,25194,1,0,0:0:0:0:
320,192,25194,1,0,0:0:0:0:
448,192,25309,1,0,0:0:0:0:
192,192,25424,1,0,0:0:0:0:
320,192,25540,1,2,0:0:0:0:
448,192,25540,1,0,0:0:0:0:
64,192,25655,1,8,0:0:0:0:
192,192,25655,1,0,0:0:0:0:
320,192,25655,1,0,0:0:0:0:
448,192,25771,1,0,0:0:0:0:
64,192,25886,1,2,0:0:0:0:
192,192,25886,1,0,0:0:0:0:
192,192,26001,1,2,0:0:0:0:
320,192,26001,1,0,0:0:0:0:
64,192,26117,1,8,0:0:0:0:
320,192,26117,1,0,0:0:0:0:
448,192,26117,1,0,0:0:0:0:
192,192,26232,1,0,0:0:0:0:
64,192,26347,1,2,0:0:0:0:
192,192,26347,1,4,0:0:0:0:
448,192,26347,1,0,0:0:0:0:
320,192,26463,1,0,0:0:0:0:
64,192,26578,1,8,0:0:0:0:
192,192,26578,1,0,0:0:0:0:
448,192,26578,1,0,0:0:0:0:
64,192,26694,1,2,0:0:0:0:
320,192,26694,1,0,0:0:0:0:
192,192,26809,1,0,0:0:0:0:
64,192,26924,1,2,0:0:0:0:
320,192,26924,1,0,0:0:0:0:
64,192,27040,1,8,0:0:0:0:
192,192,27040,1,0,0:0:0:0:
448,192,27040,1,0,0:0:0:0:
320,192,27155,1,0,0:0:0:0:
64,192,27271,1,0,0:0:0:0:
192,192,27386,1,2,0:0:0:0:
448,192,27386,1,0,0:0:0:0:
64,192,27501,1,8,0:0:0:0:
192,192,27501,1,0,0:0:0:0:
320,192,27501,1,0,0:0:0:0:
320,192,27617,1,0,0:0:0:0:
448,192,27617,1,0,0:0:0:0:
64,192,27732,1,2,0:0:0:0:
192,192,27732,1,8,0:0:0:0:
192,192,27847,1,2,0:0:0:0:
320,192,27905,1,8,0:0:0:0:
64,192,27963,1,8,0:0:0:0:
448,192,27963,1,0,0:0:0:0:
320,192,28078,1,8,0:0:0:0:
192,192,28136,1,8,0:0:0:0:
64,192,28194,1,4,0:0:0:0:
320,192,28194,1,2,0:0:0:0:
448,192,28194,1,0,0:0:0:0:
64,192,28309,1,0,0:0:0:0:
192,192,28424,1,8,0:0:0:0:
320,192,28424,1,0,0:0:0:0:
448,192,28424,1,0,0:0:0:0:
64,192,28540,1,2,0:0:0:0:
448,192,28540,1,0,0:0:0:0:
192,192,28655,1,0,0:0:0:0:
320,192,28771,1,2,0:0:0:0:
448,192,28771,1,0,0:0:0:0:
64,192,28886,1,8,0:0:0:0:
192,192,28886,1,0,0:0:0:0:
320,192,28886,1,0,0:0:0:0:
448,192,29001,1,0,0:0:0:0:
320,192,29117,1,0,0:0:0:0:
64,192,29232,1,2,0:0:0:0:
192,192,29232,1,0,0:0:0:0:
192,192,29347,1,8,0:0:0:0:
320,192,29347,1,0,0:0:0:0:
448,192,29347,1,0,0:0:0:0:
64,192,29463,1,0,0:0:0:0:
320,192,29578,1,2,0:0:0:0:
448,192,29578,1,0,0:0:0:0:
192,192,29694,1,2,0:0:0:0:
448,192,29694,1,0,0:0:0:0:
64,192,29809,1,8,0:0:0:0:
192,192,29809,1,0,0:0:0:0:
320,192,29809,1,0,0:0:0:0:
320,192,29924,1,0,0:0:0:0:
64,192,30040,1,2,0:0:0:0:
448,192,30040,1,0,0:0:0:0:
64,192,30155,1,8,0:0:0:0:
192,192,30155,1,0,0:0:0:0:
192,192,30271,1,8,0:0:0:0:
320,192,30271,1,0,0:0:0:0:
64,192,30386,1,2,0:0:0:0:
448,192,30386,1,0,0:0:0:0:
320,192,30501,1,8,0:0:0:0:
448,192,30501,1,0,0:0:0:0:
192,192,30617,1,8,0:0:0:0:
320,192,30617,1,0,0:0:0:0:
64,192,30732,1,2,0:0:0:0:
448,192,30732,1,0,0:0:0:0:
64,192,30847,1,8,0:0:0:0:
192,192,30847,1,0,0:0:0:0:
192,192,30963,1,8,0:0:0:0:
320,192,30963,1,0,0:0:0:0:
64,192,31078,1,2,0:0:0:0:
448,192,31078,1,0,0:0:0:0:
320,192,31194,1,8,0:0:0:0:
448,192,31194,1,0,0:0:0:0:
192,192,31309,1,8,0:0:0:0:
320,192,31309,1,0,0:0:0:0:
64,192,31424,1,2,0:0:0:0:
448,192,31424,1,0,0:0:0:0:
64,192,31540,1,8,0:0:0:0:
192,192,31540,1,0,0:0:0:0:
192,192,31655,1,8,0:0:0:0:
320,192,31655,1,0,0:0:0:0:
64,192,31771,1,2,0:0:0:0:
448,192,31771,1,0,0:0:0:0:
320,192,31886,1,8,0:0:0:0:
448,192,31886,1,0,0:0:0:0:
192,192,32001,1,8,0:0:0:0:
320,192,32001,1,0,0:0:0:0:
64,192,32117,1,2,0:0:0:0:
448,192,32117,1,0,0:0:0:0:
64,192,32232,1,8,0:0:0:0:
192,192,32232,1,0,0:0:0:0:
192,192,32347,1,8,0:0:0:0:
320,192,32347,1,0,0:0:0:0:
64,192,32463,1,2,0:0:0:0:
448,192,32463,1,0,0:0:0:0:
320,192,32578,1,8,0:0:0:0:
448,192,32578,1,0,0:0:0:0:
192,192,32694,1,8,0:0:0:0:
320,192,32694,1,0,0:0:0:0:
64,192,32809,1,2,0:0:0:0:
448,192,32809,1,0,0:0:0:0:
64,192,32924,1,8,0:0:0:0:
192,192,32924,1,0,0:0:0:0:
192,192,33040,1,8,0:0:0:0:
320,192,33040,1,0,0:0:0:0:
64,192,33155,1,2,0:0:0:0:
448,192,33155,1,0,0:0:0:0:
320,192,33271,1,8,0:0:0:0:
448,192,33271,1,0,0:0:0:0:
192,192,33386,1,8,0:0:0:0:
320,192,33386,1,0,0:0:0:0:
64,192,33501,1,2,0:0:0:0:
448,192,33501,1,0,0:0:0:0:
64,192,33617,1,8,0:0:0:0:
192,192,33617,1,0,0:0:0:0:
192,192,33732,1,8,0:0:0:0:
320,192,33732,1,0,0:0:0:0:
64,192,33847,1,2,0:0:0:0:
448,192,33847,1,0,0:0:0:0:
320,192,33963,1,8,0:0:0:0:
448,192,33963,1,0,0:0:0:0:
192,192,34078,1,8,0:0:0:0:
320,192,34078,1,0,0:0:0:0:
64,192,34655,1,0,0:0:0:0:
192,192,34771,1,0,0:0:0:0:
64,192,34886,1,0,0:0:0:0:
192,192,35001,1,0,0:0:0:0:
64,192,35117,1,0,0:0:0:0:
192,192,35232,1,0,0:0:0:0:
64,192,35347,1,0,0:0:0:0:
192,192,35463,1,0,0:0:0:0:
320,192,35521,1,0,0:0:0:0:
64,192,35582,128,2,35620:0:0:0:0:
320,192,35812,128,2,35851:0:0:0:0:
64,192,36043,1,0,0:0:0:30:LR_Drum Click.wav
448,192,36043,128,0,36082:0:0:0:0:
192,192,36274,128,2,36312:0:0:0:0:
320,192,36389,128,0,36428:0:0:0:0:
448,192,36389,1,0,0:0:0:30:LR_Drum Click.wav
64,192,36620,128,2,36658:0:0:0:0:
192,192,36851,128,0,36889:0:0:0:0:
320,192,36851,1,0,0:0:0:30:LR_Drum Click.wav
448,192,37082,128,2,37120:0:0:0:0:
64,192,37197,128,2,37235:0:0:0:0:
320,192,37428,128,2,37466:0:0:0:0:
64,192,37543,1,0,0:0:0:30:LR_Drum Click.wav
448,192,37658,128,0,37697:0:0:0:0:
192,192,37889,128,2,37928:0:0:0:0:
64,192,38005,1,0,0:0:0:30:LR_Drum Click.wav
320,192,38005,128,0,38043:0:0:0:0:
64,192,38235,128,2,38274:0:0:0:0:
192,192,38466,128,0,38505:0:0:0:0:
192,192,38582,128,0,38620:0:0:0:0:
320,192,38582,1,0,0:0:0:30:LR_Drum Click.wav
192,192,38697,128,2,38735:0:0:0:0:
64,192,38812,128,2,38850:0:0:0:0:
320,192,39042,128,2,39081:0:0:0:0:
64,192,39273,1,0,0:0:0:30:LR_Drum Click.wav
448,192,39273,128,0,39312:0:0:0:0:
192,192,39504,128,2,39542:0:0:0:0:
64,192,39619,1,0,0:0:0:30:LR_Drum Click.wav
320,192,39619,128,0,39658:0:0:0:0:
64,192,39850,128,2,39888:0:0:0:0:
64,192,40081,1,0,0:0:0:30:LR_Drum Click.wav
192,192,40081,128,0,40119:0:0:0:0:
448,192,40312,128,2,40350:0:0:0:0:
64,192,40427,128,2,40465:0:0:0:0:
320,192,40658,128,2,40696:0:0:0:0:
192,192,40888,1,0,0:0:0:30:LR_Drum Click.wav
448,192,40888,128,0,40927:0:0:0:0:
192,192,41119,128,2,41158:0:0:0:0:
320,192,41235,1,2,0:0:0:0:
192,192,41292,1,2,0:0:0:0:
64,192,41350,128,4,41408:0:0:0:0:
320,192,41350,128,2,41408:0:0:0:0:
448,192,41350,1,8,0:0:0:0:
64,192,41465,128,2,41523:0:0:0:0:
320,192,41465,128,4,41523:0:0:0:0:
448,192,41465,1,8,0:0:0:0:
192,192,41696,128,4,41754:0:0:0:0:
320,192,41696,128,8,41754:0:0:0:0:
448,192,41696,1,2,0:0:0:0:
64,192,41927,128,8,41985:0:0:0:0:
320,192,41927,128,2,41985:0:0:0:0:
448,192,41927,1,4,0:0:0:0:
192,192,42158,128,2,42215:0:0:0:0:
320,192,42158,128,4,42215:0:0:0:0:
448,192,42158,1,0,0:0:0:0:
64,192,42273,128,4,42331:0:0:0:0:
320,192,42273,128,0,42331:0:0:0:100:tom03.wav
448,192,42273,1,0,0:0:0:0:
64,192,42388,128,0,42446:0:0:0:100:tom04.wav
192,192,42388,1,0,0:0:0:0:
320,192,42388,128,0,42446:0:0:0:0:
64,192,42504,128,2,42542:0:0:0:0:
320,192,42734,128,2,42773:0:0:0:0:
192,192,42965,1,0,0:0:0:30:LR_Drum Click.wav
448,192,42965,128,0,43004:0:0:0:0:
192,192,43196,128,2,43234:0:0:0:0:
64,192,43311,1,0,0:0:0:30:LR_Drum Click.wav
320,192,43311,128,0,43350:0:0:0:0:
64,192,43542,128,2,43580:0:0:0:0:
192,192,43773,128,0,43811:0:0:0:0:
320,192,43773,1,0,0:0:0:30:LR_Drum Click.wav
448,192,44004,128,2,44042:0:0:0:0:
64,192,44119,128,2,44157:0:0:0:0:
320,192,44350,128,2,44388:0:0:0:0:
192,192,44465,1,0,0:0:0:30:LR_Drum Click.wav
448,192,44580,128,0,44619:0:0:0:0:
192,192,44811,128,2,44850:0:0:0:0:
320,192,44927,1,0,0:0:0:30:LR_Drum Click.wav
448,192,44927,128,0,44965:0:0:0:0:
64,192,45157,128,2,45196:0:0:0:0:
320,192,45388,128,0,45427:0:0:0:0:
192,192,45504,1,0,0:0:0:30:LR_Drum Click.wav
320,192,45504,128,0,45542:0:0:0:0:
320,192,45619,128,2,45657:0:0:0:0:
64,192,45734,128,2,45772:0:0:0:0:
192,192,45964,128,2,46003:0:0:0:0:
320,192,46022,1,0,0:0:0:0:
64,192,46080,1,0,0:0:0:0:
448,192,46195,128,0,46234:0:0:0:0:
64,192,46310,1,0,0:0:0:0:
320,192,46368,1,0,0:0:0:0:
192,192,46426,128,2,46464:0:0:0:0:
320,192,46541,128,0,46580:0:0:0:0:
192,192,46657,1,0,0:0:0:0:
320,192,46714,1,0,0:0:0:0:
64,192,46772,128,2,46810:0:0:0:0:
64,192,47003,1,0,0:0:0:30:LR_Drum Click.wav
192,192,47003,128,0,47041:0:0:0:0:
448,192,47234,128,2,47272:0:0:0:0:
64,192,47349,128,2,47387:0:0:0:0:
192,192,47580,128,2,47618:0:0:0:0:
64,192,47810,1,0,0:0:0:30:LR_Drum Click.wav
448,192,47810,128,0,47849:0:0:0:0:
320,192,48041,128,2,48080:0:0:0:0:
192,192,48157,1,2,0:0:0:0:
64,192,48272,1,4,0:0:0:0:
192,192,48272,128,8,48330:0:0:0:0:
448,192,48272,128,2,48330:0:0:0:0:
64,192,48387,1,4,0:0:0:0:
192,192,48387,128,8,48445:0:0:0:0:
448,192,48387,128,2,48445:0:0:0:0:
192,192,48618,128,4,48676:0:0:0:0:
320,192,48618,128,8,48676:0:0:0:0:
448,192,48618,1,2,0:0:0:0:
64,192,48849,1,8,0:0:0:0:
192,192,48849,128,4,48907:0:0:0:0:
448,192,48849,128,2,48907:0:0:0:0:
64,192,49080,1,4,0:0:0:0:
192,192,49080,128,2,49137:0:0:0:0:
320,192,49080,128,0,49137:0:0:0:0:
448,192,49080,1,0,0:0:0:0:
64,192,49195,1,4,0:0:0:0:
192,192,49195,128,0,49253:0:0:0:50:tom02.wav
448,192,49195,128,0,49253:0:0:0:0:
192,192,49310,128,2,49772:0:0:0:0:
320,192,49310,1,0,0:0:0:0:
448,192,49310,128,0,49657:0:0:0:0:
320,192,49887,1,2,0:0:0:0:
448,192,49887,1,0,0:0:0:0:
64,192,50352,1,2,0:0:0:0:
192,192,50352,1,4,0:0:0:0:
320,192,50352,1,0,0:0:0:0:
448,192,50352,1,0,0:0:0:0:
192,192,50467,1,0,0:0:0:0:
64,192,50582,1,8,0:0:0:0:
192,192,50582,1,0,0:0:0:0:
448,192,50582,1,0,0:0:0:0:
192,192,50698,1,2,0:0:0:0:
320,192,50698,1,0,0:0:0:0:
192,192,50813,1,0,0:0:0:0:
448,192,50813,1,0,0:0:0:0:
64,192,51044,1,8,0:0:0:0:
320,192,51044,1,0,0:0:0:0:
448,192,51044,1,0,0:0:0:0:
448,192,51159,1,0,0:0:0:0:
192,192,51275,1,0,0:0:0:0:
448,192,51275,1,0,0:0:0:0:
448,192,51390,1,0,0:0:0:0:
64,192,51505,1,8,0:0:0:0:
320,192,51505,1,4,0:0:0:0:
448,192,51505,1,0,0:0:0:0:
64,192,51736,1,2,0:0:0:0:
192,192,51736,1,4,0:0:0:0:
320,192,51736,1,0,0:0:0:0:
448,192,51736,1,0,0:0:0:0:
320,192,51852,1,0,0:0:0:0:
64,192,51967,1,8,0:0:0:0:
320,192,51967,1,0,0:0:0:0:
448,192,51967,1,0,0:0:0:0:
192,192,52082,1,2,0:0:0:0:
320,192,52082,1,0,0:0:0:0:
64,192,52198,1,0,0:0:0:0:
320,192,52198,1,0,0:0:0:0:
192,192,52428,1,8,0:0:0:0:
320,192,52428,1,0,0:0:0:0:
448,192,52428,1,0,0:0:0:0:
192,192,52544,1,0,0:0:0:0:
64,192,52659,1,2,0:0:0:0:
192,192,52659,1,0,0:0:0:0:
192,192,52775,1,0,0:0:0:0:
64,192,52890,1,8,0:0:0:0:
192,192,52890,1,4,0:0:0:0:
448,192,52890,1,0,0:0:0:0:
64,192,53121,1,2,0:0:0:0:
192,192,53121,1,4,0:0:0:0:
320,192,53121,1,0,0:0:0:0:
448,192,53121,1,0,0:0:0:0:
448,192,53236,1,0,0:0:0:0:
64,192,53352,1,8,0:0:0:0:
192,192,53352,1,0,0:0:0:0:
448,192,53352,1,0,0:0:0:0:
320,192,53467,1,2,0:0:0:0:
448,192,53467,1,0,0:0:0:0:
192,192,53582,1,0,0:0:0:0:
448,192,53582,1,0,0:0:0:0:
64,192,53813,1,8,0:0:0:0:
192,192,53813,1,0,0:0:0:0:
448,192,53813,1,0,0:0:0:0:
64,192,53928,1,0,0:0:0:0:
64,192,54044,1,0,0:0:0:0:
320,192,54044,1,0,0:0:0:0:
64,192,54159,1,0,0:0:0:0:
64,192,54275,1,4,0:0:0:0:
192,192,54275,1,8,0:0:0:0:
448,192,54275,1,0,0:0:0:0:
64,192,54505,1,4,0:0:0:0:
192,192,54505,1,2,0:0:0:0:
320,192,54505,1,0,0:0:0:0:
448,192,54505,1,0,0:0:0:0:
448,192,54621,1,0,0:0:0:0:
64,192,54736,1,8,0:0:0:0:
192,192,54736,1,0,0:0:0:0:
448,192,54736,1,0,0:0:0:0:
320,192,54852,1,2,0:0:0:0:
448,192,54852,1,0,0:0:0:0:
64,192,54967,1,0,0:0:0:0:
448,192,54967,1,0,0:0:0:0:
192,192,55198,1,8,0:0:0:0:
320,192,55198,1,0,0:0:0:0:
448,192,55198,1,0,0:0:0:0:
192,192,55313,1,0,0:0:0:0:
64,192,55428,1,2,0:0:0:0:
192,192,55428,1,0,0:0:0:0:
192,192,55544,1,0,0:0:0:0:
64,192,55659,1,4,0:0:0:0:
192,192,55659,1,8,0:0:0:0:
448,192,55659,1,0,0:0:0:0:
64,192,55890,1,2,0:0:0:0:
192,192,55890,1,4,0:0:0:0:
320,192,55890,1,0,0:0:0:0:
448,192,55890,1,0,0:0:0:0:
64,192,56005,1,0,0:0:0:0:
64,192,56121,1,8,0:0:0:0:
320,192,56121,1,0,0:0:0:0:
448,192,56121,1,0,0:0:0:0:
64,192,56236,1,2,0:0:0:0:
192,192,56236,1,0,0:0:0:0:
64,192,56352,1,0,0:0:0:0:
448,192,56352,1,0,0:0:0:0:
64,192,56582,1,8,0:0:0:0:
320,192,56582,1,0,0:0:0:0:
448,192,56582,1,0,0:0:0:0:
448,192,56698,1,0,0:0:0:0:
192,192,56813,1,0,0:0:0:0:
448,192,56813,1,0,0:0:0:0:
448,192,56928,1,0,0:0:0:0:
64,192,57044,1,8,0:0:0:0:
192,192,57044,1,4,0:0:0:0:
320,192,57044,1,0,0:0:0:0:
64,192,57275,1,2,0:0:0:0:
192,192,57275,1,4,0:0:0:0:
320,192,57275,1,0,0:0:0:0:
448,192,57275,1,0,0:0:0:0:
64,192,57390,1,0,0:0:0:0:
320,192,57390,1,0,0:0:0:0:
192,192,57505,1,8,0:0:0:0:
448,192,57505,1,0,0:0:0:0:
192,192,57621,1,8,0:0:0:0:
448,192,57621,1,0,0:0:0:0:
64,192,57736,1,0,0:0:0:0:
320,192,57736,1,0,0:0:0:0:
320,192,57852,1,2,0:0:0:0:
192,192,57909,1,2,0:0:0:0:
64,192,57967,1,8,0:0:0:0:
448,192,57967,1,0,0:0:0:0:
192,192,58082,1,0,0:0:0:0:
448,192,58082,1,0,0:0:0:0:
192,192,58198,1,2,0:0:0:0:
320,192,58198,1,0,0:0:0:0:
192,192,58313,1,0,0:0:0:0:
448,192,58313,1,0,0:0:0:0:
64,192,58428,1,8,0:0:0:0:
320,192,58428,1,4,0:0:0:0:
448,192,58428,1,0,0:0:0:0:
192,192,58659,1,2,0:0:0:0:
320,192,58659,1,4,0:0:0:0:
448,192,58659,1,0,0:0:0:0:
192,192,58775,1,0,0:0:0:0:
320,192,58775,1,0,0:0:0:0:
64,192,58890,1,8,0:0:0:0:
448,192,58890,1,0,0:0:0:0:
64,192,59005,1,8,0:0:0:0:
448,192,59005,1,0,0:0:0:0:
192,192,59121,1,0,0:0:0:0:
320,192,59121,1,0,0:0:0:0:
64,192,59352,1,8,0:0:0:0:
320,192,59352,1,0,0:0:0:0:
64,192,59467,1,2,0:0:0:0:
192,192,59525,1,2,0:0:0:0:
64,192,59582,1,8,0:0:0:0:
320,192,59582,1,0,0:0:0:0:
448,192,59582,1,0,0:0:0:0:
192,192,59698,1,8,0:0:0:0:
448,192,59698,1,0,0:0:0:0:
64,192,59813,1,8,0:0:0:0:
320,192,59813,1,0,0:0:0:0:
448,192,59813,1,0,0:0:0:0:
64,192,59928,1,2,0:0:0:0:
320,192,60044,1,2,0:0:0:0:
192,192,60159,1,0,0:0:0:50:tom02.wav
448,192,60275,1,0,0:0:0:50:tom04.wav
64,192,60390,1,8,0:0:0:0:
192,192,60390,1,0,0:0:0:0:
320,192,60390,1,0,0:0:0:0:
64,192,60505,1,8,0:0:0:0:
448,192,60505,1,0,0:0:0:0:
64,192,60621,1,8,0:0:0:0:
192,192,60621,1,0,0:0:0:0:
320,192,60621,1,0,0:0:0:0:
448,192,60736,1,2,0:0:0:0:
192,192,60852,1,2,0:0:0:0:
448,192,60852,1,0,0:0:0:0:
320,192,60909,1,8,0:0:0:0:
64,192,60967,1,2,0:0:0:0:
448,192,60967,1,0,0:0:0:0:
192,192,61082,1,0,0:0:0:0:
64,192,61198,1,4,0:0:0:0:
320,192,61198,1,8,0:0:0:0:
448,192,61198,1,0,0:0:0:0:
192,192,61428,1,2,0:0:0:0:
320,192,61428,1,4,0:0:0:0:
448,192,61428,1,0,0:0:0:0:
64,192,61544,1,0,0:0:0:0:
448,192,61544,1,0,0:0:0:0:
64,192,61659,1,8,0:0:0:0:
192,192,61659,1,0,0:0:0:0:
448,192,61659,1,0,0:0:0:0:
192,192,61775,1,2,0:0:0:0:
320,192,61775,1,0,0:0:0:0:
192,192,61890,1,0,0:0:0:0:
448,192,61890,1,0,0:0:0:0:
64,192,62121,1,8,0:0:0:0:
192,192,62121,1,0,0:0:0:0:
320,192,62121,1,0,0:0:0:0:
192,192,62236,1,0,0:0:0:0:
320,192,62236,1,0,0:0:0:0:
64,192,62352,1,2,0:0:0:0:
448,192,62352,1,0,0:0:0:0:
192,192,62467,1,0,0:0:0:0:
320,192,62467,1,0,0:0:0:0:
64,192,62582,1,8,0:0:0:0:
320,192,62582,1,4,0:0:0:0:
448,192,62582,1,0,0:0:0:0:
64,192,62813,1,2,0:0:0:0:
192,192,62813,1,4,0:0:0:0:
320,192,62813,1,0,0:0:0:0:
64,192,62928,1,0,0:0:0:0:
448,192,62928,1,0,0:0:0:0:
64,192,63044,1,8,0:0:0:0:
320,192,63044,1,0,0:0:0:0:
448,192,63044,1,0,0:0:0:0:
192,192,63159,1,2,0:0:0:0:
320,192,63159,1,0,0:0:0:0:
64,192,63275,1,0,0:0:0:0:
320,192,63275,1,0,0:0:0:0:
64,192,63505,1,8,0:0:0:0:
192,192,63505,1,0,0:0:0:0:
448,192,63505,1,0,0:0:0:0:
64,192,63621,1,0,0:0:0:0:
448,192,63621,1,0,0:0:0:0:
64,192,63736,1,2,0:0:0:0:
320,192,63736,1,0,0:0:0:0:
64,192,63852,1,0,0:0:0:0:
448,192,63852,1,0,0:0:0:0:
192,192,63967,1,8,0:0:0:0:
320,192,63967,1,4,0:0:0:0:
64,192,64198,1,2,0:0:0:0:
192,192,64198,1,4,0:0:0:0:
320,192,64198,1,0,0:0:0:0:
448,192,64198,1,0,0:0:0:0:
320,192,64313,1,2,0:0:0:0:
64,192,64428,1,8,0:0:0:0:
192,192,64428,1,2,0:0:0:0:
448,192,64428,1,0,0:0:0:0:
192,192,64544,1,2,0:0:0:0:
64,192,64659,1,2,0:0:0:0:
320,192,64659,1,8,0:0:0:0:
448,192,64659,1,0,0:0:0:0:
448,192,64774,1,2,0:0:0:0:
64,192,64890,1,8,0:0:0:0:
192,192,64890,1,2,0:0:0:0:
320,192,64890,1,0,0:0:0:0:
64,192,65005,1,2,0:0:0:0:
192,192,65121,1,8,0:0:0:0:
320,192,65121,1,2,0:0:0:0:
448,192,65121,1,0,0:0:0:0:
320,192,65236,1,2,0:0:0:0:
64,192,65351,1,2,0:0:0:0:
192,192,65351,1,8,0:0:0:0:
448,192,65351,1,0,0:0:0:0:
448,192,65467,1,2,0:0:0:0:
64,192,65582,1,2,0:0:0:0:
192,192,65582,1,8,0:0:0:0:
320,192,65582,1,0,0:0:0:0:
192,192,65698,1,2,0:0:0:0:
64,192,65813,1,8,0:0:0:0:
320,192,65813,1,2,0:0:0:0:
448,192,65813,1,0,0:0:0:0:
64,192,65928,1,2,0:0:0:0:
192,192,66044,1,2,0:0:0:0:
320,192,66044,1,8,0:0:0:0:
448,192,66044,1,0,0:0:0:0:
448,192,66159,1,2,0:0:0:0:
64,192,66274,1,2,0:0:0:0:
192,192,66274,1,8,0:0:0:0:
448,192,66274,1,0,0:0:0:0:
64,192,66390,1,2,0:0:0:0:
64,192,66505,1,8,0:0:0:0:
320,192,66505,1,2,0:0:0:0:
448,192,66505,1,0,0:0:0:0:
320,192,66621,1,2,0:0:0:0:
64,192,66736,1,8,0:0:0:0:
192,192,66736,1,2,0:0:0:0:
320,192,66736,1,0,0:0:0:0:
192,192,66851,1,2,0:0:0:0:
64,192,66967,1,4,0:0:0:0:
192,192,66967,1,2,0:0:0:0:
320,192,66967,1,8,0:0:0:0:
448,192,66967,1,0,0:0:0:0:
192,192,67313,1,2,0:0:0:0:
64,192,67371,1,2,0:0:0:0:
320,192,67428,1,8,0:0:0:0:
448,192,67428,1,0,0:0:0:0:
192,192,67544,1,2,0:0:0:0:
64,192,67890,128,4,68005:0:0:0:0:
448,192,67890,1,2,0:0:0:0:
320,192,68005,128,0,68120:0:0:0:0:
192,192,68120,128,0,68236:0:0:0:0:
320,192,68236,1,2,0:0:0:0:
448,192,68236,128,0,68351:0:0:0:0:
64,192,68351,1,8,0:0:0:0:
320,192,68351,128,0,68466:0:0:0:0:
192,192,68466,128,0,68582:0:0:0:0:
64,192,68582,128,0,68697:0:0:0:0:
448,192,68582,128,0,68813:0:0:0:0:
320,192,68697,128,0,68813:0:0:0:0:
192,192,68813,128,0,68928:0:0:0:0:
448,192,68928,128,0,69043:0:0:0:0:
192,192,69043,1,2,0:0:0:0:
320,192,69043,128,0,69159:0:0:0:0:
192,192,69159,128,0,69274:0:0:0:0:
64,192,69274,128,8,69390:0:0:0:0:
320,192,69274,1,0,0:0:0:0:
448,192,69390,128,0,69505:0:0:0:0:
320,192,69505,1,0,0:0:0:0:
192,192,69620,1,0,0:0:0:0:
64,192,69736,128,4,69851:0:0:0:0:
448,192,69736,1,2,0:0:0:0:
192,192,69851,128,0,69966:0:0:0:0:
320,192,69966,128,0,70082:0:0:0:0:
64,192,70082,1,2,0:0:0:0:
448,192,70082,128,0,70197:0:0:0:0:
64,192,70197,1,8,0:0:0:0:
320,192,70197,128,0,70313:0:0:0:0:
192,192,70313,128,0,70428:0:0:0:0:
64,192,70428,128,0,70543:0:0:0:0:
320,192,70428,128,0,70659:0:0:0:0:
448,192,70543,128,0,70659:0:0:0:0:
192,192,70659,128,0,70774:0:0:0:0:
448,192,70774,128,0,70890:0:0:0:0:
64,192,70890,1,2,0:0:0:0:
320,192,70890,128,0,71005:0:0:0:0:
192,192,71005,128,2,71120:0:0:0:0:
448,192,71005,1,0,0:0:0:0:
64,192,71120,128,8,71236:0:0:0:0:
448,192,71120,1,0,0:0:0:0:
192,192,71236,128,2,71351:0:0:0:0:
320,192,71236,1,0,0:0:0:0:
448,192,71351,1,0,0:0:0:0:
448,192,71466,1,0,0:0:0:0:
320,192,71582,128,2,71697:0:0:0:0:
448,192,71582,1,4,0:0:0:0:
192,192,71697,128,0,71813:0:0:0:0:
64,192,71813,128,0,71928:0:0:0:0:
448,192,71813,1,0,0:0:0:0:
448,192,71928,128,2,72043:0:0:0:0:
64,192,72043,1,8,0:0:0:0:
320,192,72043,128,0,72159:0:0:0:0:
192,192,72159,128,0,72274:0:0:0:0:
320,192,72274,128,0,72390:0:0:0:0:
448,192,72274,128,0,72505:0:0:0:0:
192,192,72390,128,0,72505:0:0:0:0:
64,192,72505,128,0,72620:0:0:0:0:
448,192,72620,128,0,72736:0:0:0:0:
192,192,72736,1,2,0:0:0:0:
320,192,72736,128,0,72851:0:0:0:0:
192,192,72851,128,0,72966:0:0:0:0:
64,192,72966,128,8,73082:0:0:0:0:
320,192,72966,1,0,0:0:0:0:
448,192,73082,128,0,73197:0:0:0:0:
192,192,73197,1,0,0:0:0:0:
320,192,73313,1,0,0:0:0:0:
192,192,73428,128,2,73543:0:0:0:0:
448,192,73428,1,4,0:0:0:0:
320,192,73543,128,0,73659:0:0:0:0:
64,192,73659,1,0,0:0:0:0:
192,192,73659,128,0,73774:0:0:0:0:
320,192,73774,1,2,0:0:0:0:
448,192,73774,128,0,73890:0:0:0:0:
64,192,73890,128,8,74005:0:0:0:0:
320,192,73890,1,0,0:0:0:0:
448,192,74005,128,0,74120:0:0:0:0:
64,192,74120,128,0,74351:0:0:0:0:
320,192,74120,128,0,74236:0:0:0:0:
192,192,74236,128,0,74351:0:0:0:0:
320,192,74351,128,2,74466:0:0:0:0:
448,192,74351,128,0,74582:0:0:0:0:
64,192,74466,128,2,74582:0:0:0:0:
192,192,74466,1,0,0:0:0:0:
320,192,74582,128,0,74697:0:0:0:70:tom01.wav
64,192,74697,128,0,74813:0:0:0:70:tom02.wav
448,192,74697,1,0,0:0:0:0:
192,192,74813,128,0,74928:0:0:0:70:tom03.wav
320,192,74813,1,0,0:0:0:0:
448,192,74928,128,0,75043:0:0:0:70:tom04.wav
64,192,75043,1,2,0:0:0:0:
192,192,75043,1,0,0:0:0:0:
320,192,75159,1,2,0:0:0:0:
448,192,75159,1,0,0:0:0:0:
64,192,75274,128,4,75390:0:0:0:0:
448,192,75274,1,2,0:0:0:0:
192,192,75390,128,0,75505:0:0:0:0:
320,192,75505,128,2,75620:0:0:0:0:
448,192,75505,1,0,0:0:0:0:
64,192,75620,128,0,75736:0:0:0:0:
192,192,75736,1,8,0:0:0:0:
320,192,75736,128,0,75851:0:0:0:0:
192,192,75851,128,2,75966:0:0:0:0:
448,192,75851,1,0,0:0:0:0:
64,192,75966,128,0,76197:0:0:0:0:
448,192,75966,128,0,76082:0:0:0:0:
192,192,76082,1,8,0:0:0:0:
320,192,76082,128,0,76197:0:0:0:0:
192,192,76197,128,0,76313:0:0:0:0:
320,192,76313,128,0,76428:0:0:0:0:
192,192,76428,1,2,0:0:0:0:
448,192,76428,128,0,76543:0:0:0:0:
64,192,76543,1,2,0:0:0:0:
192,192,76543,128,0,76659:0:0:0:0:
320,192,76659,1,8,0:0:0:0:
448,192,76659,128,0,76774:0:0:0:0:
320,192,76774,128,2,76890:0:0:0:0:
64,192,76890,1,2,0:0:0:0:
64,192,77005,1,2,0:0:0:0:
64,192,77120,1,4,0:0:0:0:
448,192,77120,128,2,77236:0:0:0:0:
192,192,77236,1,8,0:0:0:0:
320,192,77236,128,0,77351:0:0:0:0:
192,192,77351,128,2,77466:0:0:0:0:
320,192,77466,1,2,0:0:0:0:
448,192,77466,128,0,77582:0:0:0:0:
64,192,77582,128,8,77697:0:0:0:0:
320,192,77582,1,0,0:0:0:0:
192,192,77697,128,2,77813:0:0:0:0:
320,192,77813,128,2,77928:0:0:0:0:
448,192,77813,128,0,78043:0:0:0:0:
64,192,77928,128,8,78043:0:0:0:0:
192,192,77928,1,0,0:0:0:0:
192,192,78043,128,8,78159:0:0:0:0:
320,192,78043,1,0,0:0:0:0:
320,192,78159,1,8,0:0:0:0:
448,192,78159,128,0,78274:0:0:0:0:
64,192,78274,1,2,0:0:0:0:
192,192,78274,128,0,78390:0:0:0:0:
320,192,78390,128,2,78505:0:0:0:0:
448,192,78390,1,0,0:0:0:0:
64,192,78505,1,8,0:0:0:0:
448,192,78505,128,0,78620:0:0:0:0:
192,192,78620,128,2,78736:0:0:0:0:
64,192,78736,1,8,0:0:0:0:
320,192,78736,1,0,0:0:0:0:
64,192,78851,1,8,0:0:0:0:
448,192,78851,1,0,0:0:0:0:
192,192,78966,128,2,79082:0:0:0:0:
320,192,78966,1,4,0:0:0:0:
320,192,79082,128,8,79197:0:0:0:0:
448,192,79082,1,0,0:0:0:0:
64,192,79140,1,8,0:0:0:0:
192,192,79197,1,8,0:0:0:0:
448,192,79197,128,0,79313:0:0:0:0:
320,192,79313,128,2,79428:0:0:0:0:
64,192,79428,128,8,79543:0:0:0:0:
448,192,79428,1,0,0:0:0:0:
448,192,79543,128,2,79659:0:0:0:0:
192,192,79601,1,0,0:0:0:70:tom02.wav
320,192,79659,128,0,79774:0:0:0:70:tom03.wav
64,192,79716,1,0,0:0:0:70:tom03.wav
192,192,79774,128,0,79890:0:0:0:70:tom04.wav
320,192,79832,1,0,0:0:0:70:tom04.wav
64,192,79890,128,2,80005:0:0:0:0:
192,192,80005,128,0,80120:0:0:0:0:
448,192,80063,1,0,0:0:0:0:
320,192,80120,128,2,80236:0:0:0:0:
192,192,80178,1,0,0:0:0:0:
448,192,80236,128,2,80351:0:0:0:0:
64,192,80293,1,2,0:0:0:0:
192,192,80351,128,8,80466:0:0:0:0:
320,192,80351,1,0,0:0:0:0:
320,192,80466,128,8,80582:0:0:0:0:
448,192,80466,1,0,0:0:0:0:
64,192,80582,1,8,0:0:0:0:
192,192,80582,1,0,0:0:0:0:
192,192,80697,1,8,0:0:0:0:
320,192,80697,1,0,0:0:0:0:
64,192,80813,128,2,80928:0:0:0:0:
448,192,80813,1,4,0:0:0:0:
192,192,80928,128,0,81043:0:0:0:0:
64,192,81043,128,0,81159:0:0:0:0:
320,192,81159,1,2,0:0:0:0:
448,192,81159,128,0,81274:0:0:0:0:
64,192,81274,1,8,0:0:0:0:
192,192,81274,128,0,81390:0:0:0:0:
320,192,81390,128,0,81505:0:0:0:0:
64,192,81505,128,0,81620:0:0:0:0:
448,192,81505,128,0,81736:0:0:0:0:
320,192,81620,128,0,81736:0:0:0:0:
64,192,81736,128,2,81966:0:0:0:0:
192,192,81736,128,0,81851:0:0:0:0:
448,192,81851,128,2,81966:0:0:0:0:
192,192,81966,1,0,0:0:0:70:tom01.wav
320,192,81966,128,0,82082:0:0:0:0:
192,192,82082,1,0,0:0:0:70:tom02.wav
448,192,82082,128,0,82197:0:0:0:0:
64,192,82197,1,0,0:0:0:70:tom03.wav
320,192,82197,1,0,0:0:0:0:
192,192,82313,1,0,0:0:0:70:tom04.wav
448,192,82313,1,0,0:0:0:0:
64,192,82428,1,2,0:0:0:0:
320,192,82428,1,0,0:0:0:0:
192,192,82543,1,2,0:0:0:0:
448,192,82543,1,0,0:0:0:0:
64,192,82659,1,2,0:0:0:0:
448,192,82659,1,4,0:0:0:0:
320,192,83351,1,2,0:0:0:0:
192,192,83409,1,2,0:0:0:0:
64,192,83466,1,8,0:0:0:0:
320,192,83466,1,4,0:0:0:0:
448,192,83466,1,0,0:0:0:0:
64,192,84506,1,2,0:0:0:0:
192,192,84506,1,8,0:0:0:0:
448,192,84506,1,4,0:0:0:0:
320,192,84643,1,4,0:0:0:0:
448,192,84643,1,2,0:0:0:0:
192,192,84781,1,6,0:0:0:0:
64,192,84919,1,4,0:0:0:0:
192,192,84919,1,8,0:0:0:0:
320,192,84919,1,2,0:0:0:0:
320,192,85057,1,4,0:0:0:0:
448,192,85057,1,2,0:0:0:0:
64,192,85195,1,6,0:0:0:0:
64,192,85333,1,4,0:0:0:0:
192,192,85333,1,8,0:0:0:0:
448,192,85333,1,2,0:0:0:0:
64,192,86161,1,2,0:0:0:0:
192,192,86161,1,0,0:0:0:0:
64,192,86367,1,0,0:0:0:0:
192,192,86471,1,0,0:0:0:0:
64,192,86574,1,0,0:0:0:0:
192,192,86781,1,0,0:0:0:0:
320,192,86988,1,0,0:0:0:0:
64,192,87195,1,0,0:0:0:0:
64,192,87402,1,2,0:0:0:0:
192,192,87402,1,0,0:0:0:0:
192,192,87609,1,0,0:0:0:0:
64,192,87712,1,0,0:0:0:0:
192,192,87816,1,0,0:0:0:0:
320,192,88023,1,0,0:0:0:0:
448,192,88229,1,0,0:0:0:0:
320,192,88436,1,0,0:0:0:0:
320,192,88643,1,2,0:0:0:0:
448,192,88643,1,0,0:0:0:0:
320,192,88850,1,0,0:0:0:0:
448,192,88954,1,0,0:0:0:0:
64,192,89057,1,0,0:0:0:0:
192,192,89264,1,0,0:0:0:0:
320,192,89471,1,0,0:0:0:0:
448,192,89678,1,0,0:0:0:0:
320,192,89885,1,2,0:0:0:0:
448,192,89885,1,0,0:0:0:0:
448,192,90092,1,0,0:0:0:0:
64,192,90298,1,0,0:0:0:0:
320,192,90505,1,0,0:0:0:0:
192,192,90712,1,0,0:0:0:0:
320,192,91126,1,2,0:0:0:0:
448,192,91126,1,8,0:0:0:0:
64,192,91229,1,2,0:0:0:0:
192,192,91229,1,8,0:0:0:0:
320,192,91332,1,8,0:0:0:0:
448,192,91332,1,2,0:0:0:0:
64,192,91436,1,2,0:0:0:0:
192,192,91436,1,8,0:0:0:0:
320,192,91539,1,2,0:0:0:0:
448,192,91539,1,8,0:0:0:0:
64,192,91953,1,2,0:0:0:0:
192,192,91953,1,0,0:0:0:0:
448,192,92159,1,0,0:0:0:0:
320,192,92263,1,0,0:0:0:0:
448,192,92366,1,0,0:0:0:0:
192,192,92573,1,0,0:0:0:0:
320,192,92780,1,0,0:0:0:0:
64,192,92987,1,0,0:0:0:0:
64,192,93194,1,2,0:0:0:0:
192,192,93194,1,0,0:0:0:0:
320,192,93401,1,0,0:0:0:0:
448,192,93504,1,0,0:0:0:0:
320,192,93608,1,0,0:0:0:0:
192,192,93815,1,0,0:0:0:0:
448,192,94021,1,0,0:0:0:0:
320,192,94228,1,0,0:0:0:0:
320,192,94435,1,0,0:0:0:70:tom01.wav
448,192,94435,1,0,0:0:0:0:
192,192,94642,1,0,0:0:0:70:tom02.wav
448,192,94642,1,0,0:0:0:0:
192,192,94849,1,0,0:0:0:70:tom03.wav
320,192,94849,1,0,0:0:0:0:
64,192,95056,1,0,0:0:0:70:tom02.wav
448,192,95056,1,0,0:0:0:0:
64,192,95263,1,0,0:0:0:70:tom04.wav
320,192,95263,1,0,0:0:0:0:
192,192,95470,1,0,0:0:0:70:tom04.wav
320,192,95470,1,0,0:0:0:0:
64,192,95677,1,0,0:0:0:70:tom04.wav
448,192,95677,1,0,0:0:0:0:
192,192,96504,1,8,0:0:0:0:
320,192,96504,1,0,0:0:0:0:
64,192,96918,1,4,0:0:0:0:
192,192,96918,1,2,0:0:0:0:
448,192,96918,1,0,0:0:0:0:
320,192,97125,1,0,0:0:0:0:
64,192,97228,1,0,0:0:0:0:
320,192,97332,1,0,0:0:0:0:
192,192,97539,1,2,0:0:0:0:
320,192,97746,1,0,0:0:0:0:
320,192,97952,1,2,0:0:0:0:
448,192,97952,1,0,0:0:0:0:
64,192,98056,1,2,0:0:0:0:
192,192,98159,1,8,0:0:0:0:
320,192,98159,1,0,0:0:0:0:
448,192,98159,1,0,0:0:0:0:
192,192,98366,1,2,0:0:0:0:
320,192,98366,1,0,0:0:0:0:
448,192,98470,1,0,0:0:0:0:
192,192,98573,1,0,0:0:0:0:
320,192,98780,1,0,0:0:0:0:
320,192,98987,1,2,0:0:0:0:
448,192,98987,1,0,0:0:0:0:
192,192,99194,1,0,0:0:0:0:
64,192,99401,1,2,0:0:0:0:
192,192,99401,1,0,0:0:0:0:
320,192,99608,1,2,0:0:0:0:
448,192,99608,1,0,0:0:0:0:
192,192,99711,1,2,0:0:0:0:
64,192,99815,1,8,0:0:0:0:
320,192,99815,1,4,0:0:0:0:
448,192,99815,1,0,0:0:0:0:
192,192,100021,1,2,0:0:0:0:
320,192,100021,1,0,0:0:0:0:
64,192,100228,1,2,0:0:0:0:
192,192,100228,1,0,0:0:0:0:
64,192,100435,1,8,0:0:0:0:
192,192,100435,1,0,0:0:0:0:
448,192,100435,1,0,0:0:0:0:
192,192,100642,1,2,0:0:0:0:
320,192,100642,1,0,0:0:0:0:
448,192,100849,1,0,0:0:0:0:
192,192,101056,1,2,0:0:0:0:
320,192,101056,1,0,0:0:0:0:
64,192,101263,1,2,0:0:0:0:
192,192,101263,1,0,0:0:0:0:
448,192,101366,1,2,0:0:0:0:
64,192,101470,1,8,0:0:0:0:
192,192,101470,1,4,0:0:0:0:
320,192,101470,1,0,0:0:0:0:
320,192,101884,1,8,0:0:0:0:
448,192,101884,1,2,0:0:0:0:
64,192,101987,1,8,0:0:0:0:
192,192,101987,1,2,0:0:0:0:
320,192,102090,1,8,0:0:0:0:
448,192,102090,1,2,0:0:0:0:
64,192,102194,1,8,0:0:0:0:
192,192,102194,1,2,0:0:0:0:
320,192,102297,1,8,0:0:0:0:
448,192,102297,1,2,0:0:0:0:
64,192,102711,1,8,0:0:0:0:
192,192,102711,1,4,0:0:0:0:
448,192,102711,1,0,0:0:0:0:
64,192,102917,1,2,0:0:0:0:
192,192,102917,1,0,0:0:0:0:
448,192,103021,1,2,0:0:0:0:
64,192,103124,1,8,0:0:0:0:
320,192,103124,1,0,0:0:0:0:
192,192,103331,1,2,0:0:0:0:
320,192,103331,1,0,0:0:0:0:
64,192,103538,1,8,0:0:0:0:
448,192,103538,1,0,0:0:0:0:
64,192,103745,1,2,0:0:0:0:
192,192,103745,1,0,0:0:0:0:
192,192,103952,1,8,0:0:0:0:
320,192,103952,1,0,0:0:0:0:
448,192,103952,1,0,0:0:0:0:
64,192,104159,1,2,0:0:0:0:
320,192,104159,1,0,0:0:0:0:
192,192,104262,1,2,0:0:0:0:
64,192,104366,1,8,0:0:0:0:
448,192,104366,1,0,0:0:0:0:
192,192,104573,1,2,0:0:0:0:
320,192,104573,1,0,0:0:0:0:
320,192,104779,1,8,0:0:0:0:
448,192,104779,1,0,0:0:0:0:
64,192,104986,1,2,0:0:0:0:
192,192,104986,1,0,0:0:0:0:
192,192,105193,1,8,0:0:0:0:
448,192,105193,1,0,0:0:0:70:tom01.wav
64,192,105297,1,8,0:0:0:0:
320,192,105297,1,0,0:0:0:0:
448,192,105400,1,2,0:0:0:0:
192,192,105504,1,2,0:0:0:0:
64,192,105607,1,8,0:0:0:0:
320,192,105607,1,0,0:0:0:0:
192,192,105710,1,8,0:0:0:0:
448,192,105710,1,0,0:0:0:0:
320,192,105814,1,0,0:0:0:70:tom02.wav
64,192,105917,1,0,0:0:0:70:tom02.wav
320,192,106021,1,0,0:0:0:70:tom03.wav
448,192,106021,1,0,0:0:0:0:
64,192,106124,1,0,0:0:0:70:tom03.wav
192,192,106124,1,0,0:0:0:0:
448,192,106228,1,0,0:0:0:70:tom04.wav
192,192,106331,1,0,0:0:0:70:tom04.wav
64,192,106435,1,2,0:0:0:0:
320,192,106435,1,4,0:0:0:0:
448,192,106435,1,0,0:0:0:0:
192,192,107624,1,0,0:0:0:0:
320,192,107676,1,0,0:0:0:0:
448,192,108090,1,2,0:0:0:0:
448,192,108297,1,2,0:0:0:0:
320,192,108504,1,2,0:0:0:0:
448,192,108504,1,0,0:0:0:0:
320,192,108710,1,2,0:0:0:0:
448,192,108710,1,0,0:0:0:0:
64,192,108917,1,2,0:0:0:0:
192,192,108917,128,4,109952:0:0:0:0:
320,192,108917,1,0,0:0:0:0:
448,192,108917,1,0,0:0:0:0:
64,192,109331,1,0,0:0:0:0:
64,192,109745,1,0,0:0:0:0:
320,192,109952,1,2,0:0:0:0:
448,192,109952,1,0,0:0:0:0:
64,192,110159,1,8,0:0:0:0:
192,192,110159,128,0,110573:0:0:0:0:
448,192,110159,1,0,0:0:0:0:
64,192,110366,128,0,110779:0:0:0:0:
320,192,110573,128,0,110986:0:0:0:0:
448,192,110573,1,0,0:0:0:0:
192,192,110779,128,0,111193:0:0:0:0:
64,192,110986,1,0,0:0:0:0:
448,192,110986,128,0,111297:0:0:0:0:
64,192,111193,128,0,111607:0:0:0:0:
192,192,111400,1,4,0:0:0:0:
320,192,111400,128,2,112435:0:0:0:0:
448,192,111400,1,0,0:0:0:0:
448,192,111814,1,0,0:0:0:0:
448,192,112228,1,0,0:0:0:0:
64,192,112435,1,2,0:0:0:0:
192,192,112435,1,0,0:0:0:0:
192,192,112642,1,8,0:0:0:0:
320,192,112642,128,0,113055:0:0:0:0:
448,192,112642,1,0,0:0:0:0:
64,192,112848,128,0,113262:0:0:0:0:
192,192,113055,1,0,0:0:0:0:
448,192,113055,128,0,113469:0:0:0:0:
192,192,113262,128,0,113676:0:0:0:0:
64,192,113469,128,0,113779:0:0:0:0:
320,192,113469,1,0,0:0:0:0:
320,192,113676,128,0,114090:0:0:0:0:
64,192,113883,1,2,0:0:0:0:
192,192,113883,1,4,0:0:0:0:
448,192,113883,128,0,114504:0:0:0:0:
192,192,114297,1,0,0:0:0:0:
64,192,114504,128,0,114710:0:0:0:0:
448,192,114710,128,0,114917:0:0:0:0:
64,192,114917,128,2,115124:0:0:0:0:
320,192,114917,1,0,0:0:0:0:
192,192,115124,128,8,115538:0:0:0:0:
320,192,115124,1,0,0:0:0:0:
448,192,115124,128,0,115331:0:0:0:0:
64,192,115331,128,0,115538:0:0:0:0:
320,192,115538,128,0,115952:0:0:0:0:
448,192,115538,128,0,115745:0:0:0:0:
64,192,115745,128,2,115952:0:0:0:0:
192,192,115745,1,0,0:0:0:0:
192,192,115952,128,0,116262:0:0:0:0:
448,192,115952,128,0,116159:0:0:0:0:
64,192,116159,1,8,0:0:0:0:
320,192,116159,128,0,116366:0:0:0:0:
64,192,116366,128,4,117400:0:0:0:0:
192,192,116366,1,2,0:0:0:0:
448,192,116366,1,0,0:0:0:0:
320,192,116779,1,0,0:0:0:0:
320,192,117193,1,0,0:0:0:0:
192,192,117400,1,2,0:0:0:0:
448,192,117400,1,0,0:0:0:0:
64,192,117607,128,8,118021:0:0:0:0:
320,192,117607,1,0,0:0:0:0:
448,192,117607,1,0,0:0:0:0:
320,192,117814,128,0,118124:0:0:0:0:
448,192,118021,128,0,118435:0:0:0:0:
64,192,118228,1,8,0:0:0:0:
192,192,118228,128,0,118538:0:0:0:0:
320,192,118435,128,0,118745:0:0:0:0:
64,192,118642,128,8,118848:0:0:0:0:
192,192,118642,1,0,0:0:0:0:
192,192,118848,128,4,119883:0:0:0:0:
320,192,118848,1,2,0:0:0:0:
448,192,118848,1,0,0:0:0:0:
64,192,119262,1,0,0:0:0:0:
64,192,119676,1,0,0:0:0:0:
320,192,119883,1,2,0:0:0:0:
448,192,119883,1,0,0:0:0:0:
64,192,120090,1,8,0:0:0:0:
192,192,120090,128,0,120504:0:0:0:0:
448,192,120090,1,0,0:0:0:0:
64,192,120297,128,0,120710:0:0:0:0:
320,192,120504,128,0,120917:0:0:0:0:
448,192,120504,1,0,0:0:0:0:
192,192,120710,128,0,121124:0:0:0:0:
64,192,120917,1,0,0:0:0:0:
448,192,120917,128,0,121228:0:0:0:0:
64,192,121124,128,0,121538:0:0:0:0:
192,192,121331,1,2,0:0:0:0:
320,192,121331,128,4,122366:0:0:0:0:
448,192,121331,1,0,0:0:0:0:
448,192,121745,1,0,0:0:0:0:
448,192,122159,1,0,0:0:0:0:
64,192,122366,1,2,0:0:0:0:
192,192,122366,1,0,0:0:0:0:
192,192,122573,1,8,0:0:0:0:
320,192,122573,128,0,122986:0:0:0:0:
448,192,122573,1,0,0:0:0:0:
64,192,122779,128,0,123193:0:0:0:0:
192,192,122986,1,0,0:0:0:0:
448,192,122986,128,0,123400:0:0:0:0:
192,192,123193,128,0,123607:0:0:0:0:
64,192,123400,128,0,123710:0:0:0:0:
320,192,123400,1,0,0:0:0:0:
320,192,123607,128,0,124021:0:0:0:0:
64,192,123814,1,4,0:0:0:0:
192,192,123814,1,2,0:0:0:0:
448,192,123814,128,0,124435:0:0:0:0:
320,192,124228,1,0,0:0:0:0:
64,192,124435,128,0,124642:0:0:0:0:
448,192,124642,128,0,124848:0:0:0:0:
64,192,124848,128,2,125055:0:0:0:0:
192,192,124848,1,0,0:0:0:0:
192,192,125055,1,8,0:0:0:0:
320,192,125055,128,0,125469:0:0:0:0:
448,192,125055,128,0,125262:0:0:0:0:
64,192,125262,128,0,125469:0:0:0:0:
192,192,125469,128,0,125883:0:0:0:0:
448,192,125469,128,0,125676:0:0:0:0:
64,192,125676,128,0,125883:0:0:0:0:
320,192,125676,1,0,0:0:0:0:
320,192,125883,128,0,126193:0:0:0:0:
448,192,125883,128,0,126090:0:0:0:0:
64,192,126090,1,0,0:0:0:0:
192,192,126090,128,0,126297:0:0:0:0:
64,192,126297,128,2,127331:0:0:0:0:
320,192,126297,1,4,0:0:0:0:
448,192,126297,1,0,0:0:0:0:
192,192,126710,1,0,0:0:0:0:
192,192,127124,1,0,0:0:0:0:
320,192,127331,1,2,0:0:0:0:
448,192,127331,1,0,0:0:0:0:
64,192,127538,1,8,0:0:0:0:
192,192,127538,1,0,0:0:0:0:
320,192,127538,128,0,127952:0:0:0:0:
192,192,127745,128,0,128055:0:0:0:0:
64,192,127952,1,2,0:0:0:0:
448,192,127952,128,0,128366:0:0:0:0:
192,192,128159,1,8,0:0:0:0:
320,192,128159,128,0,128469:0:0:0:0:
64,192,128366,128,0,128676:0:0:0:0:
192,192,128573,128,8,128779:0:0:0:0:
320,192,128573,1,0,0:0:0:0:
64,192,128779,1,2,0:0:0:0:
320,192,128779,1,4,0:0:0:0:
448,192,128779,1,0,0:0:0:0:
64,192,129193,1,8,0:0:0:0:
192,192,129193,1,0,0:0:0:0:
320,192,129297,1,8,0:0:0:0:
448,192,129297,1,0,0:0:0:0:
64,192,129400,1,8,0:0:0:0:
192,192,129504,1,8,0:0:0:0:
320,192,129504,1,0,0:0:0:0:
64,192,129607,1,8,0:0:0:0:
448,192,129607,1,0,0:0:0:0:
64,192,130021,1,2,0:0:0:0:
192,192,130021,1,4,0:0:0:0:
320,192,130021,1,0,0:0:0:0:
448,192,130021,1,0,0:0:0:0:
192,192,130435,1,8,0:0:0:0:
448,192,130435,1,0,0:0:0:0:
64,192,130538,1,8,0:0:0:0:
320,192,130538,1,0,0:0:0:0:
448,192,130642,1,8,0:0:0:0:
64,192,130745,1,8,0:0:0:0:
192,192,130745,1,0,0:0:0:0:
320,192,130848,1,8,0:0:0:0:
448,192,130848,1,0,0:0:0:0:
64,192,131262,1,4,0:0:0:0:
192,192,131262,128,2,131676:0:0:0:0:
320,192,131262,128,0,131469:0:0:0:0:
448,192,131262,1,0,0:0:0:0:
448,192,131469,128,0,131676:0:0:0:0:
64,192,131676,128,0,131883:0:0:0:0:
320,192,131676,128,0,132090:0:0:0:0:
192,192,131883,128,8,132090:0:0:0:0:
448,192,131883,1,0,0:0:0:0:
64,192,132090,128,0,132297:0:0:0:0:
448,192,132090,128,0,132504:0:0:0:0:
192,192,132297,1,2,0:0:0:0:
320,192,132297,128,0,132504:0:0:0:0:
64,192,132504,128,2,132710:0:0:0:0:
192,192,132504,128,0,132917:0:0:0:0:
448,192,132710,128,0,132917:0:0:0:0:
64,192,132917,128,2,133124:0:0:0:0:
320,192,132917,128,0,133331:0:0:0:0:
192,192,133124,1,8,0:0:0:0:
448,192,133124,128,0,133331:0:0:0:0:
64,192,133331,128,2,133538:0:0:0:0:
192,192,133331,128,0,133745:0:0:0:0:
320,192,133538,1,8,0:0:0:0:
448,192,133538,1,0,0:0:0:0:
64,192,133745,1,4,0:0:0:0:
320,192,133745,1,2,0:0:0:0:
448,192,133745,1,0,0:0:0:0:
64,192,134159,1,8,0:0:0:0:
320,192,134159,1,0,0:0:0:0:
192,192,134262,1,8,0:0:0:0:
448,192,134262,1,0,0:0:0:0:
64,192,134366,1,8,0:0:0:0:
192,192,134469,1,8,0:0:0:0:
320,192,134469,1,0,0:0:0:0:
64,192,134573,1,8,0:0:0:0:
448,192,134573,1,0,0:0:0:0:
64,192,134986,1,4,0:0:0:0:
192,192,134986,1,2,0:0:0:0:
320,192,134986,1,0,0:0:0:0:
448,192,134986,1,0,0:0:0:0:
192,192,135400,1,8,0:0:0:0:
448,192,135400,1,0,0:0:0:0:
64,192,135504,1,8,0:0:0:0:
320,192,135504,1,0,0:0:0:0:
448,192,135607,1,8,0:0:0:0:
64,192,135710,1,8,0:0:0:0:
320,192,135710,1,0,0:0:0:0:
192,192,135814,1,8,0:0:0:0:
448,192,135814,1,0,0:0:0:0:
192,192,136228,1,4,0:0:0:0:
320,192,136228,128,0,136642:0:0:0:0:
448,192,136228,1,0,0:0:0:0:
64,192,136228,128,2,136435:0:0:0:0:
192,192,136435,128,0,136642:0:0:0:0:
64,192,136642,128,0,137055:0:0:0:0:
448,192,136642,128,0,136848:0:0:0:0:
192,192,136848,1,8,0:0:0:0:
320,192,136848,128,0,137055:0:0:0:0:
192,192,137055,128,0,137469:0:0:0:0:
448,192,137055,128,0,137262:0:0:0:0:
64,192,137262,128,2,137469:0:0:0:0:
320,192,137262,1,0,0:0:0:0:
320,192,137469,128,2,137883:0:0:0:0:
448,192,137469,128,0,137676:0:0:0:0:
192,192,137676,128,0,137883:0:0:0:0:
64,192,137883,128,2,138297:0:0:0:0:
448,192,137883,128,0,138090:0:0:0:0:
192,192,138090,128,8,138297:0:0:0:0:
320,192,138090,1,0,0:0:0:0:
320,192,138297,128,2,138504:0:0:0:0:
448,192,138297,128,0,138504:0:0:0:0:
64,192,138504,1,8,0:0:0:0:
192,192,138504,128,0,138710:0:0:0:0:
64,192,138710,128,4,139124:0:0:0:0:
320,192,138710,1,2,0:0:0:0:
448,192,138710,128,0,138917:0:0:0:0:
192,192,139124,128,0,139331:0:0:0:0:
320,192,139124,128,0,139538:0:0:0:0:
64,192,139331,128,8,139538:0:0:0:0:
448,192,139331,1,0,0:0:0:0:
192,192,139538,128,0,139745:0:0:0:0:
448,192,139538,128,0,139952:0:0:0:0:
64,192,139745,1,2,0:0:0:0:
320,192,139745,128,0,139952:0:0:0:0:
64,192,139952,128,2,140159:0:0:0:0:
192,192,139952,128,0,140366:0:0:0:0:
448,192,140159,128,0,140366:0:0:0:0:
64,192,140366,128,2,140573:0:0:0:0:
320,192,140366,128,0,140779:0:0:0:0:
192,192,140573,1,8,0:0:0:0:
448,192,140573,128,0,140779:0:0:0:0:
64,192,140779,128,2,140986:0:0:0:0:
192,192,140779,128,0,140986:0:0:0:0:
320,192,140986,128,8,141193:0:0:0:0:
448,192,140986,1,0,0:0:0:0:
64,192,141193,1,2,0:0:0:0:
192,192,141193,128,4,141400:0:0:0:0:
448,192,141193,128,0,141607:0:0:0:0:
64,192,141400,128,0,141607:0:0:0:0:
192,192,141607,128,0,142021:0:0:0:0:
320,192,141607,128,0,141814:0:0:0:0:
64,192,141814,1,8,0:0:0:0:
448,192,141814,128,0,142021:0:0:0:0:
64,192,142021,128,0,142435:0:0:0:0:
320,192,142021,128,0,142228:0:0:0:0:
192,192,142228,128,2,142435:0:0:0:0:
448,192,142228,1,0,0:0:0:0:
320,192,142435,128,2,142848:0:0:0:0:
448,192,142435,128,0,142642:0:0:0:0:
192,192,142642,128,0,142848:0:0:0:0:
64,192,142848,128,2,143262:0:0:0:0:
448,192,142848,128,0,143055:0:0:0:0:
192,192,143055,128,8,143262:0:0:0:0:
320,192,143055,1,0,0:0:0:0:
320,192,143262,128,2,143469:0:0:0:0:
448,192,143262,128,0,143469:0:0:0:0:
64,192,143469,128,8,143676:0:0:0:0:
192,192,143469,1,0,0:0:0:0:
192,192,143676,128,4,144297:0:0:0:0:
320,192,143676,128,2,143883:0:0:0:0:
448,192,143676,1,0,0:0:0:0:
64,192,143883,1,2,0:0:0:0:
448,192,143883,128,0,144090:0:0:0:0:
64,192,144090,128,2,144297:0:0:0:0:
320,192,144090,1,0,0:0:0:0:
320,192,144297,128,2,144504:0:0:0:0:
448,192,144297,128,0,144710:0:0:0:0:
64,192,144504,128,2,144710:0:0:0:0:
192,192,144504,1,0,0:0:0:0:
192,192,144710,128,2,144917:0:0:0:0:
320,192,144710,128,0,144917:0:0:0:0:
64,192,144917,128,2,145331:0:0:0:0:
448,192,144917,128,0,145124:0:0:0:0:
192,192,145124,128,2,145331:0:0:0:0:
320,192,145124,1,0,0:0:0:0:
320,192,145331,128,2,145745:0:0:0:0:
448,192,145331,128,0,145538:0:0:0:0:
64,192,145538,1,2,0:0:0:0:
192,192,145538,128,0,145745:0:0:0:0:
64,192,145745,128,2,145952:0:0:0:0:
448,192,145745,128,0,146159:0:0:0:0:
320,192,145952,1,8,0:0:0:0:
192,192,146055,1,8,0:0:0:0:
64,192,146159,1,2,0:0:0:0:
320,192,146159,128,4,148643:0:0:0:0:
64,192,148643,1,2,0:0:0:0:
192,192,148643,1,8,0:0:0:0:
320,192,148694,1,0,0:0:0:0:
64,192,148746,1,0,0:0:0:30:LR_Drum Click.wav
320,192,148849,1,0,0:0:0:30:LR_Drum Click.wav
64,192,148953,1,8,0:0:0:0:
192,192,149005,1,0,0:0:0:0:
448,192,149056,1,0,0:0:0:30:LR_Drum Click.wav
192,192,149160,1,0,0:0:0:30:LR_Drum Click.wav
320,192,149263,1,8,0:0:0:0:
448,192,149315,1,0,0:0:0:0:
64,192,149367,1,0,0:0:0:30:LR_Drum Click.wav
192,192,149470,1,8,0:0:0:0:
64,192,149522,1,0,0:0:0:0:
448,192,149574,1,0,0:0:0:30:LR_Drum Click.wav
448,192,149677,1,8,0:0:0:0:
320,192,149729,1,0,0:0:0:0:
64,192,149780,1,0,0:0:0:30:LR_Drum Click.wav
448,192,149884,1,0,0:0:0:30:LR_Drum Click.wav
320,192,149987,1,8,0:0:0:0:
192,192,150039,1,0,0:0:0:0:
448,192,150091,1,0,0:0:0:30:LR_Drum Click.wav
192,192,150194,1,0,0:0:0:30:LR_Drum Click.wav
320,192,150298,1,8,0:0:0:0:
448,192,150349,1,0,0:0:0:0:
64,192,150401,1,0,0:0:0:30:LR_Drum Click.wav
192,192,150505,1,8,0:0:0:0:
320,192,150556,1,0,0:0:0:0:
64,192,150608,1,0,0:0:0:30:LR_Drum Click.wav
192,192,150711,1,8,0:0:0:0:
64,192,150763,1,0,0:0:0:0:
448,192,150815,1,0,0:0:0:30:LR_Drum Click.wav
64,192,150918,1,8,0:0:0:0:
192,192,150918,1,2,0:0:0:0:
320,192,150970,1,0,0:0:0:0:
64,192,151022,1,0,0:0:0:30:LR_Drum Click.wav
320,192,151125,1,0,0:0:0:30:LR_Drum Click.wav
64,192,151229,1,8,0:0:0:0:
192,192,151280,1,0,0:0:0:0:
448,192,151332,1,0,0:0:0:30:LR_Drum Click.wav
192,192,151436,1,0,0:0:0:30:LR_Drum Click.wav
320,192,151539,1,8,0:0:0:0:
448,192,151591,1,0,0:0:0:0:
64,192,151643,1,0,0:0:0:30:LR_Drum Click.wav
192,192,151746,1,8,0:0:0:0:
64,192,151798,1,0,0:0:0:0:
448,192,151849,1,0,0:0:0:30:LR_Drum Click.wav
448,192,151953,1,8,0:0:0:0:
320,192,152005,1,0,0:0:0:0:
64,192,152056,1,0,0:0:0:30:LR_Drum Click.wav
448,192,152160,1,0,0:0:0:30:LR_Drum Click.wav
320,192,152263,1,8,0:0:0:0:
192,192,152315,1,0,0:0:0:0:
448,192,152367,1,0,0:0:0:30:LR_Drum Click.wav
192,192,152470,1,0,0:0:0:30:LR_Drum Click.wav
320,192,152574,1,8,0:0:0:0:
448,192,152625,1,0,0:0:0:0:
64,192,152677,1,0,0:0:0:30:LR_Drum Click.wav
320,192,152780,1,8,0:0:0:0:
192,192,152832,1,0,0:0:0:0:
448,192,152884,1,0,0:0:0:30:LR_Drum Click.wav
192,192,152987,1,8,0:0:0:0:
64,192,153039,1,0,0:0:0:0:
448,192,153091,1,0,0:0:0:30:LR_Drum Click.wav
64,192,153194,1,2,0:0:0:0:
192,192,153194,1,8,0:0:0:0:
320,192,153246,1,0,0:0:0:0:
64,192,153298,1,0,0:0:0:30:LR_Drum Click.wav
320,192,153401,1,0,0:0:0:30:LR_Drum Click.wav
64,192,153505,1,8,0:0:0:0:
192,192,153556,1,0,0:0:0:0:
448,192,153608,1,0,0:0:0:30:LR_Drum Click.wav
192,192,153711,1,0,0:0:0:30:LR_Drum Click.wav
320,192,153815,1,8,0:0:0:0:
448,192,153867,1,0,0:0:0:0:
64,192,153918,1,0,0:0:0:30:LR_Drum Click.wav
192,192,154022,1,8,0:0:0:0:
64,192,154074,1,0,0:0:0:0:
448,192,154125,1,0,0:0:0:30:LR_Drum Click.wav
448,192,154229,1,8,0:0:0:0:
320,192,154280,1,0,0:0:0:0:
64,192,154332,1,0,0:0:0:30:LR_Drum Click.wav
448,192,154436,1,0,0:0:0:30:LR_Drum Click.wav
320,192,154539,1,8,0:0:0:0:
192,192,154591,1,0,0:0:0:0:
448,192,154643,1,0,0:0:0:30:LR_Drum Click.wav
192,192,154746,1,0,0:0:0:30:LR_Drum Click.wav
448,192,154849,1,8,0:0:0:0:
320,192,154901,1,0,0:0:0:0:
64,192,154953,1,0,0:0:0:30:LR_Drum Click.wav
192,192,155056,1,8,0:0:0:0:
320,192,155108,1,0,0:0:0:0:
448,192,155160,1,0,0:0:0:30:LR_Drum Click.wav
64,192,155263,1,8,0:0:0:0:
192,192,155315,1,0,0:0:0:0:
448,192,155367,1,0,0:0:0:30:LR_Drum Click.wav
64,192,155470,1,8,0:0:0:0:
192,192,155470,1,2,0:0:0:0:
320,192,155522,1,0,0:0:0:0:
64,192,155574,1,0,0:0:0:30:LR_Drum Click.wav
320,192,155677,1,0,0:0:0:30:LR_Drum Click.wav
64,192,155780,1,8,0:0:0:0:
192,192,155832,1,0,0:0:0:0:
448,192,155884,1,0,0:0:0:30:LR_Drum Click.wav
192,192,155987,1,0,0:0:0:30:LR_Drum Click.wav
320,192,156091,1,8,0:0:0:0:
448,192,156143,1,0,0:0:0:0:
64,192,156194,1,0,0:0:0:30:LR_Drum Click.wav
192,192,156298,1,8,0:0:0:0:
64,192,156349,1,0,0:0:0:0:
448,192,156401,1,0,0:0:0:30:LR_Drum Click.wav
448,192,156505,1,8,0:0:0:0:
320,192,156556,1,0,0:0:0:0:
64,192,156608,1,0,0:0:0:30:LR_Drum Click.wav
448,192,156711,1,0,0:0:0:30:LR_Drum Click.wav
320,192,156815,1,8,0:0:0:0:
192,192,156867,1,0,0:0:0:0:
448,192,156918,1,0,0:0:0:30:LR_Drum Click.wav
192,192,157022,1,0,0:0:0:30:LR_Drum Click.wav
448,192,157125,1,8,0:0:0:0:
320,192,157177,1,0,0:0:0:0:
64,192,157229,1,0,0:0:0:30:LR_Drum Click.wav
320,192,157332,1,8,0:0:0:0:
192,192,157384,1,0,0:0:0:0:
448,192,157436,1,0,0:0:0:30:LR_Drum Click.wav
64,192,157539,1,8,0:0:0:0:
192,192,157591,1,0,0:0:0:0:
448,192,157643,1,0,0:0:0:30:LR_Drum Click.wav
192,192,157746,1,2,0:0:0:0:
320,192,157746,1,0,0:0:0:0:
192,192,158056,1,2,0:0:0:0:
320,192,158056,1,0,0:0:0:0:
192,192,158366,1,2,0:0:0:0:
320,192,158366,1,0,0:0:0:0:
192,192,158573,1,2,0:0:0:0:
320,192,158573,1,0,0:0:0:0:
64,192,158780,1,8,0:0:0:0:
320,192,158780,1,0,0:0:0:0:
448,192,158780,1,0,0:0:0:0:
64,192,158987,1,2,0:0:0:0:
448,192,158987,1,4,0:0:0:0:
192,192,159039,1,0,0:0:0:0:
320,192,159090,1,0,0:0:0:0:
448,192,159142,1,0,0:0:0:0:
192,192,159194,1,8,0:0:0:0:
320,192,159246,1,0,0:0:0:0:
448,192,159297,1,2,0:0:0:0:
64,192,159349,1,0,0:0:0:0:
320,192,159401,1,0,0:0:0:0:
192,192,159452,1,0,0:0:0:0:
64,192,159504,1,2,0:0:0:0:
448,192,159556,1,0,0:0:0:0:
192,192,159608,1,8,0:0:0:0:
320,192,159659,1,0,0:0:0:0:
64,192,159711,1,0,0:0:0:0:
192,192,159763,1,0,0:0:0:0:
448,192,159814,1,2,0:0:0:0:
64,192,159866,1,0,0:0:0:0:
320,192,159918,1,2,0:0:0:0:
448,192,159970,1,0,0:0:0:0:
64,192,160021,1,8,0:0:0:0:
192,192,160073,1,0,0:0:0:0:
320,192,160125,1,0,0:0:0:0:
448,192,160177,1,0,0:0:0:0:
64,192,160228,1,6,0:0:0:0:
320,192,160280,1,0,0:0:0:0:
448,192,160332,1,0,0:0:0:0:
192,192,160383,1,0,0:0:0:0:
64,192,160435,1,8,0:0:0:0:
448,192,160487,1,0,0:0:0:0:
320,192,160539,1,2,0:0:0:0:
64,192,160590,1,0,0:0:0:0:
448,192,160642,1,0,0:0:0:0:
192,192,160694,1,0,0:0:0:0:
64,192,160746,1,2,0:0:0:0:
320,192,160797,1,0,0:0:0:0:
192,192,160849,1,8,0:0:0:0:
448,192,160901,1,0,0:0:0:0:
64,192,160952,1,0,0:0:0:0:
192,192,161004,1,0,0:0:0:0:
448,192,161056,1,2,0:0:0:0:
64,192,161108,1,0,0:0:0:0:
320,192,161159,1,2,0:0:0:0:
448,192,161211,1,0,0:0:0:0:
192,192,161263,1,8,0:0:0:0:
320,192,161314,1,0,0:0:0:0:
64,192,161366,1,0,0:0:0:0:
448,192,161418,1,0,0:0:0:0:
320,192,161470,1,6,0:0:0:0:
192,192,161521,1,0,0:0:0:0:
64,192,161573,1,0,0:0:0:0:
320,192,161625,1,0,0:0:0:0:
448,192,161677,1,8,0:0:0:0:
64,192,161728,1,0,0:0:0:0:
320,192,161780,1,2,0:0:0:0:
192,192,161832,1,0,0:0:0:0:
64,192,161883,1,0,0:0:0:0:
320,192,161935,1,0,0:0:0:0:
192,192,161987,1,2,0:0:0:0:
448,192,162039,1,0,0:0:0:0:
64,192,162090,1,8,0:0:0:0:
320,192,162142,1,0,0:0:0:0:
448,192,162194,1,0,0:0:0:0:
192,192,162246,1,0,0:0:0:0:
320,192,162297,1,2,0:0:0:0:
448,192,162349,1,0,0:0:0:0:
64,192,162401,1,2,0:0:0:0:
320,192,162452,1,0,0:0:0:0:
192,192,162504,1,8,0:0:0:0:
64,192,162556,1,0,0:0:0:0:
448,192,162608,1,0,0:0:0:0:
320,192,162659,1,0,0:0:0:0:
192,192,162711,1,6,0:0:0:0:
448,192,162763,1,0,0:0:0:0:
64,192,162814,1,0,0:0:0:0:
320,192,162866,1,0,0:0:0:0:
448,192,162918,1,8,0:0:0:0:
64,192,162970,1,0,0:0:0:0:
192,192,163021,1,2,0:0:0:0:
320,192,163073,1,0,0:0:0:0:
64,192,163125,1,0,0:0:0:0:
448,192,163177,1,0,0:0:0:0:
192,192,163228,1,2,0:0:0:0:
320,192,163280,1,0,0:0:0:0:
448,192,163332,1,8,0:0:0:0:
192,192,163383,1,0,0:0:0:0:
64,192,163435,1,0,0:0:0:0:
320,192,163487,1,0,0:0:0:0:
192,192,163539,1,2,0:0:0:0:
64,192,163590,1,0,0:0:0:0:
448,192,163642,1,2,0:0:0:0:
320,192,163694,1,0,0:0:0:0:
192,192,163746,1,8,0:0:0:0:
448,192,163797,1,0,0:0:0:0:
64,192,163849,1,0,0:0:0:0:
192,192,163901,1,0,0:0:0:0:
320,192,163952,1,6,0:0:0:0:
64,192,164004,1,0,0:0:0:0:
448,192,164056,1,0,0:0:0:0:
320,192,164108,1,0,0:0:0:0:
64,192,164159,1,8,0:0:0:0:
192,192,164211,1,0,0:0:0:0:
448,192,164263,1,2,0:0:0:0:
320,192,164314,1,0,0:0:0:0:
192,192,164366,1,0,0:0:0:0:
448,192,164418,1,0,0:0:0:0:
320,192,164470,1,2,0:0:0:0:
64,192,164521,1,0,0:0:0:0:
192,192,164573,1,8,0:0:0:0:
448,192,164625,1,0,0:0:0:0:
320,192,164677,1,0,0:0:0:0:
192,192,164728,1,0,0:0:0:0:
64,192,164780,1,2,0:0:0:0:
448,192,164832,1,0,0:0:0:0:
192,192,164883,1,2,0:0:0:0:
64,192,164935,1,0,0:0:0:0:
320,192,164987,1,8,0:0:0:0:
448,192,165039,1,0,0:0:0:0:
192,192,165090,1,0,0:0:0:0:
64,192,165142,1,0,0:0:0:0:
448,192,165194,1,6,0:0:0:0:
192,192,165246,1,0,0:0:0:0:
64,192,165297,1,0,0:0:0:0:
320,192,165349,1,0,0:0:0:0:
448,192,165401,1,8,0:0:0:0:
192,192,165452,1,0,0:0:0:0:
320,192,165504,1,2,0:0:0:0:
64,192,165556,1,0,0:0:0:0:
192,192,165608,1,0,0:0:0:0:
320,192,165659,1,0,0:0:0:0:
448,192,165711,1,2,0:0:0:0:
64,192,165763,1,0,0:0:0:0:
320,192,165814,1,8,0:0:0:0:
192,192,165866,1,0,0:0:0:0:
64,192,165918,1,0,0:0:0:0:
448,192,165970,1,0,0:0:0:0:
320,192,166021,1,2,0:0:0:0:
192,192,166073,1,0,0:0:0:0:
448,192,166125,1,2,0:0:0:0:
64,192,166177,1,0,0:0:0:0:
320,192,166228,1,8,0:0:0:0:
192,192,166280,1,0,0:0:0:0:
448,192,166332,1,0,0:0:0:0:
320,192,166383,1,0,0:0:0:0:
192,192,166435,1,6,0:0:0:0:
448,192,166487,1,0,0:0:0:0:
64,192,166539,1,0,0:0:0:0:
192,192,166590,1,0,0:0:0:0:
320,192,166642,1,8,0:0:0:0:
448,192,166694,1,0,0:0:0:0:
192,192,166746,1,2,0:0:0:0:
320,192,166797,1,0,0:0:0:0:
64,192,166849,1,0,0:0:0:0:
192,192,166901,1,0,0:0:0:0:
448,192,166952,1,2,0:0:0:0:
320,192,167004,1,0,0:0:0:0:
192,192,167056,1,8,0:0:0:0:
64,192,167108,1,0,0:0:0:0:
320,192,167159,1,0,0:0:0:0:
192,192,167211,1,0,0:0:0:0:
448,192,167263,1,2,0:0:0:0:
320,192,167314,1,0,0:0:0:0:
64,192,167366,1,2,0:0:0:0:
448,192,167418,1,0,0:0:0:0:
192,192,167470,1,8,0:0:0:0:
320,192,167521,1,0,0:0:0:0:
64,192,167573,1,0,0:0:0:0:
192,192,167625,1,0,0:0:0:0:
448,192,167677,1,6,0:0:0:0:
320,192,167728,1,0,0:0:0:0:
192,192,167780,1,0,0:0:0:0:
448,192,167832,1,0,0:0:0:0:
64,192,167883,1,8,0:0:0:0:
192,192,167935,1,0,0:0:0:0:
448,192,167987,1,2,0:0:0:0:
320,192,168039,1,0,0:0:0:0:
64,192,168090,1,0,0:0:0:0:
192,192,168142,1,0,0:0:0:0:
320,192,168194,1,2,0:0:0:0:
64,192,168246,1,0,0:0:0:0:
448,192,168297,1,8,0:0:0:0:
192,192,168349,1,0,0:0:0:0:
64,192,168401,1,0,0:0:0:0:
320,192,168452,1,0,0:0:0:0:
448,192,168504,1,10,0:0:0:0:
64,192,168556,1,0,0:0:0:0:
320,192,168608,1,10,0:0:0:0:
192,192,168659,1,0,0:0:0:0:
448,192,168711,1,8,0:0:0:0:
64,192,168763,1,0,0:0:0:0:
320,192,168814,1,8,0:0:0:0:
192,192,168866,1,0,0:0:0:0:
64,192,168919,1,2,0:0:0:0:
448,192,168919,1,4,0:0:0:0:
64,192,169229,1,2,0:0:0:0:
192,192,169229,1,0,0:0:0:0:
448,192,169332,1,4,0:0:0:0:
64,192,169539,1,2,0:0:0:0:
192,192,169539,1,0,0:0:0:0:
320,192,169643,1,2,0:0:0:0:
64,192,169746,1,2,0:0:0:0:
448,192,169746,1,4,0:0:0:0:
320,192,169850,1,2,0:0:0:0:
64,192,169953,1,8,0:0:0:0:
192,192,169953,1,0,0:0:0:0:
448,192,169953,1,0,0:0:0:0:
320,192,170056,1,2,0:0:0:0:
64,192,170160,1,4,0:0:0:0:
192,192,170160,1,2,0:0:0:0:
64,192,170470,1,2,0:0:0:0:
192,192,170470,1,0,0:0:0:0:
448,192,170574,1,4,0:0:0:0:
64,192,170781,1,2,0:0:0:0:
192,192,170781,1,0,0:0:0:0:
320,192,170884,1,2,0:0:0:0:
64,192,170987,1,2,0:0:0:0:
192,192,170987,1,4,0:0:0:0:
448,192,170987,1,8,0:0:0:0:
320,192,171091,1,2,0:0:0:0:
64,192,171194,1,2,0:0:0:0:
192,192,171194,1,0,0:0:0:0:
320,192,171298,1,2,0:0:0:0:
64,192,171401,1,8,0:0:0:0:
448,192,171401,1,0,0:0:0:0:
192,192,171711,1,0,0:0:0:0:
64,192,172021,1,8,0:0:0:0:
448,192,172021,1,0,0:0:0:0:
64,192,172229,1,4,0:0:0:0:
320,192,172229,1,2,0:0:0:0:
448,192,172229,1,0,0:0:0:0:
320,192,172539,1,2,0:0:0:0:
448,192,172539,1,0,0:0:0:0:
64,192,172642,1,4,0:0:0:0:
320,192,172849,1,2,0:0:0:0:
448,192,172849,1,0,0:0:0:0:
192,192,172953,1,2,0:0:0:0:
64,192,173056,1,4,0:0:0:0:
448,192,173056,1,2,0:0:0:0:
192,192,173160,1,2,0:0:0:0:
64,192,173263,1,8,0:0:0:0:
320,192,173263,1,0,0:0:0:0:
448,192,173263,1,0,0:0:0:0:
192,192,173366,1,2,0:0:0:0:
320,192,173470,1,4,0:0:0:0:
448,192,173470,1,2,0:0:0:0:
320,192,173780,1,2,0:0:0:0:
448,192,173780,1,0,0:0:0:0:
64,192,173884,1,4,0:0:0:0:
320,192,174091,1,2,0:0:0:0:
448,192,174091,1,0,0:0:0:0:
192,192,174194,1,2,0:0:0:0:
64,192,174297,1,2,0:0:0:0:
320,192,174297,1,4,0:0:0:0:
448,192,174297,1,8,0:0:0:0:
192,192,174401,1,2,0:0:0:0:
320,192,174504,1,2,0:0:0:0:
448,192,174504,1,0,0:0:0:0:
192,192,174608,1,2,0:0:0:0:
64,192,174711,1,8,0:0:0:0:
448,192,174711,1,0,0:0:0:0:
192,192,174815,1,0,0:0:0:30:LR_Drum Click.wav
192,192,174918,1,0,0:0:0:30:LR_Drum Click.wav
320,192,175022,1,8,0:0:0:0:
448,192,175022,1,0,0:0:0:0:
64,192,175125,1,0,0:0:0:30:LR_Drum Click.wav
64,192,175228,1,0,0:0:0:30:LR_Drum Click.wav
192,192,175332,1,8,0:0:0:0:
320,192,175332,1,0,0:0:0:0:
448,192,175435,1,0,0:0:0:30:LR_Drum Click.wav
192,192,175539,1,8,0:0:0:0:
320,192,175539,1,0,0:0:0:0:
64,192,175642,1,0,0:0:0:30:LR_Drum Click.wav
320,192,175746,1,8,0:0:0:0:
448,192,175746,1,0,0:0:0:0:
192,192,175849,1,0,0:0:0:30:LR_Drum Click.wav
64,192,175953,1,8,0:0:0:0:
448,192,175953,1,0,0:0:0:0:
320,192,176056,1,0,0:0:0:30:LR_Drum Click.wav
320,192,176160,1,0,0:0:0:30:LR_Drum Click.wav
64,192,176263,1,8,0:0:0:0:
192,192,176263,1,0,0:0:0:0:
448,192,176366,1,0,0:0:0:30:LR_Drum Click.wav
448,192,176470,1,0,0:0:0:30:LR_Drum Click.wav
192,192,176573,1,8,0:0:0:0:
320,192,176573,1,0,0:0:0:0:
64,192,176677,1,0,0:0:0:30:LR_Drum Click.wav
192,192,176780,1,8,0:0:0:0:
448,192,176780,1,0,0:0:0:0:
320,192,176884,1,0,0:0:0:30:LR_Drum Click.wav
64,192,176987,1,8,0:0:0:0:
192,192,176987,1,0,0:0:0:0:
320,192,177091,1,8,0:0:0:0:
448,192,177091,1,0,0:0:0:0:
64,192,177194,1,8,0:0:0:0:
448,192,177194,1,0,0:0:0:0:
192,192,177297,1,0,0:0:0:30:LR_Drum Click.wav
192,192,177401,1,0,0:0:0:30:LR_Drum Click.wav
320,192,177504,1,8,0:0:0:0:
448,192,177504,1,0,0:0:0:0:
64,192,177608,1,0,0:0:0:30:LR_Drum Click.wav
64,192,177711,1,0,0:0:0:30:LR_Drum Click.wav
192,192,177815,1,8,0:0:0:0:
320,192,177815,1,0,0:0:0:0:
448,192,177918,1,0,0:0:0:30:LR_Drum Click.wav
64,192,178022,1,8,0:0:0:0:
192,192,178022,1,0,0:0:0:0:
448,192,178125,1,0,0:0:0:30:LR_Drum Click.wav
64,192,178228,1,8,0:0:0:0:
320,192,178228,1,0,0:0:0:0:
192,192,178332,1,0,0:0:0:30:LR_Drum Click.wav
64,192,178435,1,8,0:0:0:0:
448,192,178435,1,0,0:0:0:0:
320,192,178539,1,0,0:0:0:30:LR_Drum Click.wav
320,192,178642,1,0,0:0:0:30:LR_Drum Click.wav
64,192,178746,1,8,0:0:0:0:
192,192,178746,1,0,0:0:0:0:
448,192,178849,1,0,0:0:0:30:LR_Drum Click.wav
448,192,178953,1,0,0:0:0:30:LR_Drum Click.wav
192,192,179056,1,8,0:0:0:0:
320,192,179056,1,0,0:0:0:0:
64,192,179160,1,0,0:0:0:30:LR_Drum Click.wav
320,192,179263,1,2,0:0:0:0:
448,192,179263,1,0,0:0:0:0:
64,192,179366,1,2,0:0:0:0:
192,192,179366,1,0,0:0:0:0:
320,192,179470,1,2,0:0:0:0:
448,192,179470,1,8,0:0:0:0:
64,192,179573,1,2,0:0:0:0:
192,192,179573,1,8,0:0:0:0:
64,192,179677,1,4,0:0:0:0:
320,192,179677,1,2,0:0:0:0:
448,192,179677,1,0,0:0:0:0:
64,192,179987,1,2,0:0:0:0:
320,192,179987,1,0,0:0:0:0:
448,192,180091,1,4,0:0:0:0:
64,192,180297,1,2,0:0:0:0:
320,192,180297,1,0,0:0:0:0:
192,192,180401,1,2,0:0:0:0:
64,192,180504,1,2,0:0:0:0:
448,192,180504,1,4,0:0:0:0:
192,192,180608,1,2,0:0:0:0:
64,192,180711,1,8,0:0:0:0:
320,192,180711,1,2,0:0:0:0:
448,192,180711,1,0,0:0:0:0:
192,192,180815,1,2,0:0:0:0:
64,192,180918,1,2,0:0:0:0:
320,192,180918,1,4,0:0:0:0:
64,192,181228,1,2,0:0:0:0:
320,192,181228,1,0,0:0:0:0:
448,192,181332,1,4,0:0:0:0:
64,192,181539,1,2,0:0:0:0:
320,192,181539,1,0,0:0:0:0:
192,192,181642,1,2,0:0:0:0:
64,192,181746,1,4,0:0:0:0:
320,192,181746,1,2,0:0:0:0:
448,192,181746,1,8,0:0:0:0:
192,192,181849,1,2,0:0:0:0:
64,192,181953,1,2,0:0:0:0:
320,192,181953,1,0,0:0:0:0:
192,192,182056,1,2,0:0:0:0:
64,192,182161,1,0,0:0:0:0:
448,192,182161,1,0,0:0:0:0:
448,192,182264,1,0,0:0:0:0:
192,192,182367,1,0,0:0:0:0:
320,192,182367,1,0,0:0:0:0:
64,192,182471,1,0,0:0:0:0:
64,192,182574,1,8,0:0:0:0:
448,192,182574,1,0,0:0:0:0:
64,192,182781,1,2,0:0:0:0:
192,192,182781,1,4,0:0:0:0:
448,192,182781,1,0,0:0:0:0:
192,192,183091,1,2,0:0:0:0:
448,192,183091,1,0,0:0:0:0:
64,192,183194,1,4,0:0:0:0:
192,192,183401,1,2,0:0:0:0:
448,192,183401,1,0,0:0:0:0:
320,192,183505,1,2,0:0:0:0:
64,192,183608,1,4,0:0:0:0:
448,192,183608,1,2,0:0:0:0:
320,192,183712,1,2,0:0:0:0:
64,192,183815,1,2,0:0:0:0:
192,192,183815,1,8,0:0:0:0:
448,192,183815,1,0,0:0:0:0:
320,192,183918,1,2,0:0:0:0:
192,192,184022,1,4,0:0:0:0:
448,192,184022,1,2,0:0:0:0:
192,192,184332,1,2,0:0:0:0:
448,192,184332,1,0,0:0:0:0:
64,192,184436,1,4,0:0:0:0:
192,192,184643,1,2,0:0:0:0:
448,192,184643,1,0,0:0:0:0:
320,192,184746,1,2,0:0:0:0:
64,192,184849,1,8,0:0:0:0:
192,192,184849,1,2,0:0:0:0:
448,192,184849,1,4,0:0:0:0:
320,192,184953,1,2,0:0:0:0:
192,192,185056,1,2,0:0:0:0:
448,192,185056,1,0,0:0:0:0:
320,192,185160,1,2,0:0:0:0:
64,192,185263,1,8,0:0:0:0:
448,192,185263,1,0,0:0:0:0:
320,192,185470,1,0,0:0:0:30:LR_Drum Click.wav
192,192,185574,1,8,0:0:0:0:
448,192,185574,1,0,0:0:0:0:
320,192,185780,1,0,0:0:0:30:LR_Drum Click.wav
64,192,185884,1,8,0:0:0:0:
192,192,185884,1,0,0:0:0:0:
320,192,186091,1,8,0:0:0:0:
448,192,186091,1,0,0:0:0:0:
192,192,186194,1,0,0:0:0:30:LR_Drum Click.wav
64,192,186298,1,8,0:0:0:0:
320,192,186298,1,0,0:0:0:0:
192,192,186401,1,0,0:0:0:30:LR_Drum Click.wav
320,192,186505,1,8,0:0:0:0:
448,192,186505,1,0,0:0:0:0:
320,192,186712,1,0,0:0:0:30:LR_Drum Click.wav
192,192,186815,1,8,0:0:0:0:
448,192,186815,1,0,0:0:0:0:
320,192,187022,1,0,0:0:0:30:LR_Drum Click.wav
64,192,187125,1,8,0:0:0:0:
448,192,187125,1,0,0:0:0:0:
192,192,187332,1,8,0:0:0:0:
320,192,187332,1,0,0:0:0:0:
448,192,187436,1,0,0:0:0:30:LR_Drum Click.wav
64,192,187539,1,8,0:0:0:0:
320,192,187539,1,0,0:0:0:0:
192,192,187643,1,8,0:0:0:0:
448,192,187643,1,0,0:0:0:0:
64,192,187746,1,8,0:0:0:0:
320,192,187746,1,0,0:0:0:0:
448,192,187953,1,0,0:0:0:30:LR_Drum Click.wav
64,192,188056,1,8,0:0:0:0:
192,192,188056,1,0,0:0:0:0:
448,192,188263,1,0,0:0:0:30:LR_Drum Click.wav
64,192,188367,1,8,0:0:0:0:
320,192,188367,1,0,0:0:0:0:
192,192,188574,1,8,0:0:0:0:
448,192,188574,1,0,0:0:0:0:
64,192,188677,1,0,0:0:0:30:LR_Drum Click.wav
320,192,188780,1,8,0:0:0:0:
448,192,188780,1,0,0:0:0:0:
64,192,188884,1,0,0:0:0:30:LR_Drum Click.wav
192,192,188987,1,8,0:0:0:0:
448,192,188987,1,0,0:0:0:0:
320,192,189091,1,0,0:0:0:0:
64,192,189194,1,0,0:0:0:30:LR_Drum Click.wav
192,192,189298,1,8,0:0:0:0:
320,192,189298,1,0,0:0:0:0:
64,192,189505,1,0,0:0:0:30:LR_Drum Click.wav
192,192,189608,1,8,0:0:0:0:
448,192,189608,1,0,0:0:0:0:
64,192,189815,1,8,0:0:0:0:
320,192,189815,1,0,0:0:0:0:
192,192,189918,1,0,0:0:0:30:LR_Drum Click.wav
64,192,190022,1,8,0:0:0:0:
448,192,190022,1,0,0:0:0:0:
192,192,190125,1,8,0:0:0:0:
320,192,190125,1,0,0:0:0:0:
64,192,190229,1,8,0:0:0:0:
448,192,190229,1,0,0:0:0:0:
192,192,190436,1,0,0:0:0:30:LR_Drum Click.wav
64,192,190539,1,8,0:0:0:0:
448,192,190539,1,0,0:0:0:0:
192,192,190746,1,0,0:0:0:30:LR_Drum Click.wav
320,192,190849,1,8,0:0:0:0:
448,192,190849,1,0,0:0:0:0:
64,192,191056,1,8,0:0:0:0:
192,192,191056,1,0,0:0:0:0:
448,192,191160,1,0,0:0:0:30:LR_Drum Click.wav
192,192,191263,1,8,0:0:0:0:
320,192,191263,1,0,0:0:0:0:
448,192,191367,1,0,0:0:0:30:LR_Drum Click.wav
64,192,191470,1,8,0:0:0:0:
192,192,191470,1,0,0:0:0:0:
320,192,191677,1,0,0:0:0:30:LR_Drum Click.wav
64,192,191780,1,8,0:0:0:0:
448,192,191780,1,0,0:0:0:0:
320,192,191987,1,0,0:0:0:30:LR_Drum Click.wav
64,192,192091,1,8,0:0:0:0:
192,192,192091,1,0,0:0:0:0:
320,192,192298,1,8,0:0:0:0:
448,192,192298,1,0,0:0:0:0:
64,192,192401,1,0,0:0:0:30:LR_Drum Click.wav
192,192,192505,1,8,0:0:0:0:
320,192,192505,1,0,0:0:0:0:
64,192,192608,1,8,0:0:0:0:
448,192,192608,1,0,0:0:0:0:
192,192,192712,1,8,0:0:0:0:
320,192,192712,1,0,0:0:0:0:
448,192,192918,1,0,0:0:0:30:LR_Drum Click.wav
64,192,193022,1,8,0:0:0:0:
320,192,193022,1,0,0:0:0:0:
448,192,193229,1,0,0:0:0:30:LR_Drum Click.wav
192,192,193332,1,8,0:0:0:0:
320,192,193332,1,0,0:0:0:0:
64,192,193539,1,8,0:0:0:0:
448,192,193539,1,0,0:0:0:0:
320,192,193643,1,0,0:0:0:30:LR_Drum Click.wav
192,192,193746,1,8,0:0:0:0:
448,192,193746,1,0,0:0:0:0:
320,192,193849,1,0,0:0:0:30:LR_Drum Click.wav
64,192,193953,1,8,0:0:0:0:
448,192,193953,1,0,0:0:0:0:
192,192,194160,1,0,0:0:0:30:LR_Drum Click.wav
64,192,194263,1,8,0:0:0:0:
320,192,194263,1,0,0:0:0:0:
192,192,194470,1,0,0:0:0:30:LR_Drum Click.wav
64,192,194574,1,8,0:0:0:0:
448,192,194574,1,0,0:0:0:0:
192,192,194780,1,8,0:0:0:0:
320,192,194780,1,0,0:0:0:0:
64,192,194884,1,0,0:0:0:30:LR_Drum Click.wav
192,192,194987,1,8,0:0:0:0:
448,192,194987,1,0,0:0:0:0:
64,192,195091,1,8,0:0:0:0:
320,192,195091,1,0,0:0:0:0:
192,192,195194,1,8,0:0:0:0:
448,192,195194,1,0,0:0:0:0:
320,192,195401,1,0,0:0:0:30:LR_Drum Click.wav
192,192,195505,1,8,0:0:0:0:
448,192,195505,1,0,0:0:0:0:
320,192,195712,1,0,0:0:0:30:LR_Drum Click.wav
64,192,195815,1,8,0:0:0:0:
192,192,195815,1,0,0:0:0:0:
320,192,196022,1,8,0:0:0:0:
448,192,196022,1,0,0:0:0:0:
192,192,196125,1,0,0:0:0:30:LR_Drum Click.wav
64,192,196229,1,8,0:0:0:0:
320,192,196229,1,0,0:0:0:0:
192,192,196332,1,0,0:0:0:30:LR_Drum Click.wav
320,192,196436,1,8,0:0:0:0:
448,192,196436,1,0,0:0:0:0:
320,192,196643,1,0,0:0:0:30:LR_Drum Click.wav
192,192,196746,1,8,0:0:0:0:
448,192,196746,1,0,0:0:0:0:
320,192,196953,1,0,0:0:0:30:LR_Drum Click.wav
64,192,197056,1,8,0:0:0:0:
448,192,197056,1,0,0:0:0:0:
192,192,197263,1,8,0:0:0:0:
320,192,197263,1,0,0:0:0:0:
448,192,197367,1,0,0:0:0:30:LR_Drum Click.wav
64,192,197470,1,8,0:0:0:0:
320,192,197470,1,0,0:0:0:0:
192,192,197574,1,8,0:0:0:0:
448,192,197574,1,0,0:0:0:0:
64,192,197677,1,8,0:0:0:0:
320,192,197677,1,0,0:0:0:0:
448,192,197884,1,0,0:0:0:30:LR_Drum Click.wav
64,192,197987,1,8,0:0:0:0:
192,192,197987,1,0,0:0:0:0:
448,192,198194,1,0,0:0:0:30:LR_Drum Click.wav
64,192,198298,1,8,0:0:0:0:
320,192,198298,1,0,0:0:0:0:
192,192,198505,1,8,0:0:0:0:
448,192,198505,1,0,0:0:0:0:
64,192,198608,1,0,0:0:0:30:LR_Drum Click.wav
320,192,198712,1,8,0:0:0:0:
448,192,198712,1,0,0:0:0:0:
192,192,198815,1,0,0:0:0:30:LR_Drum Click.wav
64,192,198918,1,8,0:0:0:0:
320,192,198918,1,0,0:0:0:0:
192,192,199125,1,0,0:0:0:30:LR_Drum Click.wav
64,192,199229,1,8,0:0:0:0:
448,192,199229,1,0,0:0:0:0:
192,192,199436,1,0,0:0:0:30:LR_Drum Click.wav
64,192,199539,1,8,0:0:0:0:
320,192,199539,1,0,0:0:0:0:
192,192,199746,1,8,0:0:0:0:
448,192,199746,1,0,0:0:0:0:
64,192,199849,1,0,0:0:0:30:LR_Drum Click.wav
192,192,199953,1,8,0:0:0:0:
320,192,199953,1,0,0:0:0:0:
64,192,200056,1,8,0:0:0:0:
448,192,200056,1,0,0:0:0:0:
192,192,200160,1,8,0:0:0:0:
320,192,200160,1,0,0:0:0:0:
64,192,200367,1,0,0:0:0:30:LR_Drum Click.wav
320,192,200470,1,8,0:0:0:0:
448,192,200470,1,0,0:0:0:0:
64,192,200677,1,0,0:0:0:30:LR_Drum Click.wav
192,192,200780,1,8,0:0:0:0:
320,192,200780,1,0,0:0:0:0:
64,192,200987,1,8,0:0:0:0:
448,192,200987,1,0,0:0:0:0:
320,192,201091,1,0,0:0:0:30:LR_Drum Click.wav
64,192,201194,1,8,0:0:0:0:
192,192,201194,1,0,0:0:0:0:
320,192,201298,1,0,0:0:0:30:LR_Drum Click.wav
64,192,201401,1,8,0:0:0:0:
448,192,201401,1,0,0:0:0:0:
192,192,201608,1,0,0:0:0:30:LR_Drum Click.wav
64,192,201712,1,8,0:0:0:0:
448,192,201712,1,0,0:0:0:0:
192,192,201918,1,0,0:0:0:30:LR_Drum Click.wav
320,192,202022,1,8,0:0:0:0:
448,192,202022,1,0,0:0:0:0:
64,192,202229,1,8,0:0:0:0:
192,192,202229,1,0,0:0:0:0:
448,192,202332,1,0,0:0:0:30:LR_Drum Click.wav
192,192,202436,1,8,0:0:0:0:
320,192,202436,1,0,0:0:0:0:
64,192,202539,1,8,0:0:0:0:
448,192,202539,1,0,0:0:0:0:
192,192,202643,1,8,0:0:0:0:
320,192,202643,1,0,0:0:0:0:
448,192,202849,1,0,0:0:0:30:LR_Drum Click.wav
64,192,202953,1,8,0:0:0:0:
192,192,202953,1,0,0:0:0:0:
448,192,203160,1,0,0:0:0:30:LR_Drum Click.wav
64,192,203263,1,8,0:0:0:0:
320,192,203263,1,0,0:0:0:0:
192,192,203470,1,8,0:0:0:0:
448,192,203470,1,0,0:0:0:0:
64,192,203574,1,0,0:0:0:30:LR_Drum Click.wav
320,192,203677,1,8,0:0:0:0:
448,192,203677,1,0,0:0:0:0:
64,192,203780,1,0,0:0:0:30:LR_Drum Click.wav
192,192,203884,1,8,0:0:0:0:
320,192,203884,1,0,0:0:0:0:
448,192,204091,1,0,0:0:0:30:LR_Drum Click.wav
64,192,204194,1,8,0:0:0:0:
320,192,204194,1,0,0:0:0:0:
192,192,204298,1,8,0:0:0:0:
320,192,204349,1,8,0:0:0:0:
192,192,204401,1,8,0:0:0:0:
320,192,204453,1,8,0:0:0:0:
64,192,204505,1,8,0:0:0:0:
448,192,204556,1,8,0:0:0:0:
320,192,204608,1,8,0:0:0:0:
192,192,204712,1,8,0:0:0:0:
64,192,204815,1,8,0:0:0:0:
448,192,204918,1,8,0:0:0:0:
64,192,205022,1,8,0:0:0:0:
192,192,205125,1,2,0:0:0:0:
320,192,205125,128,0,205435:0:0:0:0:
448,192,205125,1,4,0:0:0:0:
64,192,205435,128,0,205745:0:0:0:0:
448,192,205538,1,0,0:0:0:0:
192,192,205745,128,2,205954:0:0:0:0:
320,192,205745,1,0,0:0:0:0:
320,192,205954,128,0,206161:0:0:0:0:
448,192,205954,1,8,0:0:0:0:
448,192,206161,128,0,206471:0:0:0:0:
64,192,206161,1,2,0:0:0:0:
192,192,206161,1,4,0:0:0:0:
192,192,206471,128,0,206781:0:0:0:0:
448,192,206574,1,0,0:0:0:0:
320,192,206781,128,2,206988:0:0:0:0:
448,192,206781,1,0,0:0:0:0:
64,192,206988,128,8,207195:0:0:0:0:
448,192,206988,1,0,0:0:0:0:
192,192,207040,1,8,0:0:0:0:
320,192,207092,1,8,0:0:0:0:
192,192,207195,128,2,207402:0:0:0:0:
448,192,207247,1,8,0:0:0:0:
64,192,207402,1,2,0:0:0:0:
320,192,207402,1,4,0:0:0:0:
448,192,207402,128,0,207712:0:0:0:0:
192,192,207505,1,8,0:0:0:0:
320,192,207608,1,2,0:0:0:0:
64,192,207712,128,2,208022:0:0:0:0:
192,192,207815,1,8,0:0:0:0:
320,192,207815,1,0,0:0:0:0:
192,192,207919,1,8,0:0:0:0:
320,192,208022,1,2,0:0:0:0:
448,192,208022,128,0,208231:0:0:0:0:
192,192,208231,1,8,0:0:0:0:
320,192,208231,128,0,208438:0:0:0:0:
448,192,208438,128,0,208748:0:0:0:0:
64,192,208438,1,2,0:0:0:0:
192,192,208438,1,4,0:0:0:0:
192,192,208748,128,0,209058:0:0:0:0:
64,192,208851,1,0,0:0:0:0:
320,192,209058,128,2,209265:0:0:0:0:
448,192,209058,1,0,0:0:0:0:
64,192,209265,128,8,209472:0:0:0:0:
448,192,209265,1,0,0:0:0:0:
192,192,209472,128,2,209679:0:0:0:0:
320,192,209472,1,0,0:0:0:0:
448,192,209679,128,2,209989:0:0:0:0:
320,192,209782,1,0,0:0:0:70:tom01.wav
192,192,209885,1,0,0:0:0:70:tom02.wav
320,192,209989,128,0,210299:0:0:0:70:tom03.wav
64,192,210092,1,0,0:0:0:70:tom02.wav
448,192,210196,1,0,0:0:0:70:tom03.wav
192,192,210299,128,2,210508:0:0:0:0:
64,192,210403,1,0,0:0:0:70:tom03.wav
320,192,210508,128,0,210715:0:0:0:0:
64,192,210611,1,0,0:0:0:70:tom04.wav
448,192,210715,1,8,0:0:0:0:
192,192,210715,128,0,211025:0:0:0:0:
448,192,210818,1,8,0:0:0:0:
64,192,210921,1,8,0:0:0:0:
64,192,211025,128,8,211335:0:0:0:0:
192,192,211128,1,2,0:0:0:0:
320,192,211128,1,0,0:0:0:0:
448,192,211232,1,8,0:0:0:0:
192,192,211335,1,2,0:0:0:0:
320,192,211335,128,0,211542:0:0:0:0:
64,192,211542,1,8,0:0:0:0:
192,192,211542,128,0,211749:0:0:0:0:
320,192,211749,1,2,0:0:0:0:
448,192,211749,128,0,211956:0:0:0:0:
64,192,211956,1,2,0:0:0:0:
192,192,211956,128,0,212266:0:0:0:0:
320,192,211956,1,4,0:0:0:0:
320,192,212266,128,0,212576:0:0:0:0:
64,192,212369,1,0,0:0:0:0:
64,192,212576,1,2,0:0:0:0:
192,192,212576,128,0,212785:0:0:0:0:
64,192,212785,1,8,0:0:0:0:
320,192,212785,128,0,212992:0:0:0:0:
64,192,212992,128,0,213302:0:0:0:0:
192,192,212992,1,2,0:0:0:0:
448,192,212992,1,4,0:0:0:0:
448,192,213302,128,0,213612:0:0:0:0:
320,192,213405,1,0,0:0:0:0:
64,192,213509,1,2,0:0:0:0:
192,192,213612,128,0,213819:0:0:0:0:
320,192,213716,1,8,0:0:0:0:
320,192,213819,128,8,214026:0:0:0:0:
448,192,213819,1,0,0:0:0:0:
192,192,214026,128,8,214233:0:0:0:0:
448,192,214026,1,0,0:0:0:0:
64,192,214233,1,0,0:0:0:0:
320,192,214233,128,6,214543:0:0:0:0:
448,192,214233,1,0,0:0:0:0:
192,192,214439,1,2,0:0:0:0:
64,192,214543,128,8,214853:0:0:0:0:
192,192,214646,1,2,0:0:0:0:
448,192,214646,1,0,0:0:0:0:
320,192,214750,1,0,0:0:0:0:
192,192,214853,128,2,215062:0:0:0:0:
448,192,214853,1,0,0:0:0:0:
64,192,215062,1,0,0:0:0:0:
320,192,215062,128,0,215269:0:0:0:0:
192,192,215165,1,8,0:0:0:0:
448,192,215269,128,6,215579:0:0:0:0:
64,192,215269,1,0,0:0:0:0:
64,192,215475,1,2,0:0:0:0:
320,192,215475,1,0,0:0:0:0:
192,192,215579,128,0,215889:0:0:0:0:
320,192,215682,1,2,0:0:0:0:
64,192,215786,1,8,0:0:0:0:
448,192,215786,1,0,0:0:0:0:
320,192,215889,128,2,216096:0:0:0:0:
64,192,216096,128,8,216303:0:0:0:0:
448,192,216096,1,0,0:0:0:0:
192,192,216303,128,2,216510:0:0:0:0:
320,192,216406,1,0,0:0:0:0:
448,192,216510,128,6,216820:0:0:0:0:
64,192,216510,1,0,0:0:0:0:
192,192,216639,1,0,0:0:0:0:
320,192,216785,1,0,0:0:0:0:
64,192,216820,128,0,217130:0:0:0:0:
192,192,216923,1,0,0:0:0:0:
448,192,216923,1,0,0:0:0:0:
320,192,217130,1,2,0:0:0:0:
448,192,217130,128,0,217339:0:0:0:0:
64,192,217234,1,0,0:0:0:0:
192,192,217339,1,8,0:0:0:0:
320,192,217339,128,0,217546:0:0:0:0:
64,192,217442,1,0,0:0:0:0:
448,192,217546,128,6,217856:0:0:0:0:
192,192,217546,1,0,0:0:0:0:
320,192,217752,1,0,0:0:0:0:
192,192,217856,128,0,218166:0:0:0:0:
320,192,217959,1,0,0:0:0:0:
448,192,218063,1,0,0:0:0:0:
320,192,218166,128,2,218373:0:0:0:0:
192,192,218270,1,0,0:0:0:0:
64,192,218373,128,8,218580:0:0:0:0:
448,192,218373,1,0,0:0:0:0:
320,192,218477,1,0,0:0:0:0:
192,192,218580,128,2,218787:0:0:0:0:
64,192,218683,1,0,0:0:0:0:
320,192,218787,1,0,0:0:0:0:
448,192,218787,128,6,219097:0:0:0:0:
64,192,218993,1,0,0:0:0:0:
320,192,219097,128,0,219407:0:0:0:0:
192,192,219200,1,0,0:0:0:0:
448,192,219304,1,0,0:0:0:0:
192,192,219407,128,2,219616:0:0:0:0:
64,192,219511,1,0,0:0:0:0:
320,192,219616,128,0,219823:0:0:0:0:
448,192,219616,1,8,0:0:0:0:
64,192,219719,1,0,0:0:0:0:
192,192,219823,128,6,220133:0:0:0:0:
448,192,219823,1,0,0:0:0:0:
320,192,219926,1,0,0:0:0:0:
448,192,220029,1,0,0:0:0:0:
64,192,220133,128,0,220443:0:0:0:0:
320,192,220236,1,0,0:0:0:0:
192,192,220305,1,0,0:0:0:0:
320,192,220443,128,2,220650:0:0:0:0:
64,192,220547,1,0,0:0:0:0:
192,192,220650,128,8,220857:0:0:0:0:
448,192,220650,1,0,0:0:0:0:
64,192,220857,1,2,0:0:0:0:
448,192,220857,128,0,221064:0:0:0:0:
320,192,220960,1,0,0:0:0:0:
64,192,221064,1,0,0:0:0:0:
192,192,221064,128,6,221374:0:0:0:0:
320,192,221374,128,0,221684:0:0:0:0:
448,192,221477,1,0,0:0:0:0:
64,192,221684,1,2,0:0:0:0:
192,192,221684,128,0,221893:0:0:0:0:
64,192,221822,1,0,0:0:0:0:
320,192,221893,128,8,222100:0:0:0:0:
448,192,222030,1,0,0:0:0:0:
64,192,222100,128,2,222410:0:0:0:0:
192,192,222100,1,0,0:0:0:0:
448,192,222177,1,0,0:0:0:0:
320,192,222203,1,0,0:0:0:0:
192,192,222281,1,0,0:0:0:0:
320,192,222410,1,8,0:0:0:0:
448,192,222410,128,0,222720:0:0:0:0:
64,192,222513,1,8,0:0:0:0:
192,192,222539,1,0,0:0:0:0:
320,192,222643,1,0,0:0:0:0:
192,192,222746,1,0,0:0:0:0:
448,192,222798,1,0,0:0:0:0:
64,192,222875,1,0,0:0:0:0:
192,192,222927,1,8,0:0:0:0:
320,192,222996,1,0,0:0:0:0:
64,192,223065,1,0,0:0:0:0:
320,192,223134,1,2,0:0:0:0:
192,192,223203,1,0,0:0:0:0:
448,192,223272,1,0,0:0:0:0:
64,192,223341,1,2,0:0:0:0:
192,192,223341,1,8,0:0:0:0:
320,192,223341,1,0,0:0:0:0:
64,192,223547,1,2,0:0:0:0:
320,192,223547,1,0,0:0:0:0:
448,192,223547,1,4,0:0:0:0:
64,192,223754,1,2,0:0:0:0:
192,192,223754,1,8,0:0:0:0:
320,192,223754,1,0,0:0:0:0:
64,192,223961,1,2,0:0:0:0:
320,192,223961,1,0,0:0:0:0:
448,192,223961,1,4,0:0:0:0:
64,192,224168,1,2,0:0:0:0:
192,192,224168,1,8,0:0:0:0:
320,192,224168,1,0,0:0:0:0:
192,192,224478,1,0,0:0:0:0:
320,192,224478,1,8,0:0:0:0:
448,192,224478,1,2,0:0:0:0:
64,192,224685,1,4,0:0:0:0:
192,192,224685,1,0,0:0:0:0:
448,192,224685,1,2,0:0:0:0:
192,192,224892,1,0,0:0:0:0:
320,192,224892,1,8,0:0:0:0:
448,192,224892,1,2,0:0:0:0:
64,192,225099,1,4,0:0:0:0:
192,192,225099,1,0,0:0:0:0:
448,192,225099,1,2,0:0:0:0:
64,192,225409,1,2,0:0:0:0:
192,192,225409,1,8,0:0:0:0:
320,192,225409,1,0,0:0:0:0:
64,192,225616,1,2,0:0:0:0:
320,192,225616,1,0,0:0:0:0:
448,192,225616,1,4,0:0:0:0:
64,192,225823,1,2,0:0:0:0:
192,192,225823,1,8,0:0:0:0:
320,192,225823,1,0,0:0:0:0:
64,192,226134,1,4,0:0:0:0:
192,192,226134,1,0,0:0:0:0:
448,192,226134,1,2,0:0:0:0:
192,192,226340,1,0,0:0:0:0:
320,192,226340,1,8,0:0:0:0:
448,192,226340,1,2,0:0:0:0:
64,192,226651,1,2,0:0:0:0:
320,192,226651,1,0,0:0:0:0:
448,192,226651,1,4,0:0:0:0:
192,192,227065,1,0,0:0:0:0:
320,192,227065,1,2,0:0:0:0:
320,192,227427,128,0,232159:0:0:0:0:
64,192,227478,128,4,231564:0:0:0:0:
192,192,227478,128,2,232314:0:0:0:0:
448,192,227478,128,0,231305:0:0:0:0:
