osu file format v14

[General]
AudioFilename: audio.mp3
AudioLeadIn: 0
PreviewTime: 227
Countdown: 0
SampleSet: Soft
StackLeniency: 0.7
Mode: 0
LetterboxInBreaks: 0
WidescreenStoryboard: 1

[Editor]
Bookmarks: 7946
DistanceSpacing: 1.7
BeatDivisor: 4
GridSize: 16
TimelineZoom: 1.5

[Metadata]
Title:The Proud Family (TV Size)
TitleUnicode:The Proud Family (TV Size)
Artist:Solange feat. Destiny's Child
ArtistUnicode:Solange feat. Destiny's Child
Creator:AJT
Version:Hard
Source:The Proud Family
Tags:destinys beyonce beyoncé knowles michelle williams kelly rowland disney channel cartoon english hip hop soul aistre alphabet venax yokespai
BeatmapID:2577340
BeatmapSetID:1239161

[Difficulty]
HPDrainRate:4
CircleSize:3.6
OverallDifficulty:6
ApproachRate:7.5
SliderMultiplier:1.69999990463257
SliderTickRate:1

[Events]
//Background and Video events
0,0,"bg.jpg",0,0
Video,0,"theproudfamily.mp4"
//Break Periods
//Storyboard Layer 0 (Background)
//Storyboard Layer 1 (Fail)
//Storyboard Layer 2 (Pass)
//Storyboard Layer 3 (Foreground)
//Storyboard Layer 4 (Overlay)
//Storyboard Sound Samples

[TimingPoints]
227,606.060606060606,4,2,0,50,1,0
227,-100,4,2,0,50,0,0
833,-100,4,2,0,50,0,0
1136,-100,4,2,0,50,0,0
1439,-100,4,2,0,70,0,0
1742,-100,4,2,0,55,0,0
2045,-100,4,2,0,40,0,0
2196,-100,4,2,0,55,0,0
2348,-100,4,2,0,70,0,0
2651,-100,4,2,0,70,0,0
2954,-100,4,2,0,50,0,0
3863,-100,4,2,2,50,0,0
4014,-100,4,2,0,50,0,0
5037,-100,4,2,0,50,0,0
6287,-100,4,2,2,50,0,0
6438,-100,4,2,0,50,0,0
8711,-100,4,2,2,50,0,0
8862,-100,4,2,0,50,0,0
9886,-100,4,2,0,50,0,0
11136,-100,4,2,2,50,0,0
11287,-100,4,2,0,50,0,0
11742,-100,4,2,0,50,0,0
12348,-100,4,2,0,50,0,0
13560,-100,4,2,0,50,0,0
14166,-100,4,2,0,50,0,0
14772,-100,4,2,0,50,0,0
15984,-100,4,2,2,50,0,0
16135,-100,4,2,0,50,0,0
16590,-100,4,2,0,40,0,0
17196,-100,4,2,0,50,0,0
18408,-100,4,2,0,50,0,0
19014,-100,4,2,0,50,0,0
19620,-100,4,2,0,50,0,0
20037,-100,4,2,0,50,0,0
20643,-100,4,2,0,50,0,0
20833,-100,4,2,2,60,0,0
20984,-100,4,2,2,60,0,0
21136,-100,4,2,2,60,0,0
21287,-100,4,2,0,60,0,0
22045,-100,4,2,2,30,0,0
23257,-100,4,2,2,30,0,0
23711,-100,4,2,2,30,0,0
24469,-100,4,2,2,30,0,0
25681,-100,4,2,2,30,0,0
26287,-100,4,2,2,50,0,0
26893,-83.3333333333333,4,2,2,70,0,1
27499,-83.3333333333333,4,2,2,70,0,1
27651,-83.3333333333333,4,2,0,70,0,1
28105,-83.3333333333333,4,2,2,70,0,1
28257,-83.3333333333333,4,2,0,70,0,1
28333,-83.3333333333333,4,2,0,70,0,1
29317,-83.3333333333333,4,2,0,70,0,1
29620,-83.3333333333333,4,2,0,70,0,1
29772,-83.3333333333333,4,2,0,70,0,1
30075,-83.3333333333333,4,2,0,70,0,1
30226,-83.3333333333333,4,2,0,70,0,1
30530,-83.3333333333333,4,2,2,60,0,1
30681,-83.3333333333333,4,2,0,60,0,1
31136,-83.3333333333333,4,2,0,60,0,1
31439,-83.3333333333333,4,2,0,80,0,1
31742,-83.3333333333333,4,2,0,60,0,1
32954,-83.3333333333333,4,2,2,60,0,1
33105,-83.3333333333333,4,2,0,60,0,1
33560,-83.3333333333333,4,2,0,60,0,1
35378,-83.3333333333333,4,2,2,70,0,1
35530,-83.3333333333333,4,2,0,70,0,1
35984,-83.3333333333333,4,2,0,70,0,1
36590,-83.3333333333333,4,2,0,70,0,1
36893,-83.3333333333333,4,2,0,70,0,1
37045,-83.3333333333333,4,2,0,70,0,1
37347,-83.3333333333333,4,2,0,70,0,1
37499,-83.3333333333333,4,2,0,70,0,1
37802,-83.3333333333333,4,2,2,70,0,1
37954,-83.3333333333333,4,2,0,70,0,1
40227,-83.3333333333333,4,2,2,60,0,1
40378,-83.3333333333333,4,2,0,60,0,1
40833,-83.3333333333333,4,2,0,60,0,1
41136,-83.3333333333333,4,2,0,80,0,1
41439,-83.3333333333333,4,2,0,60,0,1
42651,-83.3333333333333,4,2,2,60,0,1
42802,-83.3333333333333,4,2,2,60,0,1
42954,-83.3333333333333,4,2,0,60,0,1
43257,-83.3333333333333,4,2,0,60,0,1
43863,-83.3333333333333,4,2,0,60,0,1
45075,-76.9230769230769,4,2,0,80,0,1
46287,-76.9230769230769,4,2,0,80,0,1
46590,-76.9230769230769,4,2,0,80,0,0

[Colours]
Combo1 : 114,52,52
Combo2 : 117,0,117
Combo3 : 0,0,183
Combo4 : 62,158,255

[HitObjects]
477,275,227,6,0,P|500:241|483:204,1,84.9999952316285,2|2,2:3|2:1,2:0:0:0:
456,45,833,2,0,P|422:21|385:38,1,84.9999952316285,2|0,2:3|3:0,2:0:0:0:
224,32,1439,6,0,L|233:78,1,42.4999976158143,0|0,3:0|3:0,3:0:0:0:
300,118,1742,2,0,L|290:164,1,42.4999976158143,0|0,3:0|3:0,3:0:0:0:
208,192,2045,2,0,L|217:238,1,42.4999976158143,0|0,3:0|3:0,3:0:0:0:
284,278,2348,2,0,L|274:324,1,42.4999976158143,0|0,3:0|3:0,3:0:0:0:
178,352,2651,6,0,L|86:347,1,84.9999952316285,2|2,3:2|2:0,3:0:0:0:
14,365,3105,2,0,P|14:326|51:282,1,84.9999952316285,0|0,3:0|0:0,2:0:0:0:
39,289,3560,1,0,3:0:0:0:
32,176,3863,2,0,L|42:130,1,42.4999976158143,2|2,2:0|2:0,0:0:0:0:
52,103,4166,1,2,2:0:0:0:
159,26,4469,2,0,B|238:22|265:57|360:41,1,169.999990463257,8|0,2:0|3:0,2:0:0:0:
475,42,5378,6,0,P|474:14|451:-2,2,42.4999976158143,2|0|0,2:0|3:0|3:0,0:0:0:0:
384,133,5984,2,0,L|372:183,1,42.4999976158143,0|0,3:0|2:0,0:0:0:0:
435,219,6287,2,0,L|447:269,1,42.4999976158143,2|2,2:0|2:0,2:0:0:0:
376,296,6590,2,0,L|364:346,1,42.4999976158143,2|0,2:0|0:0,0:0:0:0:
272,352,6893,2,0,L|151:340,1,84.9999952316285,8|0,2:0|2:0,2:0:0:0:
111,362,7348,1,2,2:0:0:0:
111,362,7499,1,0,3:0:0:0:
176,230,7802,6,0,L|185:188,1,42.4999976158143,2|0,2:0|3:0,0:0:0:0:
127,131,8105,2,0,L|57:120,1,42.4999976158143,0|2,3:0|2:0,2:0:0:0:
16,176,8408,1,0,3:0:0:0:
161,16,8711,2,0,L|210:12,1,42.4999976158143,2|2,2:0|2:0,2:0:0:0:
304,32,9014,1,2,2:0:0:0:
349,8,9166,1,2,2:0:0:0:
389,38,9317,2,0,B|414:91|414:91|375:152,1,127.499992847443,8|0,2:0|2:0,2:0:0:0:
416,240,9923,5,0,3:0:0:0:
416,240,10075,2,0,L|462:250,2,42.4999976158143,2|2|0,2:0|2:0|3:0,0:0:0:0:
336,272,10530,2,0,L|320:320,1,42.4999976158143,0|2,3:0|2:0,0:0:0:0:
240,336,10833,2,0,L|192:325,1,42.4999976158143,0|2,3:0|2:0,2:0:0:0:
128,288,11136,2,0,L|129:244,1,42.4999976158143,2|2,2:0|2:0,2:0:0:0:
80,176,11439,2,0,L|99:130,1,42.4999976158143,2|2,2:0|2:0,2:0:0:0:
109,37,11742,2,0,L|196:26,1,84.9999952316285,0|0,3:0|3:0,3:0:0:0:
297,69,12196,1,0,3:0:0:0:
297,69,12348,6,0,P|329:70|386:101,1,84.9999952316285,0|2,3:0|2:0,2:0:0:0:
416,180,12802,2,0,P|400:219|365:238,1,42.4999976158143,0|0,3:0|2:0,2:0:0:0:
316,255,13105,2,0,L|310:362,1,84.9999952316285,2|0,2:0|0:0,0:0:0:0:
202,369,13560,5,2,2:1:0:0:
165,381,13711,1,2,2:0:0:0:
127,377,13863,2,0,L|75:352,1,42.4999976158143,2|0,2:0|2:0,2:0:0:0:
48,277,14166,2,0,L|53:220,1,42.4999976158143,10|0,2:1|2:0,2:0:0:0:
129,183,14469,2,0,L|184:161,1,42.4999976158143,0|0,3:0|2:0,2:0:0:0:
254,148,14772,6,0,P|245:126|224:108,2,42.4999976158143,0|0|0,3:0|0:0|2:0,2:0:0:0:
309,253,15226,1,0,2:0:0:0:
309,253,15378,2,0,L|361:258,1,42.4999976158143,0|0,0:0|2:0,0:0:0:0:
441,185,15681,1,0,3:0:0:0:
493,155,15833,1,2,2:0:0:0:
502,96,15984,6,0,L|492:55,1,42.4999976158143,2|2,2:0|2:0,0:0:0:0:
409,16,16287,2,0,L|367:13,1,42.4999976158143,2|2,2:0|2:0,2:0:0:0:
265,12,16590,2,0,P|195:24|143:59,1,127.499992847443,8|0,2:0|3:0,0:0:0:0:
48,32,17196,6,0,L|38:74,1,42.4999976158143,0|0,3:0|0:0,2:0:0:0:
32,176,17499,1,0,2:0:0:0:
40,212,17651,1,0,3:0:0:0:
50,252,17802,2,0,L|60:294,1,42.4999976158143,0|0,3:0|2:0,0:0:0:0:
144,332,18105,2,0,L|186:322,1,42.4999976158143,0|2,3:0|2:0,2:0:0:0:
178,228,18408,6,0,L|134:217,2,42.4999976158143,2|0|0,2:1|0:0|2:0,2:0:0:0:
264,244,18863,1,2,2:0:0:0:
336,160,19014,2,0,L|393:155,1,42.4999976158143,10|0,2:1|2:0,2:0:0:0:
452,195,19317,2,0,L|474:250,1,42.4999976158143,0|0,3:0|3:0,2:0:0:0:
454,349,19620,5,0,3:0:0:0:
454,349,19772,2,0,L|366:346,1,84.9999952316285,2|0,3:2|3:0,2:0:0:0:
310,285,20227,1,0,3:0:0:0:
310,285,20378,2,0,L|325:194,1,84.9999952316285,2|0,3:2|3:0,2:0:0:0:
344,96,20833,6,0,L|315:53,1,42.4999976158143,2|0,2:0|2:0,2:0:0:0:
239,56,21136,2,0,L|216:103,1,42.4999976158143,0|2,2:0|2:0,2:0:0:0:
186,167,21439,2,0,L|197:224,1,42.4999976158143,8|2,2:0|3:2,2:0:0:0:
169,286,21742,1,0,3:0:0:0:
95,318,21893,1,2,3:2:0:0:
14,312,22045,5,2,3:2:0:0:
14,312,22348,1,0,3:0:0:0:
53,148,22651,2,0,L|64:84,2,42.4999976158143,8|8|8,2:0|2:0|2:0,0:0:0:0:
256,192,23257,5,2,3:2:0:0:
256,192,23560,1,0,3:0:0:0:
153,41,23863,2,0,L|89:30,2,42.4999976158143,8|8|8,2:0|2:0|2:0,0:0:0:0:
335,36,24469,6,0,P|383:48|420:42,1,84.9999952316285,2|8,3:2|2:0,2:0:0:0:
466,100,24923,2,0,P|478:148|472:185,1,84.9999952316285,2|8,3:2|2:0,2:0:0:0:
405,219,25378,2,0,P|399:242|404:259,1,42.4999976158143,2|0,3:2|2:0,2:0:0:0:
480,320,25681,6,0,P|485:343|480:360,1,42.4999976158143,8|8,2:0|2:0,0:0:0:0:
400,384,25984,1,8,2:0:0:0:
218,363,26287,5,2,3:2:0:0:
146,372,26439,1,8,3:2:0:0:
77,349,26590,1,0,3:0:0:0:
20,303,26742,1,8,3:2:0:0:
2,231,26893,6,0,P|-3:181|28:128,1,101.999994277954,4|0,2:1|2:0,2:0:0:0:
46,42,27348,1,0,3:0:0:0:
148,103,27499,2,0,P|153:133|142:158,1,50.9999971389771,0|2,0:0|2:0,0:0:0:0:
179,232,27802,2,0,P|227:220|284:242,1,101.999994277954,0|2,3:0|2:0,2:0:0:0:
348,283,28257,1,2,2:0:0:0:
427,248,28408,2,0,P|432:218|421:193,1,50.9999971389771,2|2,2:0|2:0,0:0:0:0:
347,160,28711,2,0,P|342:130|353:105,1,50.9999971389771,8|0,2:0|3:0,2:0:0:0:
426,52,29014,1,0,3:0:0:0:
320,0,29166,6,0,P|272:-12|164:24,1,152.999991416931,0|8,3:0|2:0,0:0:0:0:
112,80,29772,2,0,P|106:132|126:186,1,101.999994277954,0|8,3:0|2:0,2:0:0:0:
48,240,30227,2,0,P|55:273|44:301,1,50.9999971389771,0|0,3:0|2:0,2:0:0:0:
176,352,30530,6,0,L|303:355,1,101.999994277954,2|2,2:0|2:0,2:0:0:0:
323,277,30984,2,0,L|341:167,1,101.999994277954,2|2,2:0|2:0,0:0:0:0:
371,95,31439,1,0,3:0:0:0:
456,83,31590,1,0,3:0:0:0:
502,156,31742,1,0,3:0:0:0:
399,332,32045,5,0,2:0:0:0:
316,303,32196,1,2,2:0:0:0:
235,333,32348,2,0,L|238:398,2,50.9999971389771,2|0|0,2:0|2:0|2:0,2:0:0:0:
158,293,32802,2,0,L|147:181,1,101.999994277954,2|0,2:0|2:0,0:0:0:0:
189,115,33257,6,0,L|256:121,1,50.9999971389771,2|2,2:0|2:0,2:0:0:0:
304,224,33560,2,0,L|297:273,1,50.9999971389771,8|0,2:0|2:0,2:0:0:0:
352,352,33863,2,0,L|419:358,1,50.9999971389771,0|0,2:0|3:0,0:0:0:0:
479,246,34166,5,2,3:2:0:0:
442,76,34469,1,0,3:0:0:0:
273,36,34772,1,2,2:0:0:0:
186,28,34923,1,2,2:0:0:0:
123,88,35075,2,0,L|117:155,1,50.9999971389771,0|0,3:0|2:0,2:0:0:0:
32,240,35378,6,0,P|101:261|185:261,1,152.999986747742,2|0,2:0|2:0,2:0:0:0:
272,336,35984,2,0,L|311:379,1,50.9999971389771,8|0,2:0|3:0,2:0:0:0:
400,368,36287,2,0,L|439:324,1,50.9999971389771,0|0,3:0|3:0,2:0:0:0:
464,192,36590,1,4,2:1:0:0:
297,249,36893,5,8,2:0:0:0:
219,210,37045,1,0,3:0:0:0:
142,250,37196,2,0,P|137:280|148:305,1,50.9999971389771,0|8,0:0|2:0,0:0:0:0:
61,328,37499,2,0,P|44:280|54:230,1,101.999994277954,0|2,3:0|2:0,2:0:0:0:
100,158,37954,1,0,0:0:0:0:
39,95,38105,2,0,P|34:65|45:40,1,50.9999971389771,2|2,2:0|2:0,0:0:0:0:
122,17,38408,2,0,P|147:9|171:15,1,50.9999971389771,8|0,2:0|3:0,2:0:0:0:
222,84,38711,1,0,3:0:0:0:
176,192,38863,6,0,P|164:240|200:348,1,152.999991416931,0|8,3:0|2:0,0:0:0:0:
272,370,39469,2,0,P|324:376|378:356,1,101.999994277954,0|8,3:0|2:0,2:0:0:0:
432,304,39923,2,0,P|439:271|428:243,1,50.9999971389771,0|0,3:0|2:0,2:0:0:0:
414,131,40226,6,0,L|295:107,1,101.999994277954,2|2,2:0|2:0,0:0:0:0:
238,69,40681,2,0,L|131:90,1,101.999994277954,2|2,2:0|2:0,0:0:0:0:
68,141,41136,1,0,3:0:0:0:
43,223,41287,1,0,3:0:0:0:
86,298,41439,1,0,3:0:0:0:
254,337,41742,5,0,2:0:0:0:
277,253,41893,1,2,2:0:0:0:
356,217,42045,2,0,L|350:150,2,50.9999971389771,0|0|0,0:0|2:0|2:0,0:0:0:0:
192,96,42651,6,0,L|187:46,1,50.9999971389771,2|0,2:0|2:0,0:0:0:0:
271,22,42954,2,0,L|321:27,1,50.9999971389771,2|2,2:0|2:0,2:0:0:0:
407,41,43257,1,8,2:0:0:0:
459,109,43408,2,0,L|454:159,1,50.9999971389771,0|0,2:0|2:0,2:0:0:0:
442,245,43711,1,0,3:0:0:0:
386,311,43863,5,2,3:2:0:0:
213,289,44166,1,0,3:0:0:0:
316,167,44469,1,2,2:0:0:0:
331,82,44620,1,2,2:0:0:0:
268,21,44772,2,0,L|215:17,1,50.9999955825808,0|0,3:0|2:0,2:0:0:0:
128,48,45075,6,0,L|64:52,1,55.2499969005585,0|0,3:0|2:0,0:0:0:0:
10,145,45378,2,0,L|15:208,1,55.2499969005585,0|0,3:0|3:0,0:0:0:0:
68,290,45681,2,0,L|138:297,1,55.2499969005585,8|0,3:2|3:0,0:0:0:0:
216,247,45984,2,0,L|288:254,1,55.2499969005585,0|0,3:0|3:0,0:0:0:0:
348,323,46287,5,2,2:1:0:0:
448,196,46590,1,2,2:1:0:0:
