osu file format v14

[General]
AudioFilename: audio.mp3
AudioLeadIn: 0
PreviewTime: 227
Countdown: 0
SampleSet: Soft
StackLeniency: 0.7
Mode: 0
LetterboxInBreaks: 0
WidescreenStoryboard: 1

[Editor]
Bookmarks: 7946
DistanceSpacing: 1.4
BeatDivisor: 2
GridSize: 16
TimelineZoom: 1.5

[Metadata]
Title:The Proud Family (TV Size)
TitleUnicode:The Proud Family (TV Size)
Artist:Solange feat. Destiny's Child
ArtistUnicode:Solange feat. Destiny's Child
Creator:AJT
Version:Easy
Source:The Proud Family
Tags:destinys beyonce beyoncé knowles michelle williams kelly rowland disney channel cartoon english hip hop soul aistre alphabet venax yokespai
BeatmapID:2576871
BeatmapSetID:1239161

[Difficulty]
HPDrainRate:3
CircleSize:2
OverallDifficulty:2
ApproachRate:3
SliderMultiplier:0.999999904632569
SliderTickRate:1

[Events]
//Background and Video events
0,0,"bg.jpg",0,0
Video,0,"theproudfamily.mp4"
//Break Periods
//Storyboard Layer 0 (Background)
//Storyboard Layer 1 (Fail)
//Storyboard Layer 2 (Pass)
//Storyboard Layer 3 (Foreground)
//Storyboard Layer 4 (Overlay)
//Storyboard Sound Samples

[TimingPoints]
227,606.060606060606,4,2,0,50,1,0
833,-100,4,2,0,50,0,0
1136,-100,4,2,0,50,0,0
1439,-100,4,3,0,70,0,0
1742,-100,4,3,0,55,0,0
2045,-100,4,3,0,40,0,0
2196,-100,4,3,0,55,0,0
2348,-100,4,3,0,70,0,0
2651,-100,4,3,0,70,0,0
2954,-100,4,2,0,50,0,0
3863,-100,4,2,2,50,0,0
4014,-100,4,2,0,50,0,0
5037,-100,4,2,0,50,0,0
6287,-100,4,2,2,50,0,0
6439,-100,4,2,0,50,0,0
8711,-100,4,2,2,50,0,0
8863,-100,4,2,0,50,0,0
9886,-100,4,2,0,50,0,0
11136,-100,4,2,2,50,0,0
11287,-100,4,2,0,50,0,0
11742,-100,4,2,0,50,0,0
12348,-100,4,2,0,50,0,0
13560,-100,4,2,0,50,0,0
14166,-100,4,2,0,50,0,0
14772,-100,4,2,0,50,0,0
15984,-100,4,2,2,50,0,0
16136,-100,4,2,0,50,0,0
16590,-100,4,2,0,40,0,0
17196,-100,4,2,0,50,0,0
18408,-100,4,2,0,50,0,0
19014,-100,4,2,0,50,0,0
19620,-100,4,2,0,50,0,0
20037,-100,4,2,0,50,0,0
20643,-100,4,2,0,50,0,0
20833,-100,4,2,2,60,0,0
20984,-100,4,2,0,60,0,0
21136,-100,4,2,0,60,0,0
21287,-100,4,2,0,60,0,0
22045,-100,4,2,2,30,0,0
23257,-100,4,2,2,30,0,0
23711,-100,4,2,0,30,0,0
24469,-100,4,2,2,30,0,0
25681,-100,4,2,2,30,0,0
26287,-100,4,2,2,50,0,0
26893,-100,4,2,0,70,0,1
27651,-100,4,2,0,70,0,1
28105,-100,4,2,2,70,0,1
28257,-100,4,2,0,70,0,1
28333,-100,4,2,0,70,0,1
29317,-100,4,2,0,70,0,1
29772,-100,4,2,0,70,0,1
30075,-100,4,2,0,70,0,1
30227,-100,4,2,0,70,0,1
30530,-100,4,2,2,60,0,1
30681,-100,4,2,0,60,0,1
31136,-100,4,2,0,60,0,1
31439,-100,4,2,0,80,0,1
31742,-100,4,2,0,60,0,1
32954,-100,4,2,2,60,0,1
33105,-100,4,2,0,60,0,1
33560,-100,4,2,0,60,0,1
35378,-100,4,2,2,70,0,1
35530,-100,4,2,0,70,0,1
35984,-100,4,2,0,70,0,1
36590,-100,4,2,0,70,0,1
36893,-100,4,2,0,70,0,1
37045,-100,4,2,0,70,0,1
37348,-100,4,2,0,70,0,1
37499,-100,4,2,0,70,0,1
37802,-100,4,2,2,70,0,1
37954,-100,4,2,0,70,0,1
40226,-100,4,2,2,60,0,1
40378,-100,4,2,0,60,0,1
40833,-100,4,2,0,60,0,1
41136,-100,4,2,0,80,0,1
41439,-100,4,2,0,60,0,1
42651,-100,4,2,2,60,0,1
42802,-100,4,2,0,60,0,1
43257,-100,4,2,0,60,0,1
43863,-100,4,2,0,60,0,1
45075,-100,4,2,0,80,0,1
46287,-100,4,2,0,80,0,1
46590,-100,4,2,0,80,0,0

[Colours]
Combo1 : 114,52,52
Combo2 : 117,0,117
Combo3 : 0,0,183
Combo4 : 62,158,255

[HitObjects]
28,40,227,6,0,L|153:47,1,99.9999904632569,2|2,0:3|0:3,0:0:0:0:
235,134,1439,2,0,L|360:141,1,99.9999904632569
460,201,2651,6,0,L|453:326,1,99.9999904632569,2|0,0:2|0:0,0:0:0:0:
325,355,3863,1,2,0:0:0:0:
186,332,4469,1,8,0:0:0:0:
85,234,5075,2,0,L|92:109,1,99.9999904632569,0|0,3:0|3:0,0:0:0:0:
201,49,6287,2,0,L|207:-7,2,49.9999952316285,2|2|8,0:0|0:0|0:0,0:0:0:0:
241,105,7196,1,0,0:0:0:0:
298,144,7499,6,0,L|291:269,1,99.9999904632569,0|0,3:0|3:0,0:0:0:0:
372,358,8711,1,2,0:0:0:0:
467,255,9317,1,8,0:0:0:0:
396,133,9923,2,0,L|403:8,2,99.9999904632569,0|0|2,3:0|3:0|0:0,0:0:0:0:
347,183,11439,1,2,0:0:0:0:
284,214,11742,2,0,L|278:270,2,49.9999952316285,0|0|0,3:0|3:0|3:0,3:0:0:0:
167,136,12954,6,0,L|42:129,1,99.9999904632569,0|2,0:0|0:1,0:0:0:0:
37,267,14166,1,10,0:1:0:0:
146,354,14772,2,0,L|271:347,1,99.9999904632569,0|0,3:0|0:0,0:0:0:0:
372,287,15984,2,0,L|387:163,1,99.9999904632569,2|8,0:0|0:0,0:0:0:0:
426,54,17196,6,0,L|492:61,2,49.9999952316285,0|0|0,3:0|0:0|3:0,0:0:0:0:
369,12,18105,1,0,3:0:0:0:
312,53,18408,2,0,L|198:63,1,99.9999904632569,2|10,0:1|0:1,0:0:0:0:
72,70,19620,2,0,L|61:177,1,99.9999904632569,0|0,3:0|3:0,0:0:0:0:
44,237,20530,1,0,0:0:0:0:
68,302,20833,2,0,L|176:320,1,99.9999904632569,2|8,0:0|0:0,0:0:0:0:
257,212,22045,6,0,L|263:156,1,49.9999952316285,2|0,3:2|3:0,0:0:0:0:
268,92,22651,1,8,0:0:0:0:
380,8,23257,2,0,L|429:14,1,49.9999952316285,2|0,3:2|3:0,0:0:0:0:
498,26,23863,1,8,0:0:0:0:
476,164,24469,6,0,L|467:247,2,74.9999928474427,2|2|2,3:2|3:2|3:2,0:0:0:0:
430,110,25681,2,0,P|378:92|319:103,1,99.9999904632569,8|2,0:0|3:2,0:0:0:0:
211,163,26893,1,4,0:1:0:0:
148,288,27499,6,0,P|91:301|26:288,2,99.9999904632569,0|2|8,0:0|0:0|0:0,0:0:0:0:
89,160,29317,2,0,P|71:109|92:67,1,99.9999904632569,0|0,3:0|0:0,0:0:0:0:
149,34,30227,1,0,3:0:0:0:
218,25,30530,2,0,L|351:35,1,99.9999904632569,2|8,0:0|0:0,0:0:0:0:
449,78,31742,1,0,3:0:0:0:
452,217,32348,6,0,P|425:246|344:247,1,99.9999904632569,2|2,0:0|0:0,0:0:0:0:
254,338,33560,1,8,0:0:0:0:
115,320,34166,2,0,L|41:304,2,49.9999952316285,2|0|2,3:2|3:0|0:0,0:0:0:0:
186,199,35378,2,0,P|199:161|273:129,1,99.9999904632569,2|8,0:0|0:0,0:0:0:0:
384,156,36590,1,4,0:1:0:0:
467,268,37196,6,0,L|467:390,2,99.9999904632569,0|2|8,0:0|0:0|0:0,0:0:0:0:
463,128,39014,2,0,P|442:101|357:83,1,99.9999904632569,0|0,3:0|0:0,0:0:0:0:
317,50,39923,1,0,3:0:0:0:
264,95,40226,2,0,L|256:207,1,99.9999904632569,2|8,0:0|0:0,0:0:0:0:
188,212,41136,2,0,L|138:212,1,49.9999952316285,0|0,3:0|3:0,0:0:0:0:
25,294,42045,6,0,L|70:320,1,49.9999952316285
134,342,42651,2,0,L|235:349,1,99.9999904632569,2|8,0:0|0:0,0:0:0:0:
314,234,43863,2,0,L|309:169,2,49.9999952316285,2|0|2,3:2|3:0|0:0,0:0:0:0:
375,267,44772,1,0,3:0:0:0:
439,239,45075,2,0,L|445:139,1,99.9999904632569,0|8,3:0|3:2,0:0:0:0:
320,74,46287,5,2,0:1:0:0:
250,63,46590,1,2,0:1:0:0:
