osu file format v14

[General]
AudioFilename: audio.mp3
AudioLeadIn: 300
PreviewTime: 58780
Countdown: 0
SampleSet: Soft
StackLeniency: 0.6
Mode: 0
LetterboxInBreaks: 0
WidescreenStoryboard: 0

[Editor]
Bookmarks: 14585,29082,41968,59686,72572,85458
DistanceSpacing: 1.5
BeatDivisor: 4
GridSize: 32
TimelineZoom: 1.5

[Metadata]
Title:blue moment[TVsize ver.]
TitleUnicode:blue moment[TVsize ver.]
Artist:Sol/Lull BOB
ArtistUnicode:ソルラルBOB
Creator:Pata-Mon
Version:Spirit
Source:えとたま
Tags:Ultimate Madoka [ Abhor ] __Ag Etotama Anime OP opening moment tv size 村川梨衣 Murakawa Rie 大原さやか Oohara Sayaka 松井恵理子 Matsui Eriko 巽悠衣子 Tatsumi Yuiko 相坂優歌 Aisaka Yuuka 内田真礼 Uchida Maaya 生天目仁美 Yabatame Hitomi 小澤亜李 Ozawa Ari 渕上舞 Fuchigami Mai 戸田めぐみ T​o​d​a​ ​M​e​g​u​m​i 佐々木未来 Sasaki Mikoi 本多真梨子 Honda Mariko 花守ゆみり Hanamori Yumiri
BeatmapID:1090653
BeatmapSetID:513274

[Difficulty]
HPDrainRate:6
CircleSize:4.4
OverallDifficulty:8
ApproachRate:9
SliderMultiplier:1.8
SliderTickRate:1

[Events]
//Background and Video events
0,0,"BG.jpg",0,0
Video,-960,"video.flv"
//Break Periods
//Storyboard Layer 0 (Background)
//Storyboard Layer 1 (Fail)
//Storyboard Layer 2 (Pass)
//Storyboard Layer 3 (Foreground)
//Storyboard Sound Samples

[TimingPoints]
1700,402.684563758389,4,2,1,50,1,0
1700,-125,4,2,1,50,0,0
4921,-125,4,2,1,55,0,0
8142,-125,4,2,1,60,0,0
11364,-125,4,2,1,65,0,0
13780,-166.666666666667,4,2,1,50,0,0
14082,-166.666666666667,4,2,1,5,0,0
14183,-83.3333333333333,4,2,1,70,0,0
14485,-83.3333333333333,4,2,1,5,0,0
14585,-100,4,2,1,75,0,0
27069,-100,4,2,1,65,0,0
29082,-125,4,2,1,65,0,0
35525,-111.111111111111,4,2,1,65,0,0
41968,-100,4,2,1,70,0,0
58881,-166.666666666667,4,2,1,70,0,0
59585,-166.666666666667,4,2,1,5,0,0
59686,-83.3333333333333,4,2,1,75,0,1
69351,-83.3333333333333,4,2,1,55,0,1
69451,-83.3333333333333,4,2,1,75,0,1
70156,-83.3333333333333,4,2,1,65,0,1
70257,-83.3333333333333,4,2,1,75,0,1
71767,-83.3333333333333,4,3,1,65,0,1
72169,-83.3333333333333,4,2,1,75,0,1
82236,-83.3333333333333,4,2,1,55,0,1
82337,-83.3333333333333,4,2,1,75,0,1
83042,-83.3333333333333,4,2,1,65,0,1
83142,-83.3333333333333,4,2,1,75,0,1
85055,-83.3333333333333,4,2,1,65,0,1
85458,-100,4,2,1,50,0,0

[Colours]
Combo1 : 225,225,64
Combo2 : 96,160,255
Combo3 : 255,128,255
Combo4 : 128,255,128

[HitObjects]
187,366,1700,6,0,P|197:331|200:295,1,72,2|0,0:0|0:0,0:0:0:0:
187,189,2102,1,0,0:0:0:0:
326,111,2304,2,0,P|397:106|469:114,2,144,2|2|0,0:0|0:0|0:0,0:0:0:0:
476,267,3310,6,0,P|472:302|462:337,2,72,2|0|0,0:0|0:0|0:0,0:0:0:0:
469,114,3914,2,0,P|397:106|325:111,2,144,2|2|0,0:0|0:0|0:0,0:0:0:0:
254,200,4921,6,0,P|218:199|182:194,1,72,2|0,0:0|0:0,0:0:0:0:
83,134,5324,1,0,0:0:0:0:
189,28,5525,2,0,P|260:25|332:33,1,144,2|0,0:0|0:0,0:0:0:0:
325,213,6129,2,0,P|310:180|303:144,1,72,2|0,0:0|0:0,0:0:0:0:
399,301,6532,5,2,0:0:0:0:
489,229,6733,1,0,0:0:0:0:
505,115,6934,1,0,0:0:0:0:
303,74,7136,2,0,P|302:145|325:213,1,144,2|0,0:0|0:0,0:0:0:0:
399,301,7740,1,2,0:0:0:0:
213,132,8142,6,0,P|215:167|225:202,1,72,2|0,0:0|0:0,0:0:0:0:
399,301,8545,2,0,P|396:265|386:230,1,72,2|0,0:0|0:0,0:0:0:0:
131,208,8948,2,0,P|160:271|226:297,1,144,2|0,0:0|0:0,0:0:0:0:
250,310,9753,6,0,P|250:274|256:238,1,72,2|0,0:0|0:0,0:0:0:0:
298,138,10156,1,0,0:0:0:0:
493,100,10357,2,0,P|433:61|363:52,1,144,2|0,0:0|0:0,0:0:0:0:
298,138,10961,1,2,0:0:0:0:
199,91,11163,1,0,0:0:0:0:
64,219,11364,6,0,P|62:290|72:362,1,144,2|0,0:0|0:0,0:0:0:0:
307,281,11968,2,0,P|308:209|298:137,1,144,2|0,0:0|0:0,0:0:0:0:
206,20,12572,2,0,P|198:56|199:92,1,72,2|0,0:0|0:0,0:0:0:0:
307,281,12975,5,2,0:0:0:0:
138,381,13176,1,0,0:0:0:0:
246,370,13377,1,0,0:0:0:0:
307,281,13579,1,0,0:0:0:0:
280,174,13780,6,0,P|240:180|203:164,1,80.9999975280763,2|0,0:0|0:0,0:0:0:0:
249,108,14183,6,0,L|231:269,1,161.999995056153,2|0,0:0|0:0,0:0:0:0:
307,281,14585,6,0,P|390:257|418:175,1,180,6|8,0:0|0:0,0:0:0:0:
249,108,15189,1,0,0:0:0:0:
152,238,15391,1,2,0:0:0:0:
145,273,15491,1,8,0:0:0:0:
138,308,15592,1,2,0:0:0:0:
325,191,15793,1,8,0:0:0:0:
166,168,15995,1,0,0:0:0:0:
280,308,16196,6,0,P|323:316|368:309,1,90,2|0,0:0|0:0,0:0:0:0:
474,144,16599,1,8,0:0:0:0:
325,191,16800,1,0,0:0:0:0:
488,214,17002,1,2,0:0:0:0:
481,179,17103,1,8,0:0:0:0:
474,144,17203,1,2,0:0:0:0:
303,56,17404,1,8,0:0:0:0:
325,191,17605,1,0,0:0:0:0:
166,290,17807,6,0,P|121:294|80:276,1,90,2|0,0:0|0:0,0:0:0:0:
232,229,18109,1,2,0:0:0:0:
251,260,18210,2,0,P|255:304|237:345,1,90,8|0,0:0|0:0,0:0:0:0:
80,276,18612,2,0,L|35:285,2,45,2|8|2,0:0|0:0|0:0,0:0:0:0:
273,186,19015,1,8,0:0:0:0:
237,345,19216,1,0,0:0:0:0:
93,175,19418,6,0,L|89:85,1,90,2|0,0:0|0:0,0:0:0:0:
148,17,19720,1,2,0:0:0:0:
182,28,19820,1,8,0:0:0:0:
203,139,20022,1,0,0:0:0:0:
109,271,20223,1,2,0:0:0:0:
74,262,20324,1,8,0:0:0:0:
39,253,20424,1,2,0:0:0:0:
203,139,20626,1,8,0:0:0:0:
9,246,20827,5,8,0:0:0:0:
74,262,20927,1,8,0:0:0:0:
139,278,21028,6,0,B|172:253|172:253|310:246,1,180,6|8,0:0|0:0,0:0:0:0:
468,161,21632,1,0,0:0:0:0:
265,92,21834,1,2,0:0:0:0:
271,128,21934,1,8,0:0:0:0:
277,164,22035,1,2,0:0:0:0:
468,161,22236,2,0,L|453:72,1,90,8|0,0:0|0:0,0:0:0:0:
239,62,22639,6,0,L|253:150,1,90,2|0,0:0|0:0,0:0:0:0:
491,174,23042,2,0,L|476:85,1,90,8|0,0:0|0:0,0:0:0:0:
345,221,23444,2,0,L|338:265,1,45,2|8,0:0|0:0,0:0:0:0:
462,313,23646,2,0,L|455:268,1,45,2|0,0:0|0:0,0:0:0:0:
320,347,23847,1,8,0:0:0:0:
175,238,24048,1,2,0:0:0:0:
183,273,24149,1,2,0:0:0:0:
191,308,24250,5,6,0:0:0:0:
297,143,24451,1,2,0:0:0:0:
289,178,24552,1,2,0:0:0:0:
281,213,24653,1,10,0:0:0:0:
446,108,24854,1,2,0:0:0:0:
424,136,24955,1,2,0:0:0:0:
402,164,25055,6,0,L|357:165,1,45,6|8,0:0|0:0,0:0:0:0:
468,80,25257,2,0,L|512:81,1,45,2|0,0:0|0:0,0:0:0:0:
505,220,25458,1,8,0:0:0:0:
375,79,25659,1,2,0:0:0:0:
339,76,25760,1,2,0:0:0:0:
303,73,25861,6,0,P|270:103|253:145,1,90,6|0,0:0|0:0,0:0:0:0:
346,241,26163,1,2,0:0:0:0:
362,209,26263,2,0,L|356:164,1,45,10|0,0:0|0:0,0:0:0:0:
227,274,26465,2,0,L|221:319,1,45,10|0,0:0|0:0,0:0:0:0:
253,144,26666,6,0,L|208:138,1,45,6|0,0:0|0:0,0:0:0:0:
340,319,26867,2,0,L|385:313,1,45,2|0,0:0|0:0,0:0:0:0:
270,79,27069,5,10,0:0:0:0:
253,144,27169,1,10,0:0:0:0:
260,212,27270,1,10,0:0:0:0:
290,273,27371,1,10,0:0:0:0:
340,319,27471,5,6,0:0:0:0:
155,282,29082,6,0,L|183:215,1,72,2|0,0:0|0:0,0:0:0:0:
175,107,29485,1,0,0:0:0:0:
291,224,29686,1,2,0:0:0:0:
175,107,30089,2,0,L|146:173,1,72,2|0,0:0|0:0,0:0:0:0:
291,224,30491,1,2,0:0:0:0:
165,336,30693,6,0,L|193:269,1,72,2|0,0:0|0:0,0:0:0:0:
146,173,31095,1,0,0:0:0:0:
33,292,31297,2,0,P|94:329|165:336,1,144,2|0,0:0|0:0,0:0:0:0:
146,173,31901,1,2,0:0:0:0:
360,329,32304,6,0,L|355:257,1,72,2|0,0:0|0:0,0:0:0:0:
398,158,32706,1,0,0:0:0:0:
247,247,32908,1,2,0:0:0:0:
398,158,33310,2,0,L|402:229,1,72,2|0,0:0|0:0,0:0:0:0:
247,247,33713,1,0,0:0:0:0:
420,93,33914,6,0,L|429:236,1,144,2|0,0:0|0:0,0:0:0:0:
293,354,34518,2,0,P|222:362|162:326,1,144,2|0,0:0|0:0,0:0:0:0:
245,257,35122,1,2,0:0:0:0:
261,238,35525,6,0,L|180:228,1,80.9999975280763,2|0,0:0|0:0,0:0:0:0:
365,175,35928,1,8,0:0:0:0:
306,350,36129,2,0,L|225:340,1,80.9999975280763,0|2,0:0|0:0,0:0:0:0:
410,287,36532,2,0,L|490:296,1,80.9999975280763,0|8,0:0|0:0,0:0:0:0:
365,175,36934,1,0,0:0:0:0:
203,265,37136,6,0,L|212:345,2,80.9999975280763,2|0|8,0:0|0:0|0:0,0:0:0:0:
246,151,37740,1,0,0:0:0:0:
365,175,37941,2,0,P|405:176|443:164,1,80.9999975280763,2|0,0:0|0:0,0:0:0:0:
246,151,38344,2,0,P|244:191|256:229,1,80.9999975280763,8|0,0:0|0:0,0:0:0:0:
444,164,38746,6,0,P|432:84|390:15,1,161.999995056153,2|8,0:0|0:0,0:0:0:0:
208,80,39350,2,0,P|247:87|286:82,1,80.9999975280763,0|2,0:0|0:0,0:0:0:0:
94,35,39753,2,0,P|85:74|90:113,1,80.9999975280763,0|8,0:0|0:0,0:0:0:0:
296,163,40156,1,0,0:0:0:0:
208,80,40357,5,2,0:0:0:0:
179,198,40559,2,0,P|196:234|225:262,1,80.9999975280763,0|8,0:0|0:0,0:0:0:0:
347,273,40961,1,0,0:0:0:0:
296,163,41163,1,2,0:0:0:0:
241,284,41364,2,0,L|234:324,1,40.4999987640381
363,295,41565,2,0,L|369:335,1,40.4999987640381,8|0,0:0|0:0,0:0:0:0:
419,223,41767,1,10,0:0:0:0:
437,192,41867,1,8,0:0:0:0:
455,161,41968,6,0,L|468:250,1,90,6|0,0:0|0:0,0:0:0:0:
387,16,42371,1,8,0:0:0:0:
279,134,42572,2,0,B|271:196|271:196|251:215,1,90,0|2,0:0|0:0,0:0:0:0:
189,144,42874,1,8,0:0:0:0:
170,113,42975,2,0,L|183:24,1,90,2|8,0:0|0:0,0:0:0:0:
251,215,43377,1,0,0:0:0:0:
86,160,43579,5,2,0:0:0:0:
279,134,43780,2,0,L|368:121,1,90,0|8,0:0|0:0,0:0:0:0:
251,215,44183,1,0,0:0:0:0:
398,295,44384,2,0,L|389:339,1,45,2|8,0:0|0:0,0:0:0:0:
259,259,44585,2,0,L|250:214,1,45,2|0,0:0|0:0,0:0:0:0:
301,110,44787,1,8,0:0:0:0:
226,274,44988,1,10,0:0:0:0:
193,289,45089,1,10,0:0:0:0:
160,304,45189,6,0,L|74:279,1,90,2|0,0:0|0:0,0:0:0:0:
9,342,45491,1,2,0:0:0:0:
1,377,45592,1,8,0:0:0:0:
42,194,45793,1,2,0:0:0:0:
160,304,45995,2,0,L|155:349,1,45,2|8,0:0|0:0,0:0:0:0:
47,239,46196,2,0,L|42:194,1,45,2|0,0:0|0:0,0:0:0:0:
214,206,46397,2,0,P|248:235|267:275,1,90,8|0,0:0|0:0,0:0:0:0:
57,161,46800,5,2,0:0:0:0:
72,128,46901,1,8,0:0:0:0:
87,95,47002,1,0,0:0:0:0:
214,206,47203,1,8,0:0:0:0:
250,48,47404,1,0,0:0:0:0:
378,161,47606,1,2,0:0:0:0:
363,128,47707,1,8,0:0:0:0:
348,95,47808,1,2,0:0:0:0:
214,206,48008,1,8,0:0:0:0:
335,67,48210,5,8,0:0:0:0:
363,128,48310,1,8,0:0:0:0:
391,189,48411,5,6,0:0:0:0:
318,333,48612,1,0,0:0:0:0:
214,206,48814,1,8,0:0:0:0:
395,286,49015,2,0,P|408:328|399:372,1,90,0|2,0:0|0:0,0:0:0:0:
318,333,49317,1,8,0:0:0:0:
294,306,49418,2,0,L|293:261,2,45,2|0|8,0:0|0:0|0:0,0:0:0:0:
438,117,49820,1,0,0:0:0:0:
278,148,50022,5,2,0:0:0:0:
429,226,50223,2,0,P|473:220|512:198,1,90,0|8,0:0|0:0,0:0:0:0:
278,148,50626,1,0,0:0:0:0:
344,297,50827,2,0,P|348:320|349:342,1,45,2|8,0:0|0:0,0:0:0:0:
283,193,51028,2,0,P|279:170|278:148,1,45,2|0,0:0|0:0,0:0:0:0:
428,225,51230,1,8,0:0:0:0:
116,47,51632,5,6,0:0:0:0:
94,208,51834,1,0,0:0:0:0:
244,147,52035,1,8,0:0:0:0:
100,244,52236,1,2,0:0:0:0:
106,280,52337,1,8,0:0:0:0:
112,316,52438,1,2,0:0:0:0:
244,147,52639,2,0,P|221:108|189:76,1,90,0|8,0:0|0:0,0:0:0:0:
94,208,53042,1,0,0:0:0:0:
305,297,53243,5,6,0:0:0:0:
244,147,53444,1,2,0:0:0:0:
239,183,53545,1,2,0:0:0:0:
234,219,53646,1,8,0:0:0:0:
412,273,53847,1,0,0:0:0:0:
248,116,54048,5,2,0:0:0:0:
239,183,54149,1,8,0:0:0:0:
230,250,54250,1,2,0:0:0:0:
378,114,54451,1,8,0:0:0:0:
412,273,54653,1,0,0:0:0:0:
476,60,54854,5,6,0:0:0:0:
328,215,55055,1,2,0:0:0:0:
357,3,55257,1,10,0:0:0:0:
458,191,55458,1,2,0:0:0:0:
265,99,55659,6,0,L|220:94,1,45,6|0,0:0|0:0,0:0:0:0:
413,196,55861,2,0,L|458:191,1,45,2|0,0:0|0:0,0:0:0:0:
241,196,56062,2,0,L|196:191,1,45,10|0,0:0|0:0,0:0:0:0:
389,99,56263,2,0,L|434:94,1,45,2|0,0:0|0:0,0:0:0:0:
327,263,56465,6,0,L|327:308,3,45,10|0|0|0,0:0|0:0|0:0|0:0,0:0:0:0:
241,159,56867,2,0,L|241:114,3,45,10|0|0|0,0:0|0:0|0:0|0:0,0:0:0:0:
155,263,57270,2,0,L|155:308,3,45,10|0|0|0,0:0|0:0|0:0|0:0,0:0:0:0:
327,159,57673,6,0,P|349:153|372:150,1,45,10|0,0:0|0:0,0:0:0:0:
155,159,57874,2,0,P|133:153|110:150,1,45,10|0,0:0|0:0,0:0:0:0:
241,320,58075,5,6,0:0:0:0:
241,320,58881,6,0,B|273:240|209:216|241:136,1,188.999994232178,2|0,0:0|0:0,0:0:0:0:
326,182,59686,6,0,B|153:199|153:199|117:175,1,215.999993408203,6|8,0:0|0:0,0:0:0:0:
249,31,60290,1,0,0:0:0:0:
423,116,60491,1,2,0:0:0:0:
417,159,60592,1,8,0:0:0:0:
411,202,60693,1,2,0:0:0:0:
178,224,60894,1,8,0:0:0:0:
235,54,61095,1,0,0:0:0:0:
164,247,61297,5,2,0:0:0:0:
334,304,61498,1,0,0:0:0:0:
150,270,61699,1,8,0:0:0:0:
221,77,61901,1,0,0:0:0:0:
328,261,62102,1,2,0:0:0:0:
334,304,62203,1,8,0:0:0:0:
340,347,62304,1,2,0:0:0:0:
136,293,62505,1,8,0:0:0:0:
207,100,62706,1,0,0:0:0:0:
17,104,62908,6,0,P|63:130|116:136,1,107.999996704102,2|0,0:0|0:0,0:0:0:0:
207,100,63210,1,2,0:0:0:0:
243,123,63310,2,0,P|236:176|208:222,1,107.999996704102,8|0,0:0|0:0,0:0:0:0:
210,7,63713,1,2,0:0:0:0:
252,17,63814,1,8,0:0:0:0:
294,27,63914,1,2,0:0:0:0:
208,222,64116,1,8,0:0:0:0:
81,52,64317,1,0,0:0:0:0:
276,138,64518,6,0,P|329:133|374:105,1,107.999996704102,2|0,0:0|0:0,0:0:0:0:
81,52,64921,2,0,L|89:159,1,107.999996704102,8|0,0:0|0:0,0:0:0:0:
368,191,65324,1,2,0:0:0:0:
371,148,65425,1,8,0:0:0:0:
374,105,65525,1,2,0:0:0:0:
170,207,65726,1,8,0:0:0:0:
376,73,65928,5,8,0:0:0:0:
371,148,66028,1,8,0:0:0:0:
366,223,66129,6,0,B|203:246|203:246|170:206,1,215.999993408203,6|8,0:0|0:0,0:0:0:0:
276,85,66733,1,0,0:0:0:0:
72,177,66934,1,2,0:0:0:0:
76,220,67035,1,8,0:0:0:0:
80,263,67136,1,2,0:0:0:0:
295,190,67337,2,0,P|292:136|276:84,1,107.999996704102,8|0,0:0|0:0,0:0:0:0:
72,177,67740,5,2,0:0:0:0:
220,233,67942,1,0,0:0:0:0:
276,85,68142,1,8,0:0:0:0:
128,29,68344,1,0,0:0:0:0:
220,233,68545,2,0,L|274:233,1,53.9999983520508,2|8,0:0|0:0,0:0:0:0:
115,177,68746,2,0,L|61:177,1,53.9999983520508,2|0,0:0|0:0,0:0:0:0:
119,287,68948,1,8,0:0:0:0:
216,123,69149,1,0,0:0:0:0:
310,288,69351,6,0,L|313:341,1,53.9999983520508,6|8,0:0|0:0,0:0:0:0:
212,176,69552,2,0,L|215:122,1,53.9999983520508,2|0,0:0|0:0,0:0:0:0:
184,327,69753,1,8,0:0:0:0:
317,154,69955,1,0,0:0:0:0:
411,319,70156,2,0,L|414:372,1,53.9999983520508,6|8,0:0|0:0,0:0:0:0:
313,207,70357,2,0,L|316:153,1,53.9999983520508,2|0,0:0|0:0,0:0:0:0:
285,358,70558,1,8,0:0:0:0:
418,185,70760,1,0,0:0:0:0:
191,223,70961,6,0,B|115:234|115:234|87:219,1,107.999996704102,6|0,0:0|0:0,0:0:0:0:
239,147,71263,1,2,0:0:0:0:
277,169,71364,2,0,L|269:276,1,107.999996704102,8|8,0:0|0:0,0:0:0:0:
84,98,71767,1,4,0:0:0:0:
277,169,71968,1,4,0:0:0:0:
90,22,72169,5,8,0:0:0:0:
84,98,72270,1,8,0:0:0:0:
78,174,72371,1,8,0:0:0:0:
72,250,72471,1,8,0:0:0:0:
66,326,72572,6,0,B|105:359|105:359|194:357|257:304,1,215.999993408203,6|8,0:0|0:0,0:0:0:0:
335,167,73176,1,0,0:0:0:0:
120,156,73377,1,2,0:0:0:0:
126,199,73478,1,8,0:0:0:0:
132,242,73579,1,2,0:0:0:0:
257,304,73780,1,8,0:0:0:0:
198,136,73981,1,0,0:0:0:0:
69,317,74183,6,0,P|117:338|170:331,1,107.999996704102,2|0,0:0|0:0,0:0:0:0:
257,304,74485,1,2,0:0:0:0:
297,288,74585,1,8,0:0:0:0:
132,242,74787,1,0,0:0:0:0:
293,377,74988,1,2,0:0:0:0:
333,361,75089,1,8,0:0:0:0:
373,345,75189,1,2,0:0:0:0:
294,132,75391,1,8,0:0:0:0:
196,275,75592,1,0,0:0:0:0:
389,151,75793,6,0,P|384:97|353:55,1,107.999996704102,2|0,0:0|0:0,0:0:0:0:
294,132,76095,1,2,0:0:0:0:
297,176,76196,1,8,0:0:0:0:
470,195,76397,1,0,0:0:0:0:
203,146,76599,1,2,0:0:0:0:
206,190,76700,1,8,0:0:0:0:
209,234,76800,1,2,0:0:0:0:
352,54,77002,1,8,0:0:0:0:
286,213,77202,1,0,0:0:0:0:
470,195,77404,6,0,P|416:189|362:194,1,107.999996704102,2|0,0:0|0:0,0:0:0:0:
125,254,77807,1,8,0:0:0:0:
316,338,78008,1,8,0:0:0:0:
135,168,78210,1,2,0:0:0:0:
130,211,78310,1,8,0:0:0:0:
125,254,78411,1,2,0:0:0:0:
316,338,78612,1,8,0:0:0:0:
139,135,78814,5,8,0:0:0:0:
130,211,78914,1,8,0:0:0:0:
121,287,79015,6,0,P|209:345|316:338,1,215.999993408203,6|8,0:0|0:0,0:0:0:0:
250,187,79619,1,0,0:0:0:0:
469,131,79820,1,2,0:0:0:0:
473,174,79921,1,8,0:0:0:0:
477,217,80022,1,2,0:0:0:0:
250,187,80223,1,8,0:0:0:0:
388,50,80424,1,0,0:0:0:0:
481,260,80626,6,0,P|439:294|390:316,1,107.999996704102,2|0,0:0|0:0,0:0:0:0:
300,319,80928,1,2,0:0:0:0:
258,307,81028,1,8,0:0:0:0:
337,129,81230,1,0,0:0:0:0:
216,295,81431,2,0,L|222:348,1,53.9999983520508,2|8,0:0|0:0,0:0:0:0:
331,183,81632,2,0,L|337:129,1,53.9999983520508,2|0,0:0|0:0,0:0:0:0:
390,316,81834,1,8,0:0:0:0:
207,170,82035,1,0,0:0:0:0:
444,157,82236,6,0,L|497:165,1,53.9999983520508,6|8,0:0|0:0,0:0:0:0:
327,273,82438,2,0,L|273:264,1,53.9999983520508,2|0,0:0|0:0,0:0:0:0:
366,86,82638,1,8,0:0:0:0:
432,291,82840,1,0,0:0:0:0:
374,33,83041,2,0,L|366:86,1,53.9999983520508,6|8,0:0|0:0,0:0:0:0:
432,291,83243,2,0,L|440:237,1,53.9999983520508,2|0,0:0|0:0,0:0:0:0:
499,75,83444,1,8,0:0:0:0:
307,249,83646,1,0,0:0:0:0:
321,20,83847,6,0,L|373:32,1,53.9999983520508,6|0,0:0|0:0,0:0:0:0:
307,249,84048,2,0,L|254:236,1,53.9999983520508,2|0,0:0|0:0,0:0:0:0:
428,141,84250,2,0,L|415:193,1,53.9999983520508,10|0,0:0|0:0,0:0:0:0:
199,127,84451,2,0,L|211:74,1,53.9999983520508,2|0,0:0|0:0,0:0:0:0:
280,245,84653,2,0,L|267:297,1,53.9999983520508,6|0,0:0|0:0,0:0:0:0:
51,231,84854,2,0,L|63:178,1,53.9999983520508,2|0,0:0|0:0,0:0:0:0:
247,20,85055,5,10,0:0:0:0:
258,95,85156,1,10,0:0:0:0:
269,170,85257,1,10,0:0:0:0:
280,245,85357,1,10,0:0:0:0:
291,320,85458,5,2,0:0:0:0:
