osu file format v14

[General]
AudioFilename: audio.mp3
AudioLeadIn: 300
PreviewTime: 58780
Countdown: 0
SampleSet: Soft
StackLeniency: 0.7
Mode: 0
LetterboxInBreaks: 0
WidescreenStoryboard: 0

[Editor]
Bookmarks: 14585,29082,41968,59686,72572,85458
DistanceSpacing: 1
BeatDivisor: 2
GridSize: 4
TimelineZoom: 1.8

[Metadata]
Title:blue moment[TVsize ver.]
TitleUnicode:blue moment[TVsize ver.]
Artist:Sol/Lull BOB
ArtistUnicode:ソルラルBOB
Creator:Pata-Mon
Version:Madoka's Easy
Source:えとたま
Tags:Ultimate Madoka [ Abhor ] __Ag Etotama Anime OP opening moment tv size 村川梨衣 Murakawa Rie 大原さやか Oohara Sayaka 松井恵理子 Matsui Eriko 巽悠衣子 Tatsumi Yuiko 相坂優歌 Aisaka Yuuka 内田真礼 Uchida Maaya 生天目仁美 Yabatame Hitomi 小澤亜李 Ozawa Ari 渕上舞 Fuchigami Mai 戸田めぐみ T​o​d​a​ ​M​e​g​u​m​i 佐々木未来 Sasaki Mikoi 本多真梨子 Honda Mariko 花守ゆみり Hanamori Yumiri
BeatmapID:1094829
BeatmapSetID:513274

[Difficulty]
HPDrainRate:2
CircleSize:3
OverallDifficulty:2
ApproachRate:3
SliderMultiplier:1
SliderTickRate:1

[Events]
//Background and Video events
0,0,"BG.jpg",0,0
Video,-960,"video.flv"
//Break Periods
//Storyboard Layer 0 (Background)
//Storyboard Layer 1 (Fail)
//Storyboard Layer 2 (Pass)
//Storyboard Layer 3 (Foreground)
//Storyboard Sound Samples

[TimingPoints]
1700,402.684563758389,4,2,1,50,1,0
1700,-100,4,2,1,50,0,0
4921,-100,4,2,1,55,0,0
8142,-100,4,2,1,60,0,0
11364,-100,4,2,1,65,0,0
13780,-100,4,2,1,50,0,0
14183,-100,4,2,1,70,0,0
14585,-100,4,2,1,75,0,0
25861,-100,4,2,1,65,0,0
35525,-100,4,2,1,65,0,0
41968,-100,4,2,1,70,0,0
59686,-100,4,2,1,75,0,1
69351,-100,4,2,1,55,0,1
69451,-100,4,2,1,75,0,1
70156,-100,4,2,1,65,0,1
70257,-100,4,2,1,75,0,1
71767,-100,4,3,1,65,0,1
72169,-100,4,2,1,75,0,1
82236,-100,4,2,1,55,0,1
82337,-100,4,2,1,75,0,1
83042,-100,4,2,1,65,0,1
83142,-100,4,2,1,75,0,1
83847,-100,4,2,1,65,0,1
85458,-100,4,2,1,50,0,0

[Colours]
Combo1 : 225,225,64
Combo2 : 96,160,255
Combo3 : 255,128,255
Combo4 : 128,255,128

[HitObjects]
152,108,1700,6,0,P|248:76|348:88,1,200,2|0,0:0|0:0,0:0:0:0:
364,284,3310,2,0,P|268:316|168:304,1,200,2|0,0:0|0:0,0:0:0:0:
152,108,4921,5,2,0:0:0:0:
332,192,5726,1,0,0:0:0:0:
152,275,6532,2,0,P|50:191|152:107,1,300,2|2,0:0|0:0,0:0:0:0:
204,192,8142,5,2,0:0:0:0:
348,52,8948,2,0,L|376:172,1,100,2|0,0:0|0:0,0:0:0:0:
452,208,9753,2,0,L|444:316,1,100,2|0,0:0|0:0,0:0:0:0:
348,328,10559,6,0,P|255:360|161:329,1,200,0|2,0:0|0:0,0:0:0:0:
64,308,11767,2,0,L|56:208,1,100,0|0,0:0|0:0,0:0:0:0:
136,148,12572,1,2,0:0:0:0:
112,52,12975,1,2,0:0:0:0:
308,24,13780,6,0,P|384:88|492:72,1,200,2|6,0:0|0:0,0:0:0:0:
508,176,14988,1,8,0:0:0:0:
460,264,15391,2,0,P|384:256|316:264,1,100,2|8,0:0|0:0,0:0:0:0:
284,192,16196,2,0,P|214:223|159:264,1,100,2|8,0:0|0:0,0:0:0:0:
200,336,17002,6,0,P|102:343|28:280,1,200,2|2,0:0|0:0,0:0:0:0:
76,192,18210,1,8,0:0:0:0:
28,104,18612,2,0,P|102:40|199:48,1,200,2|2,0:0|0:0,0:0:0:0:
256,132,19820,1,8,0:0:0:0:
316,52,20223,2,0,L|424:44,1,100,2|8,0:0|0:0,0:0:0:0:
488,112,21028,6,0,P|484:232|488:256,1,100,6|8,0:0|0:0,0:0:0:0:
396,264,21834,2,0,P|328:228|268:216,1,100,2|8,0:0|0:0,0:0:0:0:
256,132,22639,2,0,P|179:134|121:154,1,100,2|8,0:0|0:0,0:0:0:0:
62,109,23444,5,2,0:0:0:0:
31,204,23846,1,8,0:0:0:0:
127,236,24250,2,0,P|144:300|132:360,1,100,6|10,0:0|0:0,0:0:0:0:
236,364,25055,2,0,L|356:356,1,100,6|8,0:0|0:0,0:0:0:0:
256,192,25861,12,6,27471,0:0:0:0:
108,48,29082,5,2,0:0:0:0:
256,36,29686,2,0,L|396:44,2,100,2|2|2,0:0|0:0|0:0,0:0:0:0:
376,196,31297,6,0,L|216:188,1,150,2|2,0:0|0:0,0:0:0:0:
128,184,32304,1,2,0:0:0:0:
172,328,32908,2,0,P|294:348|417:328,1,250,2|2,0:0|0:0,0:0:0:0:
113,67,35525,6,0,P|188:61|238:68,1,100,2|8,0:0|0:0,0:0:0:0:
301,108,36330,2,0,P|376:114|426:107,1,100,2|8,0:0|0:0,0:0:0:0:
460,192,37136,2,0,L|448:308,2,100,2|8|2,0:0|0:0|0:0,0:0:0:0:
360,200,38344,1,8,0:0:0:0:
348,299,38746,6,0,P|208:344|67:299,1,300,2|8,0:0|0:0,0:0:0:0:
32,204,40357,2,0,L|44:80,2,100,2|8|2,0:0|0:0|0:0,0:0:0:0:
132,220,41565,1,8,0:0:0:0:
160,124,41968,6,0,P|160:64|116:16,2,100,6|8|2,0:0|0:0|0:0,0:0:0:0:
256,152,43176,1,8,0:0:0:0:
352,124,43579,2,0,P|352:64|396:16,2,100,2|8|2,0:0|0:0|0:0,0:0:0:0:
256,152,44787,1,8,0:0:0:0:
324,224,45189,6,0,P|384:300|340:380,1,200,2|2,0:0|0:0,0:0:0:0:
256,324,46397,1,8,0:0:0:0:
172,380,46800,2,0,P|128:297|188:224,1,200,2|2,0:0|0:0,0:0:0:0:
160,124,48008,1,8,0:0:0:0:
212,36,48411,6,0,P|328:52|408:24,1,200,6|2,0:0|0:0,0:0:0:0:
500,60,49619,1,8,0:0:0:0:
424,124,50022,2,0,L|452:232,1,100,2|8,0:0|0:0,0:0:0:0:
356,252,50827,2,0,L|352:384,1,100,2|8,0:0|0:0,0:0:0:0:
256,324,51632,6,0,P|158:306|63:334,1,200,6|2,0:0|0:0,0:0:0:0:
4,252,52840,1,8,0:0:0:0:
72,180,53243,2,0,L|60:60,1,100,6|8,0:0|0:0,0:0:0:0:
160,108,54048,2,0,L|163:8,1,100,2|8,0:0|0:0,0:0:0:0:
256,44,54854,5,6,0:0:0:0:
348,8,55257,2,0,P|376:100|476:112,1,200,10|10,0:0|0:0,0:0:0:0:
256,192,56465,12,10,58075,0:0:0:0:
36,68,59686,6,0,L|156:60,1,100,6|8,0:0|0:0,0:0:0:0:
228,20,60491,2,0,P|304:32|344:56,1,100,2|8,0:0|0:0,0:0:0:0:
420,8,61297,2,0,P|479:56|502:97,1,100,2|8,0:0|0:0,0:0:0:0:
428,152,62102,6,0,P|484:232|408:328,1,200,2|2,0:0|0:0,0:0:0:0:
343,334,63310,1,8,0:0:0:0:
256,284,63713,2,0,L|128:292,1,100,2|8,0:0|0:0,0:0:0:0:
172,192,64518,2,0,L|60:188,2,100,2|8|2,0:0|0:0|0:0,0:0:0:0:
256,136,65726,1,8,0:0:0:0:
340,192,66129,6,0,L|452:188,1,100,6|8,0:0|0:0,0:0:0:0:
512,116,66934,2,0,P|476:64|420:40,1,100,2|8,0:0|0:0,0:0:0:0:
344,52,67740,2,0,P|292:56|232:28,1,100,2|8,0:0|0:0,0:0:0:0:
154,3,68545,6,0,P|75:68|107:176,1,200,2|6,0:0|0:0,0:0:0:0:
170,101,69753,1,8,0:0:0:0:
216,188,70156,2,0,L|192:308,1,100,6|8,0:0|0:0,0:0:0:0:
255,366,70961,1,6,0:0:0:0:
352,192,71767,6,0,P|404:200|480:176,1,100,4|8,0:0|0:0,0:0:0:0:
492,100,72572,1,6,0:0:0:0:
304,28,73377,6,0,P|232:24|184:36,1,100,2|8,0:0|0:0,0:0:0:0:
212,128,74183,2,0,P|147:160|112:194,1,100,2|8,0:0|0:0,0:0:0:0:
196,252,74988,6,0,P|180:344|76:376,1,200,2|2,0:0|0:0,0:0:0:0:
16,312,76196,1,8,0:0:0:0:
32,212,76599,2,0,L|12:96,1,100,2|8,0:0|0:0,0:0:0:0:
92,48,77404,2,0,P|180:88|256:24,1,200,2|2,0:0|0:0,0:0:0:0:
352,56,78612,1,8,0:0:0:0:
452,36,79015,6,0,L|464:152,1,100,6|8,0:0|0:0,0:0:0:0:
484,232,79820,2,0,P|440:256|384:256,1,100,2|8,0:0|0:0,0:0:0:0:
348,348,80626,2,0,P|297:346|249:318,1,100,2|8,0:0|0:0,0:0:0:0:
156,348,81431,6,0,L|136:244,1,100,2|8,0:0|0:0,0:0:0:0:
166,153,82236,2,0,P|255:115|345:150,1,200,6|6,0:0|0:0,0:0:0:0:
374,249,83444,1,8,0:0:0:0:
256,192,83847,12,2,85458,0:0:0:0:
