osu file format v14

[General]
AudioFilename: audio.mp3
AudioLeadIn: 300
PreviewTime: 58780
Countdown: 0
SampleSet: Soft
StackLeniency: 0.7
Mode: 0
LetterboxInBreaks: 0
WidescreenStoryboard: 0

[Editor]
Bookmarks: 14585,29082,41968,59686,72572,85458
DistanceSpacing: 1.2
BeatDivisor: 4
GridSize: 32
TimelineZoom: 1

[Metadata]
Title:blue moment[TVsize ver.]
TitleUnicode:blue moment[TVsize ver.]
Artist:Sol/Lull BOB
ArtistUnicode:ソルラルBOB
Creator:Pata-Mon
Version:Hard
Source:えとたま
Tags:Ultimate Madoka [ Abhor ] __Ag Etotama Anime OP opening moment tv size 村川梨衣 Murakawa Rie 大原さやか Oohara Sayaka 松井恵理子 Matsui Eriko 巽悠衣子 Tatsumi Yuiko 相坂優歌 Aisaka Yuuka 内田真礼 Uchida Maaya 生天目仁美 Yabatame Hitomi 小澤亜李 Ozawa Ari 渕上舞 Fuchigami Mai 戸田めぐみ T​o​d​a​ ​M​e​g​u​m​i 佐々木未来 Sasaki Mikoi 本多真梨子 Honda Mariko 花守ゆみり Hanamori Yumiri
BeatmapID:1090654
BeatmapSetID:513274

[Difficulty]
HPDrainRate:5
CircleSize:3.8
OverallDifficulty:6
ApproachRate:7
SliderMultiplier:1.5
SliderTickRate:1

[Events]
//Background and Video events
0,0,"BG.jpg",0,0
Video,-960,"video.flv"
//Break Periods
//Storyboard Layer 0 (Background)
//Storyboard Layer 1 (Fail)
//Storyboard Layer 2 (Pass)
//Storyboard Layer 3 (Foreground)
//Storyboard Sound Samples

[TimingPoints]
1700,402.684563758389,4,2,1,50,1,0
1700,-125,4,2,1,50,0,0
4921,-125,4,2,1,55,0,0
8142,-125,4,2,1,60,0,0
11364,-125,4,2,1,65,0,0
14585,-100,4,2,1,75,0,0
27069,-100,4,2,1,65,0,0
29082,-125,4,2,1,65,0,0
35525,-111.111111111111,4,2,1,70,0,0
41968,-100,4,2,1,70,0,0
58881,-100,4,2,1,70,0,0
59686,-83.3333333333333,4,2,1,75,0,1
69351,-83.3333333333333,4,2,1,55,0,1
69451,-83.3333333333333,4,2,1,75,0,1
70156,-83.3333333333333,4,2,1,65,0,1
70257,-83.3333333333333,4,2,1,75,0,1
71767,-83.3333333333333,4,3,1,65,0,1
72169,-83.3333333333333,4,2,1,75,0,1
82236,-83.3333333333333,4,2,1,55,0,1
82337,-83.3333333333333,4,2,1,75,0,1
83042,-83.3333333333333,4,2,1,65,0,1
83142,-83.3333333333333,4,2,1,75,0,1
85055,-83.3333333333333,4,2,1,65,0,1
85458,-100,4,2,1,50,0,0

[Colours]
Combo1 : 225,225,64
Combo2 : 96,160,255
Combo3 : 255,128,255
Combo4 : 128,255,128

[HitObjects]
383,366,1700,6,0,P|397:307|401:248,1,120,2|0,0:0|0:0,0:0:0:0:
243,115,2505,2,0,L|249:175,1,60,2|0,0:0|0:0,0:0:0:0:
316,74,2908,2,0,L|322:7,1,60
186,52,3310,6,0,P|126:50|67:38,1,120,2|0,0:0|0:0,0:0:0:0:
0,219,4116,2,0,L|7:278,2,60,2|0|0,0:0|0:0|0:0,0:0:0:0:
13,135,4720,1,0,0:0:0:0:
86,94,4921,6,0,P|144:106|191:142,1,120,2|0,0:0|0:0,0:0:0:0:
230,326,5726,2,0,P|172:313|125:278,1,120,2|0,0:0|0:0,0:0:0:0:
124,193,6330,1,0,0:0:0:0:
191,142,6532,6,0,P|249:154|296:190,1,120,2|0,0:0|0:0,0:0:0:0:
297,275,7136,1,0,0:0:0:0:
373,311,7337,1,2,0:0:0:0:
171,325,7740,1,2,0:0:0:0:
449,347,8142,6,0,L|457:227,1,120,2|0,0:0|0:0,0:0:0:0:
492,150,8746,1,0,0:0:0:0:
428,39,8948,2,0,L|424:99,1,60,2|0,0:0|0:0,0:0:0:0:
343,65,9351,2,0,L|283:58,1,60,0|0,0:0|0:0,0:0:0:0:
186,32,9753,6,0,P|192:89|151:131,1,120,2|0,0:0|0:0,0:0:0:0:
19,277,10559,2,0,L|78:283,1,60,2|0,0:0|0:0,0:0:0:0:
133,220,10961,2,0,L|192:213,1,60
279,128,11364,6,0,L|275:247,1,120,2|0,0:0|0:0,0:0:0:0:
442,357,12169,2,0,L|438:237,1,120,2|0,0:0|0:0,0:0:0:0:
437,153,12773,1,0,0:0:0:0:
356,261,12975,6,0,L|296:265,1,60,2|0,0:0|0:0,0:0:0:0:
228,215,13377,2,0,L|168:210,1,60,0|0,0:0|0:0,0:0:0:0:
90,242,13780,1,2,0:0:0:0:
90,242,14183,2,0,L|90:302,1,60,2|0,0:0|0:0,0:0:0:0:
168,210,14585,6,0,P|178:136|160:63,1,150,6|8,0:0|0:0,0:0:0:0:
77,12,15189,1,0,0:0:0:0:
6,79,15391,2,0,L|12:153,1,75,2|2,0:0|0:0,0:0:0:0:
1,250,15793,1,8,0:0:0:0:
91,212,15995,1,0,0:0:0:0:
131,300,16196,6,0,P|202:321|276:312,1,150,2|8,0:0|0:0,0:0:0:0:
364,270,16800,1,0,0:0:0:0:
445,215,17002,2,0,L|455:250,2,37.5,2|8|2,0:0|0:0|0:0,0:0:0:0:
377,144,17404,2,0,L|383:69,1,75,8|0,0:0|0:0,0:0:0:0:
301,15,17807,6,0,P|228:21|180:76,1,150,2|8,0:0|0:0,0:0:0:0:
265,244,18612,2,0,P|296:177|272:108,1,150,2|8,0:0|0:0,0:0:0:0:
180,76,19216,1,0,0:0:0:0:
85,98,19418,6,0,P|127:158|199:172,1,150,2|8,0:0|0:0,0:0:0:0:
371,42,20223,2,0,L|376:4,2,37.5,2|8|2,0:0|0:0|0:0,0:0:0:0:
465,68,20626,1,8,0:0:0:0:
404,144,20827,1,8,0:0:0:0:
404,144,20928,1,8,0:0:0:0:
404,144,21028,6,0,B|401:225|437:209|434:288,1,150,6|8,0:0|0:0,0:0:0:0:
386,374,21632,1,0,0:0:0:0:
322,300,21834,2,0,L|319:262,2,37.5,2|8|2,0:0|0:0|0:0,0:0:0:0:
239,351,22236,2,0,L|164:343,1,75,8|0,0:0|0:0,0:0:0:0:
32,325,22639,6,0,B|65:300|65:300|52:248|60:191,1,150,2|8,0:0|0:0,0:0:0:0:
104,104,23243,1,0,0:0:0:0:
191,146,23444,1,2,0:0:0:0:
191,146,23545,1,8,0:0:0:0:
191,146,23646,1,2,0:0:0:0:
268,87,23847,2,0,P|299:107|335:116,1,75,8|2,0:0|0:0,0:0:0:0:
440,55,24250,6,0,B|419:83|419:83|416:198,1,150,6|10,0:0|0:0,0:0:0:0:
416,296,24854,1,2,0:0:0:0:
498,347,25055,2,0,L|500:384,2,37.5,6|8|2,0:0|0:0|0:0,0:0:0:0:
416,296,25458,1,8,0:0:0:0:
332,345,25659,1,2,0:0:0:0:
255,285,25861,6,0,P|217:283|180:287,1,75,6|0,0:0|0:0,0:0:0:0:
87,317,26263,1,10,0:0:0:0:
29,238,26465,1,10,0:0:0:0:
87,160,26666,2,0,P|95:123|98:86,1,75,6|2,0:0|0:0,0:0:0:0:
186,43,27069,2,0,L|222:50,3,37.5,10|10|10|10,0:0|0:0|0:0|0:0,0:0:0:0:
271,47,27471,5,6,0:0:0:0:
136,177,29082,6,0,P|107:167|77:163,2,60,2|0|0,0:0|0:0|0:0,0:0:0:0:
188,243,29686,2,0,P|247:236|304:218,1,120,2|2,0:0|0:0,0:0:0:0:
379,138,30290,2,0,L|386:197,1,60,0|2,0:0|0:0,0:0:0:0:
420,292,30693,6,0,P|360:298|303:316,1,120,2|0,0:0|0:0,0:0:0:0:
236,368,31297,2,0,P|176:361|119:343,1,120,2|0,0:0|0:0,0:0:0:0:
70,274,31901,1,2,0:0:0:0:
70,274,32304,6,0,P|84:216|77:156,1,120,2|0,0:0|0:0,0:0:0:0:
36,83,32908,1,2,0:0:0:0:
36,83,33310,2,0,L|95:73,2,60,2|0|0,0:0|0:0|0:0,0:0:0:0:
156,131,33914,6,0,P|214:145|273:146,1,120,2|0,0:0|0:0,0:0:0:0:
296,227,34518,2,0,P|354:212|413:211,1,120,2|0,0:0|0:0,0:0:0:0:
489,248,35122,1,2,0:0:0:0:
489,248,35525,6,0,L|480:315,2,67.4999979400635,2|0|8,0:0|0:0|0:0,0:0:0:0:
385,298,36129,2,0,L|393:365,1,67.4999979400635,0|2,0:0|0:0,0:0:0:0:
413,211,36532,2,0,L|404:143,1,67.4999979400635,0|8,0:0|0:0,0:0:0:0:
348,72,36934,1,0,0:0:0:0:
277,129,37136,6,0,P|210:140|144:131,1,134.999995880127,2|8,0:0|0:0,0:0:0:0:
60,95,37740,1,0,0:0:0:0:
0,163,37941,2,0,L|6:230,1,67.4999979400635,2|0,0:0|0:0,0:0:0:0:
65,299,38344,1,8,0:0:0:0:
65,299,38746,6,0,P|131:288|198:286,1,134.999995880127,2|8,0:0|0:0,0:0:0:0:
269,227,39351,2,0,P|302:230|334:240,1,67.4999979400635,0|2,0:0|0:0,0:0:0:0:
371,323,39753,1,0,0:0:0:0:
462,314,39955,1,8,0:0:0:0:
481,225,40156,1,0,0:0:0:0:
402,179,40357,6,0,P|399:145|405:112,2,67.4999979400635,2|0|8,0:0|0:0|0:0,0:0:0:0:
481,225,40961,1,0,0:0:0:0:
462,314,41163,2,0,P|396:326|331:308,1,134.999995880127,2|8,0:0|0:0,0:0:0:0:
406,105,41968,6,0,P|408:142|402:179,1,75,6|0,0:0|0:0,0:0:0:0:
321,219,42371,2,0,P|285:207|248:205,1,75,8|0,0:0|0:0,0:0:0:0:
176,260,42773,1,2,0:0:0:0:
176,260,42874,1,8,0:0:0:0:
176,260,42975,2,0,P|138:258|102:246,1,75,2|8,0:0|0:0,0:0:0:0:
37,184,43377,1,0,0:0:0:0:
37,184,43579,5,2,0:0:0:0:
94,114,43780,2,0,L|90:39,1,75,0|8,0:0|0:0,0:0:0:0:
185,85,44183,2,0,L|181:159,1,75,0|2,0:0|0:0,0:0:0:0:
132,236,44585,1,2,0:0:0:0:
132,236,44787,1,8,0:0:0:0:
132,236,45189,6,0,P|201:262|275:259,1,150,2|8,0:0|0:0,0:0:0:0:
361,228,45793,1,2,0:0:0:0:
442,265,45995,2,0,L|446:302,2,37.5,2|8|2,0:0|0:0|0:0,0:0:0:0:
361,228,46397,2,0,P|355:190|357:153,1,75,8|0,0:0|0:0,0:0:0:0:
401,74,46800,6,0,L|437:66,2,37.5,2|8|0,0:0|0:0|0:0,0:0:0:0:
327,21,47203,2,0,P|290:14|252:17,1,75,8|0,0:0|0:0,0:0:0:0:
167,45,47606,2,0,L|129:40,2,37.5,2|8|2,0:0|0:0|0:0,0:0:0:0:
184,133,48008,1,8,0:0:0:0:
117,193,48210,1,8,0:0:0:0:
117,193,48310,1,8,0:0:0:0:
117,193,48411,6,0,L|131:266,1,75,6|0,0:0|0:0,0:0:0:0:
107,354,48814,1,8,0:0:0:0:
194,331,49015,2,0,L|267:345,1,75,0|2,0:0|0:0,0:0:0:0:
356,359,49418,2,0,L|342:286,1,75,2|8,0:0|0:0,0:0:0:0:
370,200,49820,1,0,0:0:0:0:
370,200,50022,5,2,0:0:0:0:
289,160,50223,2,0,P|251:162|215:172,1,75,0|8,0:0|0:0,0:0:0:0:
138,220,50626,1,0,0:0:0:0:
89,295,50827,1,2,0:0:0:0:
89,295,50928,1,8,0:0:0:0:
89,295,51028,2,0,L|51:291,2,37.5,2|0|8,0:0|0:0|0:0,0:0:0:0:
138,56,51632,6,0,P|147:92|149:129,1,75,6|0,0:0|0:0,0:0:0:0:
138,220,52035,1,8,0:0:0:0:
89,295,52236,2,0,L|51:291,2,37.5,2|8|2,0:0|0:0|0:0,0:0:0:0:
138,220,52639,2,0,P|174:211|211:211,1,75,0|8,0:0|0:0,0:0:0:0:
298,236,53042,1,0,0:0:0:0:
356,303,53243,5,6,0:0:0:0:
356,303,53444,2,0,L|347:377,1,75,2|8,0:0|0:0,0:0:0:0:
445,313,53847,2,0,L|436:239,1,75,0|2,0:0|0:0,0:0:0:0:
464,203,54149,1,8,0:0:0:0:
464,203,54250,1,2,0:0:0:0:
382,166,54451,2,0,P|344:167|307:174,1,75,8|0,0:0|0:0,0:0:0:0:
241,235,54854,5,6,0:0:0:0:
162,192,55055,1,2,0:0:0:0:
96,253,55257,1,10,0:0:0:0:
17,210,55458,1,2,0:0:0:0:
34,121,55659,2,0,L|29:83,3,37.5,6|0|2|0,0:0|0:0|0:0|0:0,0:0:0:0:
72,71,56062,2,0,L|76:33,3,37.5,10|0|2|0,0:0|0:0|0:0|0:0,0:0:0:0:
120,25,56465,5,10,0:0:0:0:
256,192,56565,12,6,58075,0:0:0:0:
133,45,58881,6,0,P|148:118|152:193,1,150,2|0,0:0|0:0,0:0:0:0:
352,95,59686,6,0,P|335:183|332:273,1,179.999994506836,6|8,0:0|0:0,0:0:0:0:
373,373,60290,1,0,0:0:0:0:
266,359,60491,2,0,L|221:366,2,44.999998626709,2|8|2,0:0|0:0|0:0,0:0:0:0:
332,273,60894,1,8,0:0:0:0:
291,173,61095,1,0,0:0:0:0:
387,123,61297,6,0,P|393:210|332:273,1,179.999994506836,2|8,0:0|0:0,0:0:0:0:
291,173,61901,1,0,0:0:0:0:
191,213,62102,1,2,0:0:0:0:
191,213,62203,1,8,0:0:0:0:
191,213,62304,1,2,0:0:0:0:
96,160,62505,2,0,P|84:116|80:71,1,89.9999972534181,8|0,0:0|0:0,0:0:0:0:
172,13,62908,6,0,P|215:24|259:23,1,89.9999972534181,2|0,0:0|0:0,0:0:0:0:
234,151,63310,2,0,P|277:139|315:115,1,89.9999972534181,8|0,0:0|0:0,0:0:0:0:
412,164,63713,2,0,L|392:204,2,44.999998626709,2|8|2,0:0|0:0|0:0,0:0:0:0:
408,56,64116,1,8,0:0:0:0:
502,3,64317,1,0,0:0:0:0:
508,111,64518,6,0,B|510:165|510:165|454:277,1,179.999994506836,2|8,0:0|0:0,0:0:0:0:
394,368,65122,1,0,0:0:0:0:
297,318,65324,1,2,0:0:0:0:
297,318,65424,1,8,0:0:0:0:
297,318,65525,1,2,0:0:0:0:
194,351,65726,2,0,P|149:351|105:341,1,89.9999972534181,8|8,0:0|0:0,0:0:0:0:
52,328,66028,1,8,0:0:0:0:
52,328,66129,6,0,B|35:279|35:279|61:224|43:153,1,179.999994506836,6|8,0:0|0:0,0:0:0:0:
5,51,66733,1,0,0:0:0:0:
111,70,66934,1,2,0:0:0:0:
111,70,67035,1,8,0:0:0:0:
111,70,67136,1,2,0:0:0:0:
149,171,67337,2,0,L|237:155,1,89.9999972534181,8|0,0:0|0:0,0:0:0:0:
329,97,67740,6,0,B|370:164|317:210|351:271,1,179.999994506836,2|8,0:0|0:0,0:0:0:0:
415,359,68344,1,0,0:0:0:0:
465,263,68545,2,0,L|448:222,2,44.999998626709,2|8|2,0:0|0:0|0:0,0:0:0:0:
415,359,68948,1,8,0:0:0:0:
351,271,69149,1,0,0:0:0:0:
357,163,69351,6,0,L|340:122,2,44.999998626709,6|8|2,0:0|0:0|0:0,0:0:0:0:
260,211,69753,2,0,P|216:220|171:223,1,89.9999972534181,8|0,0:0|0:0,0:0:0:0:
66,195,70156,2,0,L|21:202,2,44.999998626709,6|8|2,0:0|0:0|0:0,0:0:0:0:
94,300,70559,2,0,P|50:309|5:313,1,89.9999972534181,8|0,0:0|0:0,0:0:0:0:
171,223,70961,6,0,P|215:226|259:235,1,89.9999972534181,6|0,0:0|0:0,0:0:0:0:
318,326,71364,1,8,0:0:0:0:
422,299,71565,1,8,0:0:0:0:
312,164,71767,2,0,P|281:196|259:236,1,89.9999972534181,4|4,0:0|0:0,0:0:0:0:
318,326,72169,2,0,L|299:367,3,44.999998626709,8|8|8|8,0:0|0:0|0:0|0:0,0:0:0:0:
249,347,72572,6,0,B|201:340|201:340|135:364|73:327,1,179.999994506836,6|8,0:0|0:0,0:0:0:0:
20,235,73176,1,0,0:0:0:0:
82,147,73377,2,0,L|125:157,2,44.999998626709,2|8|2,0:0|0:0|0:0,0:0:0:0:
6,68,73780,1,8,0:0:0:0:
93,4,73981,1,0,0:0:0:0:
186,60,74183,6,0,B|258:79|294:46|365:64,1,179.999994506836,2|8,0:0|0:0,0:0:0:0:
467,97,74787,1,0,0:0:0:0:
415,191,74988,1,2,0:0:0:0:
415,191,75089,1,8,0:0:0:0:
415,191,75189,1,2,0:0:0:0:
467,97,75391,2,0,L|472:7,1,89.9999972534181,8|0,0:0|0:0,0:0:0:0:
364,64,75793,6,0,P|325:87|297:122,1,89.9999972534181,2|0,0:0|0:0,0:0:0:0:
162,187,76196,2,0,P|200:209|245:216,1,89.9999972534181,8|0,0:0|0:0,0:0:0:0:
353,214,76599,1,2,0:0:0:0:
353,214,76699,1,8,0:0:0:0:
353,214,76800,1,2,0:0:0:0:
297,121,77002,1,8,0:0:0:0:
245,216,77203,1,0,0:0:0:0:
301,309,77404,6,0,P|224:353|135:351,1,179.999994506836,2|8,0:0|0:0,0:0:0:0:
34,310,78008,1,8,0:0:0:0:
42,202,78210,2,0,L|-1:188,2,44.999998626709,2|8|2,0:0|0:0|0:0,0:0:0:0:
147,177,78612,1,8,0:0:0:0:
204,269,78814,1,8,0:0:0:0:
204,269,78914,1,8,0:0:0:0:
204,269,79015,6,0,P|293:280|382:271,1,179.999994506836,6|8,0:0|0:0,0:0:0:0:
488,246,79619,1,0,0:0:0:0:
457,349,79820,1,2,0:0:0:0:
457,349,79921,1,8,0:0:0:0:
457,349,80021,1,2,0:0:0:0:
382,271,80223,2,0,P|380:226|397:184,1,89.9999972534181,8|0,0:0|0:0,0:0:0:0:
468,90,80626,6,0,P|378:92|289:78,1,179.999994506836,2|8,0:0|0:0,0:0:0:0:
185,48,81230,1,0,0:0:0:0:
91,101,81431,2,0,L|46:95,2,44.999998626709,2|8|2,0:0|0:0|0:0,0:0:0:0:
124,203,81834,1,8,0:0:0:0:
87,304,82035,1,0,0:0:0:0:
193,286,82236,6,0,L|193:331,2,44.999998626709,6|8|2,0:0|0:0|0:0,0:0:0:0:
299,304,82639,2,0,P|339:324|383:332,1,89.9999972534181,8|0,0:0|0:0,0:0:0:0:
491,322,83042,2,0,L|491:367,2,44.999998626709,6|8|2,0:0|0:0|0:0,0:0:0:0:
429,234,83444,2,0,P|431:189|444:146,1,89.9999972534181,8|0,0:0|0:0,0:0:0:0:
346,51,83847,6,0,P|309:133|296:221,1,179.999994506836,6|10,0:0|0:0,0:0:0:0:
303,330,84451,1,2,0:0:0:0:
192,255,84653,2,0,B|178:284|178:284|195:339,1,89.9999972534181,6|2,0:0|0:0,0:0:0:0:
303,330,85055,2,0,L|347:338,3,44.999998626709,10|10|10|10,0:0|0:0|0:0|0:0,0:0:0:0:
390,326,85458,5,2,0:0:0:0:
