osu file format v14

[General]
AudioFilename: audio.mp3
AudioLeadIn: 300
PreviewTime: 58780
Countdown: 0
SampleSet: Soft
StackLeniency: 0.7
Mode: 0
LetterboxInBreaks: 0
WidescreenStoryboard: 0

[Editor]
Bookmarks: 14585,29082,41968,59686,72572,85458
DistanceSpacing: 1
BeatDivisor: 4
GridSize: 4
TimelineZoom: 1.9

[Metadata]
Title:blue moment[TVsize ver.]
TitleUnicode:blue moment[TVsize ver.]
Artist:Sol/Lull BOB
ArtistUnicode:ソルラルBOB
Creator:Pata-Mon
Version:Ag's Insane
Source:えとたま
Tags:Ultimate Madoka [ Abhor ] __Ag Etotama Anime OP opening moment tv size 村川梨衣 Murakawa Rie 大原さやか Oohara Sayaka 松井恵理子 Matsui Eriko 巽悠衣子 Tatsumi Yuiko 相坂優歌 Aisaka Yuuka 内田真礼 Uchida Maaya 生天目仁美 Yabatame Hitomi 小澤亜李 Ozawa Ari 渕上舞 Fuchigami Mai 戸田めぐみ T​o​d​a​ ​M​e​g​u​m​i 佐々木未来 Sasaki Mikoi 本多真梨子 Honda Mariko 花守ゆみり Hanamori Yumiri
BeatmapID:1090652
BeatmapSetID:513274

[Difficulty]
HPDrainRate:6
CircleSize:4
OverallDifficulty:7
ApproachRate:8.5
SliderMultiplier:1.6
SliderTickRate:1

[Events]
//Background and Video events
0,0,"BG.jpg",0,0
Video,-960,"video.flv"
//Break Periods
//Storyboard Layer 0 (Background)
//Storyboard Layer 1 (Fail)
//Storyboard Layer 2 (Pass)
//Storyboard Layer 3 (Foreground)
//Storyboard Sound Samples

[TimingPoints]
1700,402.684563758389,4,2,1,50,1,0
1700,-100,4,2,1,50,0,0
4921,-100,4,2,1,55,0,0
7337,-125,4,2,1,55,0,0
7639,-125,4,2,1,5,0,0
7740,-125,4,2,1,55,0,0
8042,-125,4,2,1,5,0,0
8142,-100,4,2,1,60,0,0
11364,-100,4,2,1,65,0,0
13780,-125,4,2,1,50,0,0
14082,-125,4,2,1,5,0,0
14183,-111.111111111111,4,2,1,70,0,0
14485,-83.3333333333333,4,2,1,5,0,0
14585,-100,4,2,1,75,0,0
27069,-100,4,2,1,65,0,0
29082,-125,4,2,1,65,0,0
35525,-111.111111111111,4,2,1,70,0,0
41968,-100,4,2,1,70,0,0
58881,-125,4,2,1,50,0,0
59585,-166.666666666667,4,2,1,5,0,0
59686,-83.3333333333333,4,2,1,75,0,1
69351,-83.3333333333333,4,2,1,55,0,1
69451,-83.3333333333333,4,2,1,75,0,1
70156,-83.3333333333333,4,2,1,65,0,1
70257,-83.3333333333333,4,2,1,75,0,1
71767,-83.3333333333333,4,3,1,65,0,1
72169,-83.3333333333333,4,2,1,75,0,1
82236,-83.3333333333333,4,2,1,55,0,1
82337,-83.3333333333333,4,2,1,75,0,1
83042,-83.3333333333333,4,2,1,65,0,1
83142,-83.3333333333333,4,2,1,75,0,1
85055,-83.3333333333333,4,2,1,65,0,1
85458,-100,4,2,1,50,0,0

[Colours]
Combo1 : 225,225,64
Combo2 : 96,160,255
Combo3 : 255,128,255
Combo4 : 128,255,128

[HitObjects]
112,160,1700,6,0,L|92:248,1,80,2|0,0:0|0:0,0:0:0:0:
420,308,2304,1,2,0:0:0:0:
460,216,2505,2,0,P|417:205|361:236,1,80,2|0,0:0|0:0,0:0:0:0:
297,267,2908,2,0,L|306:176,1,80,0|0,0:0|0:0,0:0:0:0:
317,87,3310,5,2,0:0:0:0:
233,57,3512,1,0,0:0:0:0:
146,75,3713,1,0,0:0:0:0:
84,138,3914,1,2,0:0:0:0:
85,227,4116,2,0,L|91:313,1,80,2|0,0:0|0:0,0:0:0:0:
154,169,4518,2,0,P|119:143|56:143,1,80,0|0,0:0|0:0,0:0:0:0:
0,188,4921,5,2,0:0:0:0:
246,348,5324,2,0,L|329:316,1,80,2|0,0:0|0:0,0:0:0:0:
256,235,5726,2,0,L|323:176,1,80
227,124,6129,2,0,L|270:46,1,80,2|0,0:0|0:0,0:0:0:0:
349,22,6532,1,2,0:0:0:0:
368,108,6733,1,0,0:0:0:0:
386,194,6934,1,0,0:0:0:0:
402,282,7136,1,2,0:0:0:0:
482,156,7337,6,0,L|469:271,1,96,2|0,0:0|0:0,0:0:0:0:
402,282,7740,2,0,P|354:293|306:281,1,96,2|0,0:0|0:0,0:0:0:0:
251,236,8142,5,2,0:0:0:0:
54,65,8545,2,0,L|138:54,1,80,2|0,0:0|0:0,0:0:0:0:
233,43,8948,1,2,0:0:0:0:
301,110,9149,1,0,0:0:0:0:
361,33,9351,1,0,0:0:0:0:
418,110,9552,1,0,0:0:0:0:
480,20,9753,6,0,P|515:57|522:97,1,80,2|0,0:0|0:0,0:0:0:0:
464,328,10357,1,2,0:0:0:0:
373,296,10559,2,0,L|294:268,1,80,2|0,0:0|0:0,0:0:0:0:
228,198,10961,2,0,P|263:177|312:173,1,80
288,350,11364,5,2,0:0:0:0:
124,192,11767,2,0,P|78:209|52:239,1,80,2|0,0:0|0:0,0:0:0:0:
154,107,12169,2,0,P|108:90|69:96,1,80,0|0,0:0|0:0,0:0:0:0:
233,62,12572,2,0,P|208:19|174:0,1,80,2|0,0:0|0:0,0:0:0:0:
240,143,12975,1,2,0:0:0:0:
240,143,13377,1,0,0:0:0:0:
193,228,13579,1,0,0:0:0:0:
289,239,13780,6,0,B|291:215|291:215|332:188|328:131,1,96,2|0,0:0|0:0,0:0:0:0:
350,83,14183,2,0,P|396:123|392:191,1,107.999996704102,2|0,0:0|0:0,0:0:0:0:
372,239,14585,5,6,0:0:0:0:
476,164,14787,1,0,0:0:0:0:
413,314,14988,2,0,P|375:326|325:308,1,80,8|0,0:0|0:0,0:0:0:0:
248,220,15391,1,2,0:0:0:0:
240,232,15491,1,8,0:0:0:0:
232,244,15592,1,2,0:0:0:0:
172,324,15793,1,8,0:0:0:0:
120,200,15995,1,0,0:0:0:0:
48,304,16196,6,0,P|-4:248|4:160,1,160,2|8,0:0|0:0,0:0:0:0:
80,72,16800,1,0,0:0:0:0:
104,224,17002,1,2,0:0:0:0:
112,212,17102,1,8,0:0:0:0:
120,200,17203,1,2,0:0:0:0:
184,96,17404,2,0,L|264:92,1,80,8|0,0:0|0:0,0:0:0:0:
396,112,17807,6,0,P|368:200|296:228,1,160,2|8,0:0|0:0,0:0:0:0:
216,156,18411,1,0,0:0:0:0:
183,257,18612,1,2,0:0:0:0:
196,249,18713,1,8,0:0:0:0:
209,241,18814,1,2,0:0:0:0:
317,142,19015,1,8,0:0:0:0:
326,337,19216,1,0,0:0:0:0:
326,337,19418,6,0,P|256:363|160:313,1,160,2|8,0:0|0:0,0:0:0:0:
117,230,20022,1,0,0:0:0:0:
80,356,20223,1,2,0:0:0:0:
72,344,20324,1,8,0:0:0:0:
64,332,20424,1,2,0:0:0:0:
0,232,20626,1,8,0:0:0:0:
144,152,20827,2,0,L|96:144,1,40,8|8,0:0|0:0,0:0:0:0:
36,112,21028,6,0,P|40:48|60:20,1,80,6|0,0:0|0:0,0:0:0:0:
220,124,21431,2,0,P|216:188|196:216,1,80,8|0,0:0|0:0,0:0:0:0:
124,288,21834,1,2,0:0:0:0:
136,296,21934,1,8,0:0:0:0:
148,304,22035,1,2,0:0:0:0:
248,372,22236,1,8,0:0:0:0:
312,256,22438,1,0,0:0:0:0:
388,364,22639,6,0,P|420:336|432:288,1,80,2|0,0:0|0:0,0:0:0:0:
296,144,23042,2,0,P|264:172|252:220,1,80,8|0,0:0|0:0,0:0:0:0:
289,352,23444,1,2,0:0:0:0:
278,343,23545,1,8,0:0:0:0:
268,333,23646,1,2,0:0:0:0:
144,256,23847,2,0,L|64:244,1,80,8|2,0:0|0:0,0:0:0:0:
20,128,24250,6,0,L|44:40,1,80,6|2,0:0|0:0,0:0:0:0:
152,16,24653,2,0,P|196:8|240:20,1,80,10|2,0:0|0:0,0:0:0:0:
292,120,25055,1,6,0:0:0:0:
304,112,25156,1,8,0:0:0:0:
312,100,25257,1,2,0:0:0:0:
192,96,25458,1,8,0:0:0:0:
276,196,25659,1,2,0:0:0:0:
308,20,25861,5,6,0:0:0:0:
400,116,26062,1,0,0:0:0:0:
408,128,26163,1,2,0:0:0:0:
412,140,26263,2,0,P|416:160|412:192,1,40,10|0,0:0|0:0,0:0:0:0:
396,268,26465,1,10,0:0:0:0:
391,281,26566,1,0,0:0:0:0:
384,292,26666,6,0,P|370:307|342:323,1,40,6|0,0:0|0:0,0:0:0:0:
280,220,26867,2,0,P|296:231|309:246,1,40,2|0,0:0|0:0,0:0:0:0:
288,360,27069,2,0,P|271:348|258:333,1,40,10|10,0:0|0:0,0:0:0:0:
216,260,27270,2,0,P|199:271|186:286,1,40,10|10,0:0|0:0,0:0:0:0:
184,364,27471,5,6,0:0:0:0:
172,136,29082,6,0,P|244:116|284:160,1,128,2|0,0:0|0:0,0:0:0:0:
184,216,29686,2,0,P|117:198|92:140,2,128,2|2|2,0:0|0:0|0:0,0:0:0:0:
104,76,30693,6,0,P|70:78|28:108,2,64,2|0|0,0:0|0:0|0:0,0:0:0:0:
196,100,31297,2,0,P|256:124|320:96,1,128,2|0,0:0|0:0,0:0:0:0:
312,102,31901,1,2,0:0:0:0:
172,268,32304,6,0,P|148:192|180:156,1,128,2|0,0:0|0:0,0:0:0:0:
248,272,32908,2,0,P|220:332|156:344,1,128,2|2,0:0|0:0,0:0:0:0:
164,345,33713,1,0,0:0:0:0:
164,268,33914,5,2,0:0:0:0:
45,306,34116,1,0,0:0:0:0:
91,369,34317,1,0,0:0:0:0:
91,244,34518,1,2,0:0:0:0:
40,112,35525,6,0,L|12:192,1,71.9999978027344,2|0,0:0|0:0,0:0:0:0:
116,172,35928,2,0,L|102:255,1,71.9999978027344,8|0,0:0|0:0,0:0:0:0:
200,216,36330,2,0,L|201:300,1,71.9999978027344,2|0,0:0|0:0,0:0:0:0:
296,256,36733,2,0,L|311:339,1,71.9999978027344,8|0,0:0|0:0,0:0:0:0:
472,272,37136,6,0,L|500:192,1,71.9999978027344,2|0,0:0|0:0,0:0:0:0:
396,212,37539,2,0,L|409:128,1,71.9999978027344,8|0,0:0|0:0,0:0:0:0:
312,168,37941,2,0,L|310:83,1,71.9999978027344,2|0,0:0|0:0,0:0:0:0:
216,128,38344,2,0,L|200:44,1,71.9999978027344,8|0,0:0|0:0,0:0:0:0:
76,164,38746,6,0,P|56:216|64:252,1,71.9999978027344,2|0,0:0|0:0,0:0:0:0:
192,360,39149,2,0,P|212:308|204:272,1,71.9999978027344,8|0,0:0|0:0,0:0:0:0:
38,323,39552,2,0,P|90:341|126:332,1,71.9999978027344,2|0,0:0|0:0,0:0:0:0:
229,200,39955,2,0,P|177:182|141:191,1,71.9999978027344,8|0,0:0|0:0,0:0:0:0:
92,80,40357,6,0,L|144:12,1,71.9999978027344,2|0,0:0|0:0,0:0:0:0:
212,84,40760,2,0,L|291:51,1,71.9999978027344,8|0,0:0|0:0,0:0:0:0:
312,148,41163,2,0,L|396:159,1,71.9999978027344,2|0,0:0|0:0,0:0:0:0:
364,252,41565,2,0,L|432:304,1,71.9999978027344,8|10,0:0|0:0,0:0:0:0:
256,336,41968,5,6,0:0:0:0:
164,372,42169,1,0,0:0:0:0:
52,320,42371,1,8,0:0:0:0:
144,284,42572,1,0,0:0:0:0:
59,199,42773,1,2,0:0:0:0:
72,198,42874,1,8,0:0:0:0:
84,196,42975,1,0,0:0:0:0:
224,184,43176,2,0,L|240:272,1,80,8|0,0:0|0:0,0:0:0:0:
384,188,43579,6,0,L|398:109,2,80,2|0|8,0:0|0:0|0:0,0:0:0:0:
360,304,44183,1,0,0:0:0:0:
296,172,44384,1,2,0:0:0:0:
292,160,44485,1,8,0:0:0:0:
288,148,44585,1,2,0:0:0:0:
252,32,44787,2,0,P|196:28|160:44,1,80,8|10,0:0|0:0,0:0:0:0:
56,104,45189,6,0,P|104:172|184:168,1,160,2|8,0:0|0:0,0:0:0:0:
288,128,45793,1,2,0:0:0:0:
224,232,45995,1,2,0:0:0:0:
216,244,46095,1,8,0:0:0:0:
208,256,46196,1,2,0:0:0:0:
144,352,46397,2,0,L|232:368,1,80,8|0,0:0|0:0,0:0:0:0:
324,308,46800,5,2,0:0:0:0:
340,312,46901,1,8,0:0:0:0:
356,316,47002,1,0,0:0:0:0:
372,320,47102,1,0,0:0:0:0:
388,324,47203,2,0,L|476:308,1,80,8|0,0:0|0:0,0:0:0:0:
500,184,47606,1,2,0:0:0:0:
484,188,47706,1,8,0:0:0:0:
468,192,47807,1,2,0:0:0:0:
372,128,48008,1,8,0:0:0:0:
472,28,48210,2,0,L|416:44,1,40,8|8,0:0|0:0,0:0:0:0:
360,56,48411,5,6,0:0:0:0:
272,88,48612,1,0,0:0:0:0:
144,32,48814,1,8,0:0:0:0:
232,0,49015,1,0,0:0:0:0:
248,164,49216,2,0,P|214:142|196:108,1,80,2|2,0:0|0:0,0:0:0:0:
128,156,49619,2,0,L|48:148,1,80,8|0,0:0|0:0,0:0:0:0:
0,256,50022,6,0,P|-8:304|4:336,1,80,2|0,0:0|0:0,0:0:0:0:
112,368,50424,2,0,L|192:360,1,80,8|0,0:0|0:0,0:0:0:0:
248,254,50827,2,0,L|288:248,1,40,2|8,0:0|0:0,0:0:0:0:
256,172,51028,2,0,L|208:180,1,40,2|0,0:0|0:0,0:0:0:0:
180,104,51230,2,0,L|264:88,1,80,8|0,0:0|0:0,0:0:0:0:
352,148,51632,5,6,0:0:0:0:
432,44,51834,1,0,0:0:0:0:
328,28,52035,1,8,0:0:0:0:
456,160,52236,1,2,0:0:0:0:
456,160,52337,1,8,0:0:0:0:
456,160,52438,1,2,0:0:0:0:
384,248,52639,1,0,0:0:0:0:
444,364,52840,2,0,P|477:342|496:308,1,80,8|0,0:0|0:0,0:0:0:0:
336,328,53243,5,6,0:0:0:0:
401,227,53444,1,2,0:0:0:0:
401,227,53545,1,2,0:0:0:0:
401,227,53646,1,8,0:0:0:0:
280,172,53847,1,0,0:0:0:0:
240,276,54048,1,2,0:0:0:0:
224,272,54149,1,8,0:0:0:0:
212,260,54250,1,2,0:0:0:0:
184,156,54451,1,8,0:0:0:0:
140,292,54653,1,0,0:0:0:0:
96,104,54854,5,6,0:0:0:0:
184,156,55055,1,2,0:0:0:0:
6,154,55257,1,10,0:0:0:0:
96,104,55458,1,2,0:0:0:0:
4,256,55659,5,6,0:0:0:0:
6,154,55861,1,2,0:0:0:0:
96,284,56062,1,10,0:0:0:0:
180,156,56263,1,2,0:0:0:0:
188,168,56364,1,0,0:0:0:0:
196,180,56465,6,0,L|248:264,1,80,10|0,0:0|0:0,0:0:0:0:
372,240,56867,2,0,L|320:156,1,80,10|0,0:0|0:0,0:0:0:0:
145,277,57270,2,0,L|197:361,1,80,10|0,0:0|0:0,0:0:0:0:
416,148,57673,2,0,L|364:64,1,80,10|10,0:0|0:0,0:0:0:0:
256,312,58075,5,6,0:0:0:0:
256,312,58881,6,0,B|212:296|212:296|216:260|216:260|172:236|168:172|216:140,1,224,2|0,0:0|0:0,0:0:0:0:
284,112,59686,6,0,L|384:104,1,95.9999970703126,6|0,0:0|0:0,0:0:0:0:
304,8,60089,1,8,0:0:0:0:
456,100,60290,1,0,0:0:0:0:
464,116,60391,1,0,0:0:0:0:
472,132,60491,2,0,B|488:176|488:176|468:240,1,95.9999970703126,2|2,0:0|0:0,0:0:0:0:
384,340,60894,2,0,B|368:296|368:296|388:232,1,95.9999970703126,8|0,0:0|0:0,0:0:0:0:
280,132,61297,5,2,0:0:0:0:
168,232,61498,1,0,0:0:0:0:
188,240,61599,1,0,0:0:0:0:
208,248,61699,2,0,P|264:252|312:236,1,95.9999970703126,8|0,0:0|0:0,0:0:0:0:
128,144,62102,1,2,0:0:0:0:
108,156,62203,1,8,0:0:0:0:
96,176,62304,1,2,0:0:0:0:
96,292,62505,1,8,0:0:0:0:
12,152,62706,1,0,0:0:0:0:
0,316,62908,6,0,P|24:368|80:384,1,95.9999970703126,2|0,0:0|0:0,0:0:0:0:
240,368,63310,2,0,P|216:316|160:300,1,95.9999970703126,8|0,0:0|0:0,0:0:0:0:
80,236,63713,1,2,0:0:0:0:
94,221,63814,1,8,0:0:0:0:
108,207,63914,1,2,0:0:0:0:
204,108,64116,2,0,P|252:152|260:192,1,95.9999970703126,8|0,0:0|0:0,0:0:0:0:
132,136,64518,5,2,0:0:0:0:
232,28,64720,1,0,0:0:0:0:
252,28,64820,1,0,0:0:0:0:
272,28,64921,1,8,0:0:0:0:
380,112,65122,1,0,0:0:0:0:
484,20,65324,1,2,0:0:0:0:
484,20,65424,1,8,0:0:0:0:
484,20,65525,1,2,0:0:0:0:
508,136,65726,2,0,P|524:184|500:244,1,95.9999970703126,8|8,0:0|0:0,0:0:0:0:
352,288,66129,6,0,P|372:188|452:188,1,191.999994140625,6|8,0:0|0:0,0:0:0:0:
416,340,66733,1,0,0:0:0:0:
264,256,66934,1,2,0:0:0:0:
268,236,67035,1,8,0:0:0:0:
272,216,67136,1,0,0:0:0:0:
296,100,67337,2,0,P|256:60|212:48,1,95.9999970703126,8|0,0:0|0:0,0:0:0:0:
88,24,67740,5,2,0:0:0:0:
24,152,67941,1,0,0:0:0:0:
16,172,68042,1,0,0:0:0:0:
8,192,68142,2,0,P|44:256|76:260,1,95.9999970703126,8|0,0:0|0:0,0:0:0:0:
202,195,68545,1,2,0:0:0:0:
202,195,68646,1,8,0:0:0:0:
202,195,68746,1,2,0:0:0:0:
192,308,68948,1,8,0:0:0:0:
108,180,69149,1,0,0:0:0:0:
300,192,69351,6,0,L|313:248,2,47.9999985351563,6|8|2,0:0|0:0|0:0,0:0:0:0:
420,169,69753,2,0,P|399:120|349:83,1,95.9999970703126,8|0,0:0|0:0,0:0:0:0:
224,84,70156,1,6,0:0:0:0:
240,72,70257,1,8,0:0:0:0:
256,60,70357,1,2,0:0:0:0:
208,168,70559,2,0,P|160:144|140:104,1,95.9999970703126,8|0,0:0|0:0,0:0:0:0:
124,248,70961,5,6,0:0:0:0:
56,80,71163,1,0,0:0:0:0:
40,96,71263,1,2,0:0:0:0:
24,112,71364,1,8,0:0:0:0:
140,107,71565,1,8,0:0:0:0:
8,196,71767,1,4,0:0:0:0:
144,264,71968,1,4,0:0:0:0:
163,276,72068,1,0,0:0:0:0:
185,285,72169,1,8,0:0:0:0:
208,288,72270,1,8,0:0:0:0:
232,286,72370,1,8,0:0:0:0:
254,279,72471,1,8,0:0:0:0:
276,268,72572,6,0,L|304:168,1,95.9999970703126,6|0,0:0|0:0,0:0:0:0:
248,40,72975,2,0,P|192:32|140:44,1,95.9999970703126,8|0,0:0|0:0,0:0:0:0:
28,112,73377,1,2,0:0:0:0:
20,132,73478,1,8,0:0:0:0:
12,152,73579,1,2,0:0:0:0:
44,316,73780,2,0,P|92:300|120:256,1,95.9999970703126,8|0,0:0|0:0,0:0:0:0:
144,112,74183,6,0,L|244:96,1,95.9999970703126,2|0,0:0|0:0,0:0:0:0:
436,144,74585,2,0,L|336:160,1,95.9999970703126,8|0,0:0|0:0,0:0:0:0:
224,244,74988,1,2,0:0:0:0:
223,275,75088,1,8,0:0:0:0:
235,305,75189,1,2,0:0:0:0:
259,326,75290,1,0,0:0:0:0:
289,336,75391,2,0,P|352:332|384:304,1,95.9999970703126,8|0,0:0|0:0,0:0:0:0:
452,168,75793,6,0,L|480:264,1,95.9999970703126,2|0,0:0|0:0,0:0:0:0:
496,100,76196,2,0,P|448:84|400:104,1,95.9999970703126,8|0,0:0|0:0,0:0:0:0:
312,208,76599,1,2,0:0:0:0:
300,192,76699,1,8,0:0:0:0:
288,176,76800,1,2,0:0:0:0:
220,84,77002,1,8,0:0:0:0:
176,224,77203,1,0,0:0:0:0:
68,48,77404,6,0,L|32:144,1,95.9999970703126,2|0,0:0|0:0,0:0:0:0:
48,252,77807,1,8,0:0:0:0:
116,136,78008,1,8,0:0:0:0:
144,284,78210,1,2,0:0:0:0:
136,304,78310,1,8,0:0:0:0:
120,320,78411,1,2,0:0:0:0:
224,200,78612,1,8,0:0:0:0:
272,332,78814,2,0,L|324:340,1,47.9999985351563,8|8,0:0|0:0,0:0:0:0:
396,336,79015,6,0,P|412:276|404:236,1,95.9999970703126,6|0,0:0|0:0,0:0:0:0:
320,120,79418,2,0,P|376:92|412:96,1,95.9999970703126,8|0,0:0|0:0,0:0:0:0:
296,212,79820,1,2,0:0:0:0:
276,208,79921,1,8,0:0:0:0:
260,192,80022,1,2,0:0:0:0:
212,72,80223,1,8,0:0:0:0:
176,212,80424,1,0,0:0:0:0:
80,64,80626,6,0,L|164:8,1,95.9999970703126,2|0,0:0|0:0,0:0:0:0:
352,10,81028,2,0,L|432:64,1,95.9999970703126,8|0,0:0|0:0,0:0:0:0:
464,216,81431,1,2,0:0:0:0:
440,220,81532,1,8,0:0:0:0:
416,212,81632,1,2,0:0:0:0:
316,128,81834,1,8,0:0:0:0:
256,268,82035,1,0,0:0:0:0:
152,100,82236,5,6,0:0:0:0:
140,120,82337,1,8,0:0:0:0:
128,140,82438,1,2,0:0:0:0:
48,272,82639,2,0,P|104:288|144:272,1,95.9999970703126,8|0,0:0|0:0,0:0:0:0:
256,192,83042,1,6,0:0:0:0:
272,204,83142,1,8,0:0:0:0:
288,216,83243,1,2,0:0:0:0:
408,312,83444,2,0,P|440:276|448:220,1,95.9999970703126,8|0,0:0|0:0,0:0:0:0:
396,96,83847,5,6,0:0:0:0:
244,152,84048,1,2,0:0:0:0:
336,236,84250,1,10,0:0:0:0:
304,16,84451,1,2,0:0:0:0:
168,104,84653,2,0,L|116:124,1,47.9999985351563,6|0,0:0|0:0,0:0:0:0:
136,200,84854,2,0,L|84:220,1,47.9999985351563,2|0,0:0|0:0,0:0:0:0:
108,292,85055,5,10,0:0:0:0:
140,316,85156,1,10,0:0:0:0:
180,320,85257,1,10,0:0:0:0:
216,304,85357,1,10,0:0:0:0:
238,279,85458,5,2,0:0:0:0:
