osu file format v14

[General]
AudioFilename: audio.mp3
AudioLeadIn: 300
PreviewTime: 58780
Countdown: 0
SampleSet: Soft
StackLeniency: 0.7
Mode: 0
LetterboxInBreaks: 0
WidescreenStoryboard: 0

[Editor]
Bookmarks: 14585,29082,41968,59686,72572,85458
DistanceSpacing: 1.4
BeatDivisor: 4
GridSize: 4
TimelineZoom: 1.8

[Metadata]
Title:blue moment[TVsize ver.]
TitleUnicode:blue moment[TVsize ver.]
Artist:Sol/Lull BOB
ArtistUnicode:ソルラルBOB
Creator:Pata-Mon
Version:Abhor's Normal
Source:えとたま
Tags:Ultimate Madoka [ Abhor ] __Ag Etotama Anime OP opening moment tv size 村川梨衣 Murakawa Rie 大原さやか Oohara Sayaka 松井恵理子 Matsui Eriko 巽悠衣子 Tatsumi Yuiko 相坂優歌 Aisaka Yuuka 内田真礼 Uchida Maaya 生天目仁美 Yabatame Hitomi 小澤亜李 Ozawa Ari 渕上舞 Fuchigami Mai 戸田めぐみ T​o​d​a​ ​M​e​g​u​m​i 佐々木未来 Sasaki Mikoi 本多真梨子 Honda Mariko 花守ゆみり Hanamori Yumiri
BeatmapID:1090651
BeatmapSetID:513274

[Difficulty]
HPDrainRate:4
CircleSize:3
OverallDifficulty:4
ApproachRate:5
SliderMultiplier:1.2
SliderTickRate:1

[Events]
//Background and Video events
0,0,"BG.jpg",0,0
Video,-960,"video.flv"
//Break Periods
//Storyboard Layer 0 (Background)
//Storyboard Layer 1 (Fail)
//Storyboard Layer 2 (Pass)
//Storyboard Layer 3 (Foreground)
//Storyboard Sound Samples

[TimingPoints]
1700,402.684563758389,4,2,1,50,1,0
1700,-100,4,2,1,50,0,0
4921,-100,4,2,1,55,0,0
8142,-100,4,2,1,60,0,0
11364,-100,4,2,1,65,0,0
14183,-100,4,2,1,70,0,0
14585,-100,4,2,1,80,0,0
27069,-100,4,2,1,65,0,0
35525,-100,4,2,1,70,0,0
59686,-100,4,2,1,80,0,1
69351,-100,4,2,1,55,0,1
69451,-100,4,2,1,75,0,1
70156,-100,4,2,1,65,0,1
70257,-100,4,2,1,75,0,1
71767,-100,4,3,1,65,0,1
72169,-100,4,2,1,80,0,1
82236,-100,4,2,1,55,0,1
82337,-100,4,2,1,75,0,1
83042,-100,4,2,1,65,0,1
83142,-100,4,2,1,75,0,1
85055,-100,4,2,1,65,0,1
85458,-100,4,2,1,50,0,0

[Colours]
Combo1 : 225,225,64
Combo2 : 96,160,255
Combo3 : 255,128,255
Combo4 : 128,255,128

[HitObjects]
72,60,1700,5,2,0:0:0:0:
72,60,1901,2,0,P|65:124|78:187,2,120,0|2|2,0:0|0:0|0:0,0:0:0:0:
321,22,3310,2,0,L|384:24,2,60,2|0|0,0:0|0:0|0:0,0:0:0:0:
253,72,3914,2,0,B|268:97|298:106|298:106|362:107,1,120,2|2,0:0|0:0,0:0:0:0:
448,343,4921,6,0,L|458:269,2,60,2|0|0,0:0|0:0|0:0,0:0:0:0:
364,336,5525,2,0,P|302:310|244:328,1,120,2|0,0:0|0:0,0:0:0:0:
171,344,6129,1,2,0:0:0:0:
72,207,6532,2,0,L|61:140,2,60,2|0|0,0:0|0:0|0:0,0:0:0:0:
144,249,7136,2,0,B|159:218|154:178|154:178|133:59,1,180,2|2,0:0|0:0,0:0:0:0:
302,61,8142,6,0,P|302:92|315:121,1,60,2|0,0:0|0:0,0:0:0:0:
384,74,8545,2,0,P|445:72|497:109,2,120,2|2|0,0:0|0:0|0:0,0:0:0:0:
395,241,9753,1,2,0:0:0:0:
395,241,9955,2,0,P|356:292|281:292,2,120,0|2|0,0:0|0:0|0:0,0:0:0:0:
314,216,10961,1,2,0:0:0:0:
223,74,11364,6,0,B|186:95|146:85|146:85|103:107,1,120,2|0,0:0|0:0,0:0:0:0:
161,169,11968,2,0,B|178:203|178:203|186:291,1,120,2|0,0:0|0:0,0:0:0:0:
125,344,12572,1,2,0:0:0:0:
293,340,12975,2,0,L|287:262,2,60,2|0|0,0:0|0:0|0:0,0:0:0:0:
377,344,13579,2,0,L|383:203,1,120,0|0,0:0|0:0,0:0:0:0:
428,153,14183,2,0,P|447:125|452:92,1,60,2|0,0:0|0:0,0:0:0:0:
369,91,14585,6,0,P|324:111|247:98,1,120,6|8,0:0|0:0,0:0:0:0:
95,50,15391,2,0,L|26:51,2,60,2|2|8,0:0|0:0|0:0,0:0:0:0:
168,91,15995,1,0,0:0:0:0:
121,161,16196,2,0,L|117:234,1,60,2|0,0:0|0:0,0:0:0:0:
197,246,16599,2,0,L|202:314,1,60,8|0,0:0|0:0,0:0:0:0:
285,302,17002,2,0,L|299:362,2,60,2|2|8,0:0|0:0|0:0,0:0:0:0:
330,140,17807,6,0,B|350:99|350:99|343:1,1,120,2|8,0:0|0:0,0:0:0:0:
181,65,18612,2,0,P|121:62|75:98,1,120,2|8,0:0|0:0,0:0:0:0:
147,142,19216,1,0,0:0:0:0:
102,213,19418,2,0,B|94:256|94:256|115:345,1,120,2|8,0:0|0:0,0:0:0:0:
274,369,20223,2,0,P|341:373|405:347,1,120,2|8,0:0|0:0,0:0:0:0:
459,307,20827,1,8,0:0:0:0:
484,226,21028,5,6,0:0:0:0:
316,220,21431,1,8,0:0:0:0:
338,53,21834,2,0,L|260:49,2,60,2|2|8,0:0|0:0|0:0,0:0:0:0:
409,97,22438,1,0,0:0:0:0:
338,141,22639,2,0,L|273:138,1,60,2|0,0:0|0:0,0:0:0:0:
236,211,23042,2,0,L|170:207,1,60,8|0,0:0|0:0,0:0:0:0:
128,276,23444,2,0,P|135:312|128:346,2,60,2|2|8,0:0|0:0|0:0,0:0:0:0:
53,124,24250,6,0,P|88:84|163:72,1,120,6|10,0:0|0:0,0:0:0:0:
273,185,25055,2,0,P|329:210|398:186,1,120,6|8,0:0|0:0,0:0:0:0:
447,141,25659,1,2,0:0:0:0:
446,56,25861,1,6,0:0:0:0:
256,192,25961,12,6,27471,0:0:0:0:
95,75,29082,6,0,L|89:153,2,60,2|0|0,0:0|0:0|0:0,0:0:0:0:
179,78,29686,2,0,B|174:153|174:153|194:214,2,120,2|2|2,0:0|0:0|0:0,0:0:0:0:
255,41,30693,2,0,P|287:29|321:33,2,60,2|0|0,0:0|0:0|0:0,0:0:0:0:
298,113,31297,2,0,P|332:171|406:182,1,120,2|0,0:0|0:0,0:0:0:0:
381,101,31901,1,2,0:0:0:0:
439,258,32304,6,0,P|386:280|326:264,1,120,2|0,0:0|0:0,0:0:0:0:
246,239,32908,2,0,P|193:217|133:233,1,120,2|2,0:0|0:0,0:0:0:0:
83,299,33512,1,0,0:0:0:0:
34,138,33914,2,0,L|23:63,2,60,2|0|0,0:0|0:0|0:0,0:0:0:0:
118,139,34518,2,0,B|106:59|106:59|120:8,1,120,2|0,0:0|0:0,0:0:0:0:
187,66,35122,1,2,0:0:0:0:
343,126,35525,6,0,L|348:197,2,60,2|0|8,0:0|0:0|0:0,0:0:0:0:
410,75,36129,2,0,B|428:95|429:130|429:130|432:194,1,120,0|0,0:0|0:0,0:0:0:0:
388,262,36733,1,8,0:0:0:0:
228,209,37136,2,0,P|212:269|155:295,1,120,2|8,0:0|0:0,0:0:0:0:
147,214,37740,2,0,L|124:82,1,120,0|0,0:0|0:0,0:0:0:0:
47,66,38344,1,8,0:0:0:0:
213,88,38746,6,0,B|252:95|252:95|340:82,1,120,2|8,0:0|0:0,0:0:0:0:
393,26,39351,2,0,P|415:86|389:144,2,120,0|0|0,0:0|0:0|0:0,0:0:0:0:
331,83,40357,1,2,0:0:0:0:
483,153,40760,1,8,0:0:0:0:
480,322,41163,1,2,0:0:0:0:
315,352,41565,1,8,0:0:0:0:
163,279,41968,6,0,L|173:207,2,60,6|0|8,0:0|0:0|0:0,0:0:0:0:
107,342,42572,2,0,B|80:327|74:293|74:293|83:219,1,120,0|0,0:0|0:0,0:0:0:0:
110,155,43176,1,8,0:0:0:0:
253,67,43579,2,0,P|283:107|364:115,1,120,2|8,0:0|0:0,0:0:0:0:
334,36,44183,2,0,L|461:33,1,120,0|2,0:0|0:0,0:0:0:0:
476,114,44787,1,8,0:0:0:0:
462,281,45189,6,0,B|418:271|418:271|335:286,1,120,2|8,0:0|0:0,0:0:0:0:
265,314,45793,1,2,0:0:0:0:
185,341,45995,2,0,L|119:334,1,60,2|2,0:0|0:0,0:0:0:0:
120,250,46397,2,0,L|60:228,1,60,8|0,0:0|0:0,0:0:0:0:
61,145,46800,2,0,P|34:87|50:31,1,120,2|8,0:0|0:0,0:0:0:0:
116,82,47404,1,0,0:0:0:0:
199,71,47606,2,0,L|220:203,1,120,2|8,0:0|0:0,0:0:0:0:
384,171,48411,6,0,L|448:158,2,60,6|0|8,0:0|0:0|0:0,0:0:0:0:
372,254,49015,2,0,P|388:311|361:364,1,120,0|2,0:0|0:0,0:0:0:0:
300,305,49619,1,8,0:0:0:0:
131,308,50022,1,2,0:0:0:0:
131,308,50223,2,0,L|120:176,2,120,0|0|2,0:0|0:0|0:0,0:0:0:0:
213,323,51230,1,8,0:0:0:0:
195,156,51632,6,0,L|190:87,2,60,6|0|8,0:0|0:0|0:0,0:0:0:0:
271,192,52236,2,0,P|318:220|382:211,1,120,2|0,0:0|0:0,0:0:0:0:
338,136,52840,1,8,0:0:0:0:
462,248,53243,1,6,0:0:0:0:
462,248,53444,2,0,P|415:293|362:304,1,120,2|0,0:0|0:0,0:0:0:0:
281,285,54048,2,0,P|256:318|217:332,1,60,2|2,0:0|0:0,0:0:0:0:
202,251,54451,2,0,P|159:261|135:257,1,60,8|0,0:0|0:0,0:0:0:0:
161,176,54854,6,0,B|175:141|162:101|162:101|172:68|204:59,1,120,6|10,0:0|0:0,0:0:0:0:
269,83,55458,1,2,0:0:0:0:
346,50,55659,2,0,P|352:106|307:159,2,120,6|10|14,0:0|0:0|0:0,0:0:0:0:
256,192,56565,12,6,58075,0:0:0:0:
70,311,59686,6,0,L|53:177,1,120,6|8,0:0|0:0,0:0:0:0:
185,85,60491,2,0,P|187:123|205:149,2,60,2|2|8,0:0|0:0|0:0,0:0:0:0:
268,95,61095,1,0,0:0:0:0:
334,146,61297,2,0,L|412:145,1,60,2|0,0:0|0:0,0:0:0:0:
444,211,61699,2,0,P|451:246|444:277,1,60,8|0,0:0|0:0,0:0:0:0:
367,298,62102,2,0,L|236:298,1,120,2|8,0:0|0:0,0:0:0:0:
165,319,62706,1,0,0:0:0:0:
165,319,62908,5,2,0:0:0:0:
72,178,63310,1,8,0:0:0:0:
162,36,63713,2,0,P|183:92|238:121,1,120,2|8,0:0|0:0,0:0:0:0:
249,35,64317,1,0,0:0:0:0:
313,88,64518,2,0,L|334:220,1,120,2|8,0:0|0:0,0:0:0:0:
440,335,65324,2,0,L|448:260,1,60,2|2,0:0|0:0,0:0:0:0:
363,285,65726,2,0,P|334:291|294:282,1,60,8|8,0:0|0:0,0:0:0:0:
225,256,66129,6,0,P|171:243|101:263,1,120,6|8,0:0|0:0,0:0:0:0:
55,98,66934,2,0,L|43:36,2,60,2|2|8,0:0|0:0|0:0,0:0:0:0:
127,141,67538,1,0,0:0:0:0:
210,129,67740,2,0,L|288:124,1,60,2|0,0:0|0:0,0:0:0:0:
340,171,68142,2,0,L|412:180,1,60,8|0,0:0|0:0,0:0:0:0:
469,225,68545,2,0,P|483:192|479:158,2,60,2|2|8,0:0|0:0|0:0,0:0:0:0:
394,263,69149,1,0,0:0:0:0:
394,263,69351,5,6,0:0:0:0:
231,306,69753,1,8,0:0:0:0:
142,162,70156,2,0,B|155:207|155:207|144:304,1,120,6|8,0:0|0:0,0:0:0:0:
83,335,70760,1,0,0:0:0:0:
24,275,70961,2,0,B|11:230|11:230|22:133,1,120,6|8,0:0|0:0,0:0:0:0:
167,77,71767,2,0,P|221:58|288:81,1,120,4|8,0:0|0:0,0:0:0:0:
327,144,72371,1,8,0:0:0:0:
400,103,72572,6,0,B|413:146|413:146|389:235,1,120,6|8,0:0|0:0,0:0:0:0:
250,306,73377,2,0,L|178:304,1,60,2|2,0:0|0:0,0:0:0:0:
141,235,73780,2,0,L|71:229,1,60,8|0,0:0|0:0,0:0:0:0:
45,153,74183,2,0,B|26:97|26:97|42:18,1,120,2|8,0:0|0:0,0:0:0:0:
205,56,74988,2,0,L|195:140,2,60,2|2|8,0:0|0:0|0:0,0:0:0:0:
284,27,75592,1,0,0:0:0:0:
321,103,75793,6,0,P|365:131|442:119,1,120,2|8,0:0|0:0,0:0:0:0:
425,293,76599,2,0,B|385:282|385:282|295:289,1,120,2|8,0:0|0:0,0:0:0:0:
223,300,77203,1,0,0:0:0:0:
146,335,77404,2,0,B|134:298|145:271|145:271|158:239|143:202,2,120,2|8|2,0:0|0:0|0:0,0:0:0:0:
306,288,78612,2,0,L|371:293,1,60,8|8,0:0|0:0,0:0:0:0:
430,346,79015,6,0,B|447:311|447:311|441:202,1,120,6|8,0:0|0:0,0:0:0:0:
395,68,79820,2,0,P|380:98|348:119,2,60,2|2|8,0:0|0:0|0:0,0:0:0:0:
315,41,80424,1,0,0:0:0:0:
231,51,80626,2,0,L|163:52,1,60,2|0,0:0|0:0,0:0:0:0:
151,133,81028,2,0,L|83:135,1,60,8|0,0:0|0:0,0:0:0:0:
72,216,81431,2,0,L|74:286,2,60,2|2|8,0:0|0:0|0:0,0:0:0:0:
10,157,82035,1,0,0:0:0:0:
10,157,82236,5,6,0:0:0:0:
165,221,82639,1,8,0:0:0:0:
308,133,83042,2,0,B|310:173|339:195|339:195|339:266,1,120,6|8,0:0|0:0,0:0:0:0:
337,327,83646,1,0,0:0:0:0:
420,333,83847,2,0,L|423:206,1,120,6|10,0:0|0:0,0:0:0:0:
490,58,84653,2,0,P|436:98|366:98,1,120,6|10,0:0|0:0,0:0:0:0:
301,89,85257,1,10,0:0:0:0:
242,29,85458,5,2,0:0:0:0:
