osu file format v14

[General]
AudioFilename: audio.mp3
AudioLeadIn: 0
PreviewTime: 57027
Countdown: 0
SampleSet: Soft
StackLeniency: 0.2
Mode: 0
LetterboxInBreaks: 1
WidescreenStoryboard: 1

[Editor]
Bookmarks: 13494,21169,22285,26750,31215,35681,40146,44610,49076,51448,53541,58006,80471,84936,89401,98192,102657,107122,115422,116053,120657,124983,129587,131820,133913,156378,160704,166003,169634,175355,184146,190843
DistanceSpacing: 0.5
BeatDivisor: 4
GridSize: 32
TimelineZoom: 2.949999

[Metadata]
Title:Tenohira de odoru
TitleUnicode:掌で踊る
Artist:sokoninaru
ArtistUnicode:そこに鳴る
Creator:Smokeman
Version:Master
Source:
Tags:ゼロ zero KOGA RECORDS j-pop j-rock japanese metal alternative indie rock math-rock celektus knightc0re knightcore
BeatmapID:1884388
BeatmapSetID:902587

[Difficulty]
HPDrainRate:7.5
CircleSize:2.8
OverallDifficulty:8.6
ApproachRate:9.7
SliderMultiplier:2.2
SliderTickRate:1

[Events]
//Background and Video events
0,0,"TenohiraBG.jpg",0,0
//Break Periods
2,26948,28994
//Storyboard Layer 0 (Background)
//Storyboard Layer 1 (Fail)
//Storyboard Layer 2 (Pass)
//Storyboard Layer 3 (Foreground)
//Storyboard Layer 4 (Overlay)
//Storyboard Sound Samples

[TimingPoints]
97,279.06976744186,4,2,1,60,1,0
97,-55.5555555555556,4,2,1,60,0,0
306,-55.5555555555556,4,2,1,5,0,0
376,-200,4,2,1,30,0,0
4562,-66.6666666666667,4,2,1,60,0,0
5190,-100,4,2,1,5,0,0
5259,-100,4,2,1,40,0,0
6794,-66.6666666666667,4,2,1,60,0,0
7492,-83.3333333333333,4,2,1,50,0,0
9027,-100,4,2,1,60,0,0
11259,-66.6666666666667,4,2,1,60,0,0
11469,-66.6666666666667,4,2,1,40,0,0
11538,-66.6666666666667,4,2,1,60,0,0
11608,-66.6666666666667,4,2,1,40,0,0
11678,-60.6060606060606,4,2,1,60,0,0
11887,-60.6060606060606,4,2,1,40,0,0
11957,-60.6060606060606,4,2,1,60,0,0
12027,-60.6060606060606,4,2,1,40,0,0
12096,-55.5555555555556,4,2,1,60,0,0
12306,-55.5555555555556,4,2,1,40,0,0
12376,-55.5555555555556,4,2,1,60,0,0
12445,-55.5555555555556,4,2,1,40,0,0
12515,-55.5555555555556,4,2,1,60,0,0
12655,-333.333333333333,4,2,1,60,0,0
13213,-100,4,2,1,60,0,0
13492,-55.5555555555556,4,2,1,70,0,0
13910,-62.5,4,2,1,70,0,0
17957,-55.5555555555556,4,2,1,70,0,0
18376,-62.5,4,2,1,70,0,0
21166,-71.4285714285714,4,2,1,70,0,0
22283,-55.5555555555556,4,2,1,70,0,0
22701,-62.5,4,2,1,70,0,0
22980,-55.5555555555556,4,2,1,70,0,0
23259,-50,4,2,1,70,0,0
23538,-45.4545454545455,4,2,1,70,0,0
23957,-76.9230769230769,4,2,1,70,0,0
24515,-100,4,2,1,70,0,0
25701,-100,4,2,1,5,0,0
25771,-100,4,2,1,40,0,0
26469,-303.030303030303,4,2,1,60,0,0
26678,-100,4,2,1,5,0,0
26748,-100,4,2,1,20,0,0
30794,-200,4,2,1,50,0,0
31143,-100,4,2,1,5,0,0
31213,-90.9090909090909,4,2,1,60,0,0
31631,-71.4285714285714,4,2,1,60,0,0
35678,-100,4,2,1,60,0,0
40143,-71.4285714285714,4,2,1,60,0,0
44608,-200,4,2,1,60,0,0
49073,-83.3333333333333,4,2,1,60,0,0
51445,-125,4,2,1,60,0,0
53538,-71.4285714285714,4,2,1,70,0,0
55213,-62.5,4,2,1,70,0,0
55771,-71.4285714285714,4,2,1,60,0,0
56957,-71.4285714285714,4,2,1,5,0,0
57027,-500,4,2,1,40,0,0
57236,-500,4,2,1,5,0,0
57306,-100,4,2,1,40,0,0
58003,-66.6666666666667,4,2,1,80,0,1
61352,-100,4,2,1,80,0,0
62469,-66.6666666666667,4,2,1,80,0,1
66376,-200,4,2,1,80,0,0
66934,-66.6666666666667,4,2,1,80,0,1
70283,-100,4,2,1,80,0,0
71399,-66.6666666666667,4,2,1,80,0,1
75306,-100,4,2,1,80,0,0
75864,-58.8235294117647,4,2,1,80,0,1
76143,-66.6666666666667,4,2,1,80,0,1
76980,-58.8235294117647,4,2,1,80,0,1
77399,-66.6666666666667,4,2,1,80,0,1
78096,-58.8235294117647,4,2,1,80,0,1
78515,-66.6666666666667,4,2,1,80,0,1
80190,-100,4,2,1,80,0,0
80469,-66.6666666666667,4,2,1,80,0,1
82701,-100,4,2,1,50,0,1
82841,-100,4,2,1,50,0,0
84864,-100,4,2,1,5,0,1
84934,-161.290322580645,4,2,1,40,0,0
87027,-1000,4,2,1,30,0,0
87096,-1000,4,2,2,5,0,0
89120,-100,4,2,1,60,0,0
89399,-55.5555555555556,4,2,1,70,0,0
89817,-62.5,4,2,1,70,0,0
93864,-55.5555555555556,4,2,1,70,0,0
94283,-62.5,4,2,1,70,0,0
98190,-100,4,2,1,60,0,0
98469,-166.666666666667,4,2,1,60,0,0
101678,-100,4,2,1,60,0,0
101957,-71.4285714285714,4,2,1,60,0,0
103143,-64.5161290322581,4,2,1,60,0,0
106422,-100,4,2,1,40,0,0
107120,-62.5,4,2,1,70,0,0
107469,-62.5,4,2,1,5,0,0
107538,-62.5,4,2,1,70,0,0
107748,-62.5,4,2,1,5,0,0
107817,-100,4,2,1,70,0,0
108236,-62.5,4,2,1,70,0,0
108585,-62.5,4,2,1,5,0,0
108655,-62.5,4,2,1,70,0,0
108864,-62.5,4,2,1,5,0,0
108934,-100,4,2,1,70,0,0
109352,-62.5,4,2,1,70,0,0
109701,-62.5,4,2,1,5,0,0
109771,-62.5,4,2,1,70,0,0
109980,-62.5,4,2,1,5,0,0
110050,-100,4,2,1,70,0,0
110608,-113.636363636364,4,2,1,70,0,0
111306,-119.047619047619,4,2,1,70,0,0
111585,-62.5,4,2,1,70,0,0
112213,-62.5,4,2,1,5,0,0
112283,-666.666666666667,4,2,1,70,0,0
112701,-62.5,4,2,1,70,0,0
113329,-62.5,4,2,1,5,0,0
113399,-500,4,2,1,70,0,0
113817,-62.5,4,2,1,70,0,0
114515,-83.3333333333333,4,2,1,70,0,0
115003,-83.3333333333333,4,2,1,70,0,0
115073,-100,4,2,1,70,0,0
115492,-100,4,2,1,70,0,0
115771,-100,4,2,1,70,0,0
116050,-454.545454545455,4,2,1,70,0,0
120655,-100,4,2,1,40,0,0
124841,-100,4,2,1,60,0,0
126096,-90.9090909090909,4,2,1,60,0,0
127213,-83.3333333333333,4,2,1,60,0,0
128329,-76.9230769230769,4,2,1,60,0,0
129585,-100,4,2,1,30,0,0
131817,-58.8235294117647,4,2,1,70,0,0
131922,-58.8235294117647,4,2,1,5,0,0
131992,-58.8235294117647,4,2,1,70,0,0
132096,-58.8235294117647,4,2,1,5,0,0
132166,-58.8235294117647,4,2,1,70,0,0
132271,-58.8235294117647,4,2,1,5,0,0
132341,-58.8235294117647,4,2,1,70,0,0
132445,-58.8235294117647,4,2,1,5,0,0
132515,-58.8235294117647,4,2,1,70,0,0
132620,-58.8235294117647,4,2,1,5,0,0
132690,-58.8235294117647,4,2,1,70,0,0
132794,-58.8235294117647,4,2,1,5,0,0
132864,-58.8235294117647,4,2,1,70,0,0
132969,-58.8235294117647,4,2,1,5,0,0
133038,-58.8235294117647,4,2,1,70,0,0
133143,-58.8235294117647,4,2,1,5,0,0
133213,-58.8235294117647,4,2,1,70,0,0
133422,-100,4,2,1,5,0,0
133910,-66.6666666666667,4,2,1,80,0,1
137259,-100,4,2,1,80,0,0
138376,-66.6666666666667,4,2,1,80,0,1
142283,-200,4,2,1,80,0,0
142841,-66.6666666666667,4,2,1,80,0,1
146190,-100,4,2,1,80,0,0
147306,-66.6666666666667,4,2,1,80,0,1
151213,-100,4,2,1,80,0,0
151771,-58.8235294117647,4,2,1,80,0,1
152050,-66.6666666666667,4,2,1,80,0,1
152887,-58.8235294117647,4,2,1,80,0,1
153166,-66.6666666666667,4,2,1,80,0,1
154003,-58.8235294117647,4,2,1,80,0,1
154283,-66.6666666666667,4,2,1,80,0,1
156376,-40,4,2,1,50,0,1
156515,-40,4,2,1,80,0,1
156655,-40,4,2,1,5,0,1
156794,-40,4,2,1,50,0,1
156934,-40,4,2,1,80,0,1
157073,-40,4,2,1,5,0,1
157213,-40,4,2,1,50,0,1
157352,-40,4,2,1,80,0,1
157492,-40,4,2,1,5,0,1
157631,-40,4,2,1,50,0,1
157771,-40,4,2,1,80,0,1
157910,-40,4,2,1,5,0,1
158050,-40,4,2,1,50,0,1
158190,-40,4,2,1,80,0,1
158329,-40,4,2,1,5,0,1
158399,-40,4,2,1,50,0,1
158608,-100,4,2,1,80,0,1
160631,-100,4,2,1,5,0,1
160701,-125,4,2,1,50,0,0
165166,-111.111111111111,4,2,1,50,0,0
166283,-100,4,2,1,50,0,0
167399,-1000,4,2,1,50,0,0
169073,-312.5,4,2,1,70,0,0
169631,-62.5,4,2,1,70,0,0
169980,-62.5,4,2,1,5,0,0
170050,-55.5555555555556,4,2,1,70,0,0
170329,-625,4,2,1,70,0,0
170887,-100,4,2,1,70,0,0
172003,-55.5555555555556,4,2,1,70,0,0
172701,-100,4,2,1,100,0,0
173120,-100,4,2,1,20,0,0
173259,-100,4,2,1,5,0,0
173352,-100,4,2,1,20,0,0
173492,-100,4,2,1,5,0,0
173585,-100,4,2,1,20,0,0
173957,-117.647058823529,4,2,1,80,0,0
174027,-117.647058823529,4,2,2,30,0,0
175073,-200,4,2,1,60,0,0
175283,-200,4,2,1,5,0,0
175352,-55.5555555555556,4,2,1,70,0,0
175771,-62.5,4,2,1,70,0,0
179817,-55.5555555555556,4,2,1,70,0,0
180236,-62.5,4,2,1,70,0,0
182329,-60.6060606060606,4,2,1,70,0,0
182608,-111.111111111111,4,2,1,70,0,0
182748,-57.1428571428571,4,2,1,70,0,0
183027,-100,4,2,1,70,0,0
183166,-54.054054054054,4,2,1,70,0,0
183445,-90.9090909090909,4,2,1,70,0,0
183585,-51.2820512820513,4,2,1,70,0,0
183864,-86.9565217391304,4,2,1,70,0,0
184003,-48.780487804878,4,2,1,70,0,0
184143,-100,4,2,1,40,0,0
185399,-45.4545454545455,4,2,1,50,0,0
185817,-76.9230769230769,4,2,1,50,0,0
186376,-55.5555555555556,4,2,1,70,0,0
186794,-62.5,4,2,1,70,0,0
187073,-55.5555555555556,4,2,1,70,0,0
187352,-50,4,2,1,70,0,0
187631,-45.4545454545455,4,2,1,70,0,0
188050,-76.9230769230769,4,2,1,70,0,0
188608,-55.5555555555556,4,2,1,70,0,0
189027,-76.9230769230769,4,2,1,50,0,0
189864,-45.4545454545455,4,2,1,50,0,0
190283,-76.9230769230769,4,2,1,70,0,0
190841,-100,4,2,1,80,0,0
190980,-100,4,2,1,5,0,0
191050,-100,4,2,1,80,0,0
191190,-100,4,2,1,5,0,0
191259,-100,4,2,1,80,0,0
191399,-100,4,2,1,5,0,0
191469,-100,4,2,1,80,0,0
191608,-100,4,2,1,5,0,0
191678,-100,4,2,1,80,0,0
191817,-100,4,2,1,5,0,0
191887,-100,4,3,1,80,0,0
192027,-100,4,3,1,5,0,0
192096,-100,4,2,1,30,0,0
192794,-71.4285714285714,4,2,1,80,0,0
192864,-100,4,2,1,5,0,0

[Colours]
Combo1 : 192,192,192
Combo2 : 0,255,255
Combo3 : 128,255,255

[HitObjects]
229,65,97,6,0,B|177:125|193:205|193:205|228:272|313:287,1,296.99999093628,6|0,1:3|0:0,0:0:0:0:
416,184,376,6,0,P|390:193|368:209,1,55,2|0,0:2|0:0,0:0:0:0:
411,177,655,2,0,P|387:190|368:210,1,55,2|0,0:2|0:0,0:0:0:0:
402,168,934,2,0,P|382:186|368:210,1,55,2|0,0:2|0:0,0:0:0:0:
386,159,1213,2,0,P|373:183|367:210,1,55,2|0,0:2|0:0,0:0:0:0:
365,154,1492,2,0,P|362:181|366:209,1,55,2|0,0:2|0:0,0:0:0:0:
343,161,1771,2,0,P|352:187|368:210,1,55,2|0,0:2|0:0,0:0:0:0:
322,179,2050,2,0,P|343:198|368:210,1,55,2|0,0:2|0:0,0:0:0:0:
449,281,2329,6,0,P|428:299|404:311,1,55,2|0,0:2|0:0,0:0:0:0:
455,330,2608,2,0,P|427:329|401:320,1,55,2|0,0:2|0:0,0:0:0:0:
422,376,2887,2,0,P|404:355|392:330,1,55,2|0,0:2|0:0,0:0:0:0:
363,384,3166,2,0,P|368:357|381:332,1,55,2|0,0:2|0:0,0:0:0:0:
316,340,3445,2,0,P|341:329|368:326,1,55,2|0,0:2|0:0,0:0:0:0:
317,265,3724,2,0,P|338:281|354:303,1,55,2|0,0:2|0:0,0:0:0:0:
402,231,4003,2,0,P|396:257|383:282,1,55,2|0,0:2|0:0,0:0:0:0:
476,317,4283,6,0,P|449:321|421:319,1,55,2|0,0:2|1:0,0:0:0:0:
268,297,4492,1,0,1:0:0:0:
113,255,4562,2,0,B|72:203|80:115|80:115|119:73|179:83|179:83|175:132|137:162,1,330.000012588501,6|0,1:2|0:0,0:0:0:0:
0,240,4980,2,0,B|40:183|97:165|97:165|168:159|217:194,1,247.500009441376,6|0,1:2|0:0,0:0:0:0:
268,297,5259,5,0,1:2:0:0:
268,297,5399,1,2,1:2:0:0:
268,297,5538,1,0,1:2:0:0:
268,297,5678,1,2,1:2:0:0:
352,342,5817,1,0,1:2:0:0:
352,342,5957,1,2,1:2:0:0:
396,258,6096,1,0,1:2:0:0:
396,258,6236,1,2,1:2:0:0:
312,213,6376,1,0,1:2:0:0:
268,297,6515,1,2,1:2:0:0:
506,213,6655,1,0,1:2:0:0:
160,336,6794,1,6,1:2:0:0:
160,336,7213,5,6,1:2:0:0:
341,384,7492,6,0,P|365:325|311:293,1,131.99999597168,2|2,0:2|3:2,0:0:0:0:
255,350,7771,1,0,0:0:0:0:
402,317,7910,2,0,P|426:258|372:226,1,131.99999597168,2|0,3:2|0:0,0:0:0:0:
212,169,8190,2,0,P|188:228|242:260,1,131.99999597168,2|0,3:2|0:0,0:0:0:0:
463,384,8469,2,0,P|513:348|488:292,1,131.99999597168,2|0,3:2|0:0,0:0:0:0:
156,284,8748,2,0,P|164:347|227:347,1,131.99999597168,2|0,3:2|0:0,0:0:0:0:
512,205,9027,6,0,L|464:196,1,55,4|0,1:3|0:0,0:0:0:0:
342,175,9166,2,0,L|396:184,1,55,4|0,1:3|0:0,0:0:0:0:
454,220,9306,5,0,3:0:0:0:
450,230,9375,1,0,3:0:0:0:
446,240,9445,2,0,L|391:249,1,55,8|8,0:3|0:3,0:0:0:0:
235,259,9585,2,0,L|180:268,1,55,8|8,0:3|0:3,0:0:0:0:
0,280,9724,1,0,3:0:0:0:
4,270,9794,1,0,3:0:0:0:
8,260,9864,2,0,L|63:251,1,55,4|4,0:3|0:3,0:0:0:0:
235,259,10003,5,0,3:0:0:0:
246,260,10072,1,0,3:0:0:0:
257,262,10143,2,0,L|312:271,1,55,0|0,1:2|0:0,0:0:0:0:
409,287,10283,5,0,3:3:0:0:
31,336,10422,1,8,0:3:0:0:
341,185,10562,5,8,0:3:0:0:
192,331,10701,1,0,3:0:0:0:
131,269,10841,6,0,L|76:260,1,55,2|0,0:3|0:0,0:0:0:0:
192,331,10980,1,0,3:0:0:0:
71,208,11120,2,0,L|16:199,1,55,2|0,0:3|0:0,0:0:0:0:
192,331,11259,6,0,L|274:317,1,82.5000031471254,6|0,1:2|0:0,0:0:0:0:
466,366,11399,2,0,L|383:352,1,82.5000031471254,0|0,3:0|0:0,0:0:0:0:
466,366,11538,2,0,L|383:352,1,82.5000031471254,0|0,3:0|0:0,0:0:0:0:
208,220,11678,6,0,L|298:234,1,90.7500008654595,6|0,1:2|0:0,0:0:0:0:
489,351,11817,2,0,L|397:335,1,90.7500008654595,0|0,3:0|0:0,0:0:0:0:
489,351,11957,2,0,L|397:335,1,90.7500008654595,0|0,3:0|0:0,0:0:0:0:
257,117,12096,6,0,L|346:162,1,98.9999969787599,6|0,1:2|0:0,0:0:0:0:
512,336,12236,2,0,L|407:318,1,98.9999969787599,0|0,3:0|0:0,0:0:0:0:
512,336,12376,2,0,L|407:318,1,98.9999969787599,8|8,0:3|0:3,0:0:0:0:
412,54,12515,1,4,3:3:0:0:
440,146,12585,1,4,3:3:0:0:
507,224,12655,6,0,P|484:200|453:191,1,65.9999979858399,6|0,1:3|0:0,0:0:0:0:
255,384,13213,1,12,0:3:0:0:
277,0,13492,6,0,P|246:117|256:155,1,98.9999969787599,6|0,3:2|0:0,0:0:0:0:
341,270,13631,2,0,P|332:221|308:178,1,98.9999969787599,2|0,0:2|0:0,0:0:0:0:
60,128,13771,2,0,P|102:102|149:90,1,98.9999969787599,2|0,1:2|0:0,0:0:0:0:
376,96,13910,5,2,1:2:0:0:
387,101,13980,1,0,1:0:0:0:
432,139,14050,2,0,P|395:162|353:173,1,88,0|0,3:0|0:0,0:0:0:0:
229,237,14190,2,0,P|186:225|149:202,1,88,2|0,1:2|0:0,0:0:0:0:
496,69,14329,2,0,P|482:110|457:146,1,88,2|0,1:3|0:0,0:0:0:0:
380,324,14469,5,0,1:0:0:0:
368,318,14538,1,0,1:0:0:0:
356,313,14608,1,8,0:3:0:0:
345,310,14678,1,8,0:3:0:0:
333,310,14748,1,6,0:3:0:0:
320,310,14817,1,4,0:3:0:0:
239,346,14887,5,6,1:2:0:0:
225,351,14957,1,0,0:0:0:0:
211,354,15027,1,2,3:2:0:0:
197,355,15097,1,0,0:0:0:0:
125,283,15166,6,0,B|89:262|54:272|54:272|54:319|82:351|82:351|136:375|182:351,1,264,8|0,0:3|0:0,0:0:0:0:
243,250,15445,5,2,1:2:0:0:
256,169,15515,1,0,1:2:0:0:
269,88,15585,1,0,1:2:0:0:
282,7,15655,1,0,1:2:0:0:
277,0,15724,6,0,P|246:117|256:155,1,88,6|0,3:2|0:0,0:0:0:0:
376,286,15864,2,0,P|345:169|355:131,1,88,2|0,3:2|0:0,0:0:0:0:
477,17,16003,2,0,P|508:134|498:172,1,88,2|0,1:2|0:0,0:0:0:0:
455,338,16143,5,2,1:2:0:0:
381,371,16213,1,0,1:2:0:0:
360,374,16283,2,0,P|274:288|264:250,1,88,2|0,3:2|0:0,0:0:0:0:
201,101,16422,2,0,P|232:131|255:168,1,88,0|0,1:0|0:0,0:0:0:0:
71,325,16562,2,0,P|106:298|147:283,1,88,2|0,3:3|0:0,0:0:0:0:
358,59,16701,6,0,P|363:102|355:145,1,88,2|0,1:2|1:0,0:0:0:0:
119,186,16841,1,8,0:3:0:0:
106,183,16910,1,4,0:3:0:0:
93,180,16980,1,0,3:0:0:0:
80,177,17050,1,0,3:0:0:0:
44,140,17120,6,0,P|84:157|118:185,1,88,2|0,1:2|0:0,0:0:0:0:
241,5,17259,2,0,P|260:44|268:87,1,88,2|0,1:2|0:0,0:0:0:0:
186,251,17399,6,0,P|205:290|213:333,1,88,2|0,3:2|3:3,0:0:0:0:
401,278,17538,2,0,P|390:320|369:358,1,88,0|0,3:0|3:0,0:0:0:0:
117,363,17678,5,2,1:2:0:0:
57,337,17748,1,0,0:0:0:0:
90,275,17817,1,2,0:3:0:0:
150,301,17887,1,0,0:0:0:0:
213,333,17957,6,0,P|250:308|237:237,1,98.9999969787599,6|0,3:2|0:0,0:0:0:0:
390,187,18096,2,0,P|386:142|318:118,1,98.9999969787599,2|0,3:2|0:0,0:0:0:0:
241,5,18236,2,0,P|204:30|217:101,1,98.9999969787599,2|0,1:2|0:0,0:0:0:0:
347,284,18376,5,2,1:2:0:0:
432,315,18445,1,0,1:0:0:0:
511,272,18515,2,0,P|507:226|439:203,1,88,2|0,3:2|0:0,0:0:0:0:
375,43,18655,2,0,P|343:72|343:115,1,88,2|0,1:2|0:0,0:0:0:0:
364,370,18794,2,0,L|347:284,1,88,2|0,0:3|0:0,0:0:0:0:
433,94,18934,2,0,P|415:55|374:43,1,88,0|0,1:0|1:0,0:0:0:0:
135,144,19073,5,8,0:3:0:0:
131,154,19143,1,8,0:3:0:0:
128,164,19213,1,4,0:3:0:0:
125,174,19283,1,4,0:3:0:0:
85,224,19352,5,6,1:2:0:0:
88,234,19422,1,0,0:0:0:0:
91,244,19492,1,8,0:3:0:0:
94,254,19562,1,0,0:0:0:0:
122,316,19631,2,0,B|153:235|153:235|55:174|55:174|104:51,1,264,4|0,0:3|0:0,0:0:0:0:
230,7,19910,5,2,1:2:0:0:
243,88,19980,1,0,1:2:0:0:
256,169,20050,1,0,1:2:0:0:
269,250,20120,1,0,1:2:0:0:
278,254,20190,6,0,P|278:191|247:155,1,88,6|0,1:2|0:0,0:0:0:0:
221,3,20329,2,0,P|221:66|252:102,1,88,2|0,3:2|0:0,0:0:0:0:
439,149,20469,2,0,L|570:182,1,88,2|0,1:2|0:0,0:0:0:0:
397,328,20608,5,2,1:2:0:0:
410,246,20678,1,0,1:2:0:0:
402,238,20748,2,0,L|417:152,1,88,2|0,1:2|0:0,0:0:0:0:
329,381,20887,1,2,1:2:0:0:
165,355,21027,1,2,1:2:0:0:
1,329,21166,6,0,L|19:215,1,76.9999976501466,2|0,3:3|0:0,0:0:0:0:
329,381,21445,6,0,L|316:305,1,76.9999976501466,2|0,3:3|0:0,0:0:0:0:
50,82,21724,6,0,L|72:215,1,76.9999976501466,2|0,3:3|0:0,0:0:0:0:
417,152,22003,6,0,L|399:258,1,76.9999976501466,2|0,3:3|0:0,0:0:0:0:
116,357,22283,6,0,P|132:210|156:63,1,296.99999093628,4|0,3:1|0:0,0:0:0:0:
267,83,22562,1,2,0:2:0:0:
35,240,22701,2,0,P|-15:126|60:25,1,264,6|0,1:2|0:0,0:0:0:0:
240,139,22980,2,0,P|180:265|41:258,1,296.99999093628,6|0,1:2|0:0,0:0:0:0:
156,62,23259,6,0,P|197:35|253:5,1,110,8|8,0:3|0:3,0:0:0:0:
347,60,23399,2,0,P|395:65|457:78,1,110,4|4,0:3|0:3,0:0:0:0:
512,3,23538,1,6,1:2:0:0:
481,364,23678,2,0,P|347:300|255:326,1,242.000007385254,2|0,3:2|1:0,0:0:0:0:
34,369,23957,6,0,P|90:324|88:252,1,142.99999345398,2|0,3:3|0:0,0:0:0:0:
300,0,24236,6,0,P|274:66|312:127,1,142.99999345398,2|0,3:3|0:0,0:0:0:0:
481,364,24515,5,6,3:2:0:0:
256,192,24655,12,8,25701,0:3:0:0:
355,150,25771,5,2,3:2:0:0:
193,362,26469,2,0,L|175:296,1,54.4499998338318,6|0,3:2|0:0,0:0:0:0:
0,192,26748,1,2,0:2:0:0:
0,192,30794,6,0,B|36:188|68:181|68:181|94:206|121:224,1,137.5,2|0,0:2|0:0,0:0:0:0:
120,309,31213,6,0,P|92:258|105:194,1,121.000003692627,6|0,3:2|0:0,0:0:0:0:
177,115,31492,1,0,3:0:0:0:
441,309,31631,6,0,P|406:266|317:223,1,153.999995300293,2|0,1:2|3:0,0:0:0:0:
192,237,31910,2,0,P|263:210|339:216,1,153.999995300293,2|0,1:2|3:0,0:0:0:0:
472,300,32190,6,0,P|463:245|408:163,1,153.999995300293,2|0,1:2|3:0,0:0:0:0:
175,218,32469,2,0,P|223:159|292:126,1,153.999995300293,2|0,1:2|3:0,0:0:0:0:
500,289,32748,6,0,P|519:237|512:139,1,153.999995300293,2|0,1:2|3:0,0:0:0:0:
151,198,33027,2,0,P|163:122|206:59,1,153.999995300293,2|2,1:2|3:2,0:0:0:0:
394,10,33306,1,2,1:2:0:0:
305,345,33445,6,0,B|276:309|126:309|170:380|46:380|-18:314,1,307.999990600586,6|0,3:2|3:0,0:0:0:0:
394,10,33864,2,0,P|394:103|351:220,1,153.999995300293,2|0,1:2|3:0,0:0:0:0:
93,267,34143,2,0,P|109:192|107:115,1,153.999995300293,2|0,1:2|3:0,0:0:0:0:
486,22,34422,2,0,P|486:115|443:232,1,153.999995300293,2|0,1:2|3:0,0:0:0:0:
305,345,34701,5,8,0:3:0:0:
292,335,34770,1,8,0:3:0:0:
278,330,34840,1,0,3:0:0:0:
263,326,34910,1,0,3:0:0:0:
248,324,34980,1,4,0:3:0:0:
232,324,35049,1,4,0:3:0:0:
217,325,35119,1,0,3:0:0:0:
202,328,35189,1,0,3:0:0:0:
187,332,35259,1,0,1:0:0:0:
394,10,35399,5,2,3:3:0:0:
92,267,35678,6,0,B|117:227|116:181|116:181|101:136|62:118|62:118|43:141|55:176,1,220,6|0,3:2|3:0,0:0:0:0:
197,229,36096,5,8,0:3:0:0:
192,216,36166,1,8,0:3:0:0:
219,209,36236,5,4,0:3:0:0:
214,196,36306,1,4,0:3:0:0:
261,218,36376,5,8,0:3:0:0:
256,205,36446,1,8,0:3:0:0:
283,198,36516,5,0,3:3:0:0:
278,185,36586,1,0,3:3:0:0:
325,207,36654,5,8,0:3:0:0:
320,194,36724,1,8,0:3:0:0:
347,187,36794,5,4,0:3:0:0:
342,174,36864,1,4,0:3:0:0:
389,196,36934,5,8,0:3:0:0:
384,183,37004,1,8,0:3:0:0:
497,111,37213,5,8,0:3:0:0:
502,98,37283,1,8,0:3:0:0:
475,91,37353,5,4,0:3:0:0:
480,78,37423,1,4,0:3:0:0:
433,100,37493,5,8,0:3:0:0:
438,87,37563,1,8,0:3:0:0:
411,80,37631,5,0,3:3:0:0:
416,67,37701,1,0,3:3:0:0:
369,89,37771,5,8,0:3:0:0:
374,76,37841,1,8,0:3:0:0:
379,63,37910,1,8,0:3:0:0:
384,50,37980,1,8,0:3:0:0:
293,41,38050,6,0,L|188:4,1,110,6|2,3:2|0:2,0:0:0:0:
47,116,38329,5,2,1:2:0:0:
42,103,38399,1,0,1:3:0:0:
69,96,38469,5,0,1:3:0:0:
64,83,38539,1,0,0:0:0:0:
111,105,38609,5,2,1:2:0:0:
194,160,38748,1,2,1:2:0:0:
222,255,38887,1,2,1:2:0:0:
182,344,39027,1,2,3:2:0:0:
76,328,39166,5,2,1:2:0:0:
81,315,39236,2,0,L|108:243,1,55,0|0,1:3|1:3,0:0:0:0:
158,118,39376,5,0,1:3:0:0:
153,131,39446,2,0,L|126:203,1,55,2|0,1:2|0:0,0:0:0:0:
7,181,39585,1,2,3:2:0:0:
192,251,39724,2,0,L|321:299,1,110,2|2,1:2|3:2,0:0:0:0:
470,353,40003,5,2,1:2:0:0:
511,110,40143,6,0,B|503:56|440:30|374:30|413:107,1,153.999995300293,6|0,3:2|0:0,0:0:0:0:
493,236,40422,1,0,3:0:0:0:
468,5,40562,6,0,P|381:-11|314:34,1,153.999995300293,2|0,1:2|3:0,0:0:0:0:
185,370,40841,2,0,P|259:322|277:243,1,153.999995300293,2|0,1:2|3:0,0:0:0:0:
207,0,41120,6,0,P|132:47|114:126,1,153.999995300293,2|0,1:2|3:0,0:0:0:0:
380,353,41399,2,0,P|402:267|361:197,1,153.999995300293,2|0,1:2|3:0,0:0:0:0:
28,173,41678,6,0,P|5:258|46:328,1,153.999995300293,2|0,1:2|3:0,0:0:0:0:
511,207,41957,2,0,P|468:129|391:105,1,153.999995300293,2|2,1:2|3:2,0:0:0:0:
152,287,42236,5,2,1:2:0:0:
464,383,42376,2,0,L|503:57,1,307.999990600586,6|0,3:2|3:0,0:0:0:0:
117,33,42794,2,0,L|135:185,1,153.999995300293,2|0,1:2|3:0,0:0:0:0:
371,360,43073,2,0,L|389:207,1,153.999995300293,2|0,1:2|3:0,0:0:0:0:
20,62,43352,2,0,L|38:214,1,153.999995300293,2|0,1:2|3:0,0:0:0:0:
464,383,43631,5,8,0:3:0:0:
465,367,43700,1,8,0:3:0:0:
467,352,43770,1,8,0:3:0:0:
469,337,43840,1,8,0:3:0:0:
471,321,43910,1,4,0:3:0:0:
473,306,43979,1,4,0:3:0:0:
474,291,44049,1,4,0:3:0:0:
476,275,44119,1,0,0:0:0:0:
478,260,44189,1,12,0:3:0:0:
152,287,44329,5,4,0:3:0:0:
273,106,44608,6,0,B|256:59|216:42|187:42|187:42|264:-36|471:-10|363:53,1,385,6|0,3:2|0:0,0:0:0:0:
186,133,45864,2,0,B|34:191|21:135|1:127|20:115|72:100,1,220,0|0,0:0|0:0,0:0:0:0:
282,132,46701,5,0,0:0:0:0:
384,218,46980,6,0,B|448:227|517:199|536:150|536:150|522:108|471:72|413:66|447:122,1,330
357,326,48096,2,0,B|509:384|522:328|542:320|523:308|471:293,1,220
256,384,48934,5,0,0:0:0:0:
0,192,49073,6,0,B|30:126|220:100|256:147|129:219,1,263.99999194336,6|0,3:2|3:0,0:0:0:0:
346,345,49492,2,0,P|326:286|312:204,1,131.99999597168,2|0,1:2|3:0,0:0:0:0:
316,5,49771,2,0,P|304:69|283:132,1,131.99999597168,4|8,0:3|0:3,0:0:0:0:
104,272,50050,5,0,1:0:0:0:
369,100,50190,2,0,P|431:77|495:64,1,131.99999597168,6|0,3:2|0:0,0:0:0:0:
512,272,50469,5,0,3:0:0:0:
219,60,50608,2,0,P|156:37|92:24,1,131.99999597168,2|0,1:2|3:0,0:0:0:0:
0,327,50887,5,4,0:3:0:0:
200,218,51027,1,8,0:3:0:0:
205,232,51096,1,0,0:0:0:0:
210,246,51166,2,0,L|294:233,1,65.9999979858399,2|0,1:2|1:2,0:0:0:0:
298,13,51306,2,0,L|232:23,1,65.9999979858399,0|0,1:2|1:2,0:0:0:0:
195,373,51445,1,6,1:2:0:0:
458,299,53120,5,4,1:3:0:0:
95,371,53259,1,4,1:3:0:0:
475,309,53538,6,0,P|359:312|245:331,1,230.99999295044,4|0,3:1|0:0,0:0:0:0:
85,383,53817,1,2,0:2:0:0:
427,146,53957,6,0,P|407:248|340:286,1,153.999995300293,6|0,1:2|0:0,0:0:0:0:
6,262,54236,2,0,P|82:269|158:284,1,153.999995300293,6|2,1:2|3:2,0:0:0:0:
359,74,54515,2,0,P|362:13|346:-18,1,76.9999976501466,8|8,0:3|0:3,0:0:0:0:
183,150,54655,5,4,0:3:0:0:
208,162,54724,1,4,0:3:0:0:
237,164,54794,1,6,1:2:0:0:
506,100,54934,1,2,3:2:0:0:
501,276,55213,6,0,L|328:309,1,176,2|0,3:3|0:0,0:0:0:0:
0,371,55492,2,0,L|213:329,1,176,2|0,3:3|0:0,0:0:0:0:
436,384,55771,6,0,B|424:306|390:174|298:119|211:89|145:84|83:86|38:108|-2:124|-43:242|-19:322|24:337|112:332|175:254|191:208|179:137|175:69|198:42|239:31|283:31|335:35|397:50|448:74|458:125|420:221|300:259|255:267|207:267,1,1308.99996005249,6|0,3:2|0:0,0:0:0:0:
211,266,57027,6,0,L|203:301,1,33,2|0,3:2|0:0,0:0:0:0:
102,349,57306,2,0,L|127:242,1,110,2|0,3:2|0:0,0:0:0:0:
18,324,57585,1,0,0:2:0:0:
469,166,58003,6,0,B|512:102|404:-80|290:2|271:88|371:117,1,330.000012588501,6|0,3:2|3:2,0:0:0:0:
118,38,58422,2,0,B|51:50|11:115|13:160,1,165.000006294251,0|8,1:2|0:3,0:0:0:0:
159,238,58631,1,8,0:3:0:0:
165,223,58701,1,4,0:3:0:0:
118,38,58841,1,0,1:0:0:0:
18,324,58980,1,4,0:3:0:0:
256,376,59120,6,0,B|251:298|435:195|493:322|466:406|365:382,1,330.000012588501,6|0,3:2|3:2,0:0:0:0:
93,189,59538,2,0,B|154:160|224:190|248:228,1,165.000006294251,0|8,1:2|0:3,0:0:0:0:
0,71,59817,2,0,P|41:50|88:44,1,82.5000031471254,4|4,0:3|0:3,0:0:0:0:
202,95,59957,1,0,1:0:0:0:
211,100,60027,1,0,0:0:0:0:
220,103,60096,1,4,0:3:0:0:
230,104,60166,1,0,0:0:0:0:
293,26,60236,6,0,B|253:46|236:100|236:100|233:157|272:195|272:195|350:217|396:149,1,330.000012588501,6|0,3:2|3:2,0:0:0:0:
464,325,60655,1,8,0:3:0:0:
473,323,60724,1,8,0:3:0:0:
483,322,60794,1,4,0:3:0:0:
493,321,60864,1,4,0:3:0:0:
502,265,60934,5,2,1:2:0:0:
423,245,61003,1,0,1:0:0:0:
344,226,61073,1,0,1:0:0:0:
264,207,61143,1,0,1:0:0:0:
185,188,61213,1,0,1:0:0:0:
105,169,61282,1,0,1:0:0:0:
26,150,61352,1,2,3:3:0:0:
10,265,61631,5,2,3:3:0:0:
248,21,61910,5,2,3:3:0:0:
303,384,62190,5,2,3:3:0:0:
35,173,62469,6,0,B|76:134|207:78|139:206|341:157|320:66,1,330.000012588501,6|0,3:2|3:2,0:0:0:0:
59,326,62887,2,0,P|132:269|227:318,1,165.000006294251,0|2,1:0|0:3,0:0:0:0:
313,384,63166,1,2,3:2:0:0:
393,143,63306,1,2,0:3:0:0:
497,335,63445,2,0,P|435:284|354:291,1,165.000006294251,2|2,1:2|0:3,0:0:0:0:
217,373,63724,5,2,3:2:0:0:
278,193,63864,1,2,0:3:0:0:
339,13,64003,1,2,1:2:0:0:
217,373,64143,2,0,L|60:321,1,165.000006294251,2|0,0:3|3:0,0:0:0:0:
339,13,64422,6,0,L|495:64,1,165.000006294251,2|0,0:3|1:0,0:0:0:0:
278,193,64701,5,2,0:3:0:0:
0,93,64841,5,6,3:2:0:0:
188,163,64980,2,0,L|198:256,1,82.5000031471254,2|0,1:3|0:0,0:0:0:0:
372,265,65120,1,2,3:2:0:0:
374,249,65190,1,0,0:0:0:0:
375,232,65259,1,2,1:3:0:0:
394,42,65399,5,2,3:2:0:0:
273,322,65538,1,2,1:3:0:0:
464,155,65678,1,2,3:2:0:0:
446,153,65748,1,0,0:0:0:0:
430,151,65817,1,2,1:3:0:0:
115,234,65957,6,0,L|213:247,1,82.5000031471254,6|0,3:2|0:0,0:0:0:0:
464,280,66097,1,8,0:3:0:0:
481,282,66167,1,4,0:3:0:0:
497,284,66236,1,2,1:3:0:0:
273,322,66376,6,0,L|267:377,1,55,2|0,3:3|0:0,0:0:0:0:
497,284,66655,2,0,L|490:338,1,55,2|0,3:3|0:0,0:0:0:0:
433,55,66934,6,0,B|420:167|420:167|427:215|427:215|408:259|408:259|393:379,1,330.000012588501,6|0,3:2|3:2,0:0:0:0:
0,344,67352,2,0,L|27:126,1,165.000006294251,0|8,1:2|0:3,0:0:0:0:
201,137,67562,1,8,0:3:0:0:
189,149,67631,1,4,0:3:0:0:
0,344,67771,1,0,1:0:0:0:
36,76,67910,1,4,0:3:0:0:
453,48,68050,6,0,B|439:159|439:159|446:207|446:207|427:251|427:251|412:371,1,330.000012588501,6|0,3:2|3:2,0:0:0:0:
281,22,68469,2,0,L|304:210,1,165.000006294251,0|8,1:2|0:3,0:0:0:0:
168,374,68748,1,8,0:3:0:0:
170,357,68817,1,0,0:0:0:0:
172,341,68887,1,8,0:3:0:0:
174,324,68957,1,8,0:3:0:0:
176,308,69027,1,4,0:3:0:0:
178,292,69096,1,4,0:3:0:0:
248,214,69166,6,0,L|227:50,1,165.000006294251,6|0,3:2|0:0,0:0:0:0:
34,72,69445,1,0,3:2:0:0:
271,345,69585,1,8,0:3:0:0:
273,328,69654,1,8,0:3:0:0:
275,312,69724,1,4,0:3:0:0:
277,296,69794,1,4,0:3:0:0:
326,265,69864,5,2,1:2:0:0:
295,186,69934,1,0,1:0:0:0:
322,105,70003,1,0,1:0:0:0:
402,72,70073,1,0,1:0:0:0:
468,124,70143,1,0,1:0:0:0:
442,204,70213,1,0,1:0:0:0:
359,192,70283,1,2,3:3:0:0:
34,144,70562,5,2,3:3:0:0:
485,35,70841,5,2,3:3:0:0:
316,354,71120,5,2,3:3:0:0:
105,91,71399,6,0,B|54:39|165:-37|206:4|244:86|197:119|182:129|167:140|154:182|174:225|212:231,1,330.000012588501,6|0,3:2|3:2,0:0:0:0:
316,354,71817,1,0,1:0:0:0:
101,336,71957,1,2,0:3:0:0:
225,159,72096,1,2,3:2:0:0:
226,143,72236,1,2,3:3:0:0:
322,368,72376,5,2,1:2:0:0:
89,349,72516,1,2,0:3:0:0:
376,198,72655,6,0,B|458:182|458:182|542:210,1,165.000006294251,2|2,3:2|0:3,0:0:0:0:
77,362,72934,5,2,1:2:0:0:
324,94,73073,6,0,B|376:29|376:29|458:-3,1,165.000006294251,2|0,0:3|3:0,0:0:0:0:
322,368,73352,1,2,0:3:0:0:
188,94,73492,6,0,B|135:29|135:29|53:-3,1,165.000006294251,0|2,1:0|0:3,0:0:0:0:
200,347,73771,5,6,3:2:0:0:
245,154,73910,1,2,3:3:0:0:
207,363,74050,5,2,3:2:0:0:
259,143,74190,1,2,3:3:0:0:
214,379,74329,6,0,L|14:310,1,165.000006294251,8|6,0:3|3:3,0:0:0:0:
273,132,74608,6,0,L|473:63,1,165.000006294251,2|2,1:2|3:3,0:0:0:0:
508,384,74887,6,0,L|308:315,2,165.000006294251,14|8|0,0:3|0:3|1:3,0:0:0:0:
111,60,75306,6,0,L|132:169,1,110,2|0,3:3|0:0,0:0:0:0:
261,295,75585,2,0,L|155:258,1,110,2|0,3:3|0:0,0:0:0:0:
364,72,75864,6,0,P|516:44|463:189,1,374.000007133484,6|0,3:2|3:2,0:0:0:0:
321,372,76283,2,0,P|356:300|318:219,1,165.000006294251,2|0,1:2|3:0,0:0:0:0:
88,342,76562,5,4,1:3:0:0:
93,353,76631,1,0,0:0:0:0:
152,346,76701,5,0,1:3:0:0:
157,357,76770,1,0,0:0:0:0:
181,297,76841,5,4,1:3:0:0:
186,308,76910,1,0,0:0:0:0:
96,275,76980,6,0,P|74:107|236:108,1,374.000007133484,6|0,3:2|3:2,0:0:0:0:
409,361,77399,2,0,P|354:302|265:307,1,165.000006294251,2|0,1:2|3:0,0:0:0:0:
0,181,77678,5,8,0:3:0:0:
38,220,77747,1,8,0:3:0:0:
72,200,77817,1,4,0:3:0:0:
109,191,77887,1,4,0:3:0:0:
149,193,77957,1,4,0:3:0:0:
191,204,78026,1,4,0:3:0:0:
276,216,78096,6,0,P|373:84|224:19,1,374.000007133484,6|0,3:2|3:2,0:0:0:0:
424,267,78515,2,0,P|350:296|322:381,1,165.000006294251,2|0,1:2|3:0,0:0:0:0:
134,146,78794,1,4,1:3:0:0:
227,384,78934,1,4,1:3:0:0:
325,21,79073,1,4,1:3:0:0:
39,276,79213,6,0,P|274:224|478:353,1,495.000018882752,6|8,3:2|0:3,0:0:0:0:
510,336,79701,1,8,0:3:0:0:
499,324,79770,1,8,0:3:0:0:
484,317,79840,1,8,0:3:0:0:
468,318,79910,1,4,0:3:0:0:
453,326,79980,1,4,0:3:0:0:
444,339,80049,1,4,0:3:0:0:
441,355,80119,1,4,0:3:0:0:
478,353,80190,5,2,1:3:0:0:
168,344,80470,5,4,1:3:0:0:
457,234,80655,1,4,3:3:0:0:
114,278,80841,5,4,1:3:0:0:
438,211,81027,1,4,3:3:0:0:
105,254,81213,5,4,1:3:0:0:
436,118,81399,1,4,3:3:0:0:
52,163,81585,5,4,1:3:0:0:
424,82,81771,1,4,3:3:0:0:
40,141,81957,5,4,1:3:0:0:
378,2,82143,1,4,3:3:0:0:
29,44,82329,5,4,1:3:0:0:
468,197,82515,1,4,3:3:0:0:
36,368,82701,5,6,0:0:0:0:
44,335,84934,6,0,B|90:272|277:127|457:173|528:378|519:293|531:386|415:358|511:381|355:369|298:337|280:299|272:271|262:208|235:186|174:152|99:163,1,954.799962120363,6|2,3:2|0:2,0:0:0:0:
70,215,87027,2,0,L|95:371,1,154,0|0,0:2|0:0,0:0:0:0:
255,384,89120,1,12,0:3:0:0:
440,113,89399,6,0,L|290:97,1,98.9999969787599,6|0,3:2|0:0,0:0:0:0:
118,79,89538,2,0,L|267:94,1,98.9999969787599,2|0,0:2|0:0,0:0:0:0:
502,119,89678,2,0,L|352:103,1,98.9999969787599,2|0,1:2|0:0,0:0:0:0:
56,152,89817,5,2,1:2:0:0:
58,165,89887,1,0,1:0:0:0:
29,195,89957,2,0,L|178:179,1,88,2|0,3:2|0:0,0:0:0:0:
255,184,90096,2,0,L|270:333,1,88,2|0,1:2|0:0,0:0:0:0:
7,223,90236,2,0,L|94:213,1,88,2|0,1:3|0:0,0:0:0:0:
386,193,90376,5,2,1:2:0:0:
403,191,90445,1,0,1:0:0:0:
421,189,90515,1,8,0:3:0:0:
438,187,90585,1,8,0:3:0:0:
456,185,90655,1,6,0:3:0:0:
473,183,90724,1,4,0:3:0:0:
512,281,90794,5,6,1:2:0:0:
484,277,90864,1,0,0:0:0:0:
457,274,90934,1,4,0:3:0:0:
432,271,91003,1,0,0:0:0:0:
384,351,91073,6,0,B|319:304|319:304|321:292|321:292|116:337,1,264,8|0,0:3|0:0,0:0:0:0:
27,263,91352,5,2,1:2:0:0:
106,244,91421,1,0,1:2:0:0:
185,225,91492,1,0,1:2:0:0:
264,206,91562,1,0,1:2:0:0:
283,212,91631,6,0,L|292:124,1,88,6|0,3:2|0:0,0:0:0:0:
38,57,91771,2,0,L|126:66,1,88,2|0,3:2|0:0,0:0:0:0:
303,219,91910,2,0,L|312:131,1,88,2|0,1:3|0:0,0:0:0:0:
466,36,92050,5,2,1:3:0:0:
464,53,92119,1,0,0:0:0:0:
480,97,92190,2,0,L|471:185,1,88,2|0,3:3|0:0,0:0:0:0:
488,348,92329,2,0,L|400:339,1,88,2|0,1:2|0:0,0:0:0:0:
223,377,92469,2,0,L|135:368,1,88,2|0,3:3|0:0,0:0:0:0:
484,327,92608,2,0,L|396:318,1,88,2|0,1:2|1:0,0:0:0:0:
264,206,92748,1,8,0:3:0:0:
246,205,92817,1,4,0:3:0:0:
228,203,92887,1,0,3:0:0:0:
211,201,92957,1,0,3:0:0:0:
157,169,93027,6,0,L|166:257,1,88,2|0,1:2|0:0,0:0:0:0:
34,363,93166,2,0,B|40:319|40:319|64:282,1,88,2|0,1:2|0:0,0:0:0:0:
63,62,93306,6,0,L|54:150,1,88,2|0,3:2|3:3,0:0:0:0:
242,99,93445,2,0,B|223:59|223:59|190:30,1,88,0|0,3:0|3:0,0:0:0:0:
70,238,93585,1,2,1:2:0:0:
278,384,93724,1,2,0:3:0:0:
512,191,93864,6,0,B|504:137|504:137|480:97,1,98.9999969787599,6|0,3:2|0:0,0:0:0:0:
366,0,94003,2,0,B|341:48|341:48|337:94,1,98.9999969787599,2|0,3:2|0:0,0:0:0:0:
459,341,94143,2,0,L|415:171,1,98.9999969787599,2|0,1:3|0:0,0:0:0:0:
246,121,94283,5,2,1:2:0:0:
235,127,94352,1,0,1:0:0:0:
210,166,94422,2,0,B|243:193|243:193|285:206,1,88,2|0,3:2|0:0,0:0:0:0:
503,117,94562,2,0,L|412:144,1,88,2|0,1:3|0:0,0:0:0:0:
285,341,94701,2,0,L|344:276,1,88,2|0,3:3|0:0,0:0:0:0:
181,73,94841,2,0,L|205:168,1,88,2|0,1:2|1:0,0:0:0:0:
188,366,94980,5,8,0:3:0:0:
171,360,95049,1,4,0:3:0:0:
154,355,95119,1,0,3:0:0:0:
137,349,95189,1,0,3:0:0:0:
122,297,95259,5,2,1:2:0:0:
105,302,95328,1,0,0:0:0:0:
88,307,95398,1,4,3:3:0:0:
71,313,95468,1,0,0:0:0:0:
52,362,95538,6,0,B|3:271|3:271|48:218|48:218|56:219|56:219|82:107,1,264,4|0,0:3|0:0,0:0:0:0:
140,275,95817,5,2,1:2:0:0:
159,193,95887,1,0,1:2:0:0:
178,112,95957,1,0,1:2:0:0:
196,31,96026,1,0,1:2:0:0:
179,37,96096,6,0,P|243:57|301:37,1,88,6|0,1:2|0:0,0:0:0:0:
467,15,96236,2,0,P|401:29|361:76,1,88,2|0,3:2|0:0,0:0:0:0:
354,238,96376,2,0,L|333:153,1,88,2|0,1:2|0:0,0:0:0:0:
148,201,96515,5,2,1:2:0:0:
167,283,96585,1,0,1:2:0:0:
157,300,96655,2,0,L|241:324,1,88,2|0,1:2|0:0,0:0:0:0:
356,150,96794,2,0,L|334:235,1,88,2|0,1:2|0:0,0:0:0:0:
319,378,96934,1,2,1:2:0:0:
61,299,97074,1,2,3:3:0:0:
0,205,97352,5,0,3:0:0:0:
36,334,97562,1,0,3:0:0:0:
488,154,97771,5,2,1:2:0:0:
478,378,98190,6,0,B|449:343|393:330|358:374|386:367|359:369|324:318|369:293|322:313|367:334|413:321,1,220,4|10,3:1|0:3,0:0:0:0:
467,219,98538,1,4,0:3:0:0:
474,234,98608,6,0,L|485:286,3,32.99999899292,0|0|8|8,1:2|0:0|0:3|0:3,0:0:0:0:
323,186,98887,1,4,0:3:0:0:
319,177,98957,1,4,0:3:0:0:
319,167,99027,1,4,0:3:0:0:
322,164,99096,1,4,0:3:0:0:
380,255,99166,6,0,L|399:304,3,32.99999899292,0|0|8|8,1:2|0:0|0:3|0:3,0:0:0:0:
219,261,99445,1,4,0:3:0:0:
212,252,99515,1,4,0:3:0:0:
211,242,99585,1,4,0:3:0:0:
214,239,99654,1,4,0:3:0:0:
291,297,99724,6,0,L|319:342,3,32.99999899292,0|0|8|8,1:0|0:0|0:3|0:3,0:0:0:0:
142,328,100003,1,4,0:3:0:0:
138,317,100073,1,4,0:3:0:0:
138,308,100143,1,4,0:3:0:0:
141,305,100212,1,4,0:3:0:0:
221,360,100283,6,0,L|256:399,3,32.99999899292,0|0|8|0,1:0|0:0|0:3|0:0,0:0:0:0:
52,343,100562,1,4,0:3:0:0:
49,332,100631,1,4,0:3:0:0:
47,320,100701,1,4,0:3:0:0:
47,308,100771,1,4,0:3:0:0:
50,285,100841,5,0,1:0:0:0:
44,295,100911,1,0,0:0:0:0:
39,306,100981,1,8,0:3:0:0:
36,317,101050,1,8,0:3:0:0:
15,291,101120,5,4,0:3:0:0:
23,282,101189,1,4,0:3:0:0:
32,275,101259,1,4,0:3:0:0:
43,270,101329,1,4,0:3:0:0:
64,260,101399,5,0,1:0:0:0:
52,260,101469,1,0,0:0:0:0:
40,261,101539,1,8,0:3:0:0:
29,264,101608,1,8,0:3:0:0:
28,171,101678,6,0,P|92:142|106:121,1,55,6|4,0:3|0:3,0:0:0:0:
211,275,101817,2,0,P|186:228|183:203,1,55,6|4,0:3|0:3,0:0:0:0:
173,78,101957,6,0,P|208:49|221:18,1,76.9999976501466,2|0,1:3|0:3,0:0:0:0:
323,234,102096,2,0,P|310:198|309:160,1,76.9999976501466,6|4,0:3|0:3,0:0:0:0:
464,107,102236,5,2,1:2:0:0:
438,62,102306,1,0,1:0:0:0:
499,24,102376,1,0,1:0:0:0:
512,94,102445,1,0,1:0:0:0:
484,158,102515,1,0,1:0:0:0:
493,228,102585,1,0,1:0:0:0:
468,292,102655,1,6,3:2:0:0:
275,383,103073,1,2,3:3:0:0:
275,383,103143,6,0,P|250:350|197:316,1,85.2500006504059,0|0,1:0|3:0,0:0:0:0:
20,292,103283,2,0,P|69:284|144:299,1,85.2500006504059,0|2,1:0|3:3,0:0:0:0:
326,323,103422,6,0,P|289:303|226:295,1,85.2500006504059,0|0,1:0|3:0,0:0:0:0:
47,203,103562,2,0,P|93:220|150:271,1,85.2500006504059,0|2,1:0|3:3,0:0:0:0:
361,256,103701,6,0,P|319:253|259:272,1,85.2500006504059,0|0,1:0|3:0,0:0:0:0:
100,124,103841,2,0,P|131:162|155:234,1,85.2500006504059,0|2,1:0|3:3,0:0:0:0:
379,190,103980,6,0,P|340:205|294:248,1,85.2500006504059,0|0,1:0|3:0,0:0:0:0:
165,63,104120,2,0,P|172:112|157:187,1,85.2500006504059,0|2,1:0|3:3,0:0:0:0:
112,373,104259,6,0,L|169:287,1,85.2500006504059,0|0,1:0|3:0,0:0:0:0:
19,95,104399,2,0,L|112:128,1,85.2500006504059,0|2,1:0|1:2,0:0:0:0:
267,131,104538,5,0,1:0:0:0:
274,120,104607,1,0,1:0:0:0:
360,119,104677,1,0,1:0:0:0:
435,80,104748,1,0,1:0:0:0:
510,114,104817,1,0,1:0:0:0:
440,164,104887,6,0,B|335:177|248:93|279:99|249:51|314:40|271:24|382:-1|370:86,1,341.000002601624,6|0,3:2|3:3,0:0:0:0:
262,214,105236,1,0,3:0:0:0:
310,256,105306,2,0,L|204:218,1,85.2500006504059,2|0,1:2|0:0,0:0:0:0:
395,315,105445,5,0,3:0:0:0:
405,322,105515,1,0,3:0:0:0:
455,354,105585,2,0,L|369:323,1,85.2500006504059,2|0,1:2|0:0,0:0:0:0:
218,328,105724,5,0,3:0:0:0:
228,335,105794,1,0,3:0:0:0:
278,367,105864,2,0,L|197:338,1,85.2500006504059,0|0,1:0|1:0,0:0:0:0:
50,343,106003,1,0,1:0:0:0:
142,376,106073,1,0,1:0:0:0:
353,95,107120,6,0,B|284:166|316:369|490:371|562:299|544:215|508:191|483:196,1,440,6|0,3:2|0:2,0:0:0:0:
317,0,107538,2,0,P|242:100|240:243,1,264,6|2,3:2|0:2,0:0:0:0:
282,377,107817,6,0,P|260:359|243:338,1,55,2|2,0:2|0:2,0:0:0:0:
243,384,107957,2,0,P|233:358|228:331,1,55,2|2,0:2|0:2,0:0:0:0:
205,370,108096,2,0,P|209:342|218:317,1,55,2|2,0:2|0:2,0:0:0:0:
159,95,108236,6,0,B|227:166|195:369|21:371|-50:299|-32:215|3:191|28:196,1,440,6|2,3:2|0:2,0:0:0:0:
195,0,108654,2,0,P|269:100|271:243,1,264,6|2,3:2|0:2,0:0:0:0:
230,377,108934,6,0,P|251:359|268:338,1,55,2|2,0:2|0:2,0:0:0:0:
269,384,109074,2,0,P|278:358|283:331,1,55,2|2,0:2|0:2,0:0:0:0:
307,370,109213,2,0,P|302:342|293:317,1,55,2|2,0:2|0:2,0:0:0:0:
353,95,109352,6,0,B|284:166|316:369|490:371|562:299|544:215|508:191|483:196,1,440,6|0,3:2|0:2,0:0:0:0:
317,0,109770,2,0,P|242:100|240:243,1,264,6|2,3:2|0:2,0:0:0:0:
282,377,110050,6,0,P|260:359|243:338,1,55,2|2,0:2|0:2,0:0:0:0:
325,359,110190,2,0,P|334:333|339:306,1,55,2|2,0:2|0:2,0:0:0:0:
201,362,110329,2,0,P|196:334|187:309,1,55,2|2,0:2|0:2,0:0:0:0:
388,313,110469,2,0,P|370:291|349:274,1,55,2|2,0:2|0:2,0:0:0:0:
118,223,110608,5,6,1:3:0:0:
394,161,110748,1,2,3:2:0:0:
365,249,110887,1,0,3:0:0:0:
85,131,111027,6,0,L|41:12,1,96.8000029541017,6|0,1:3|3:0,0:0:0:0:
423,73,111306,2,0,L|386:185,1,92.3999971801759,6|0,1:3|3:0,0:0:0:0:
62,341,111585,5,4,3:2:0:0:
54,327,111655,1,0,3:0:0:0:
53,311,111724,1,0,3:0:0:0:
64,288,111794,1,0,3:0:0:0:
97,273,111864,1,0,3:0:0:0:
146,288,111934,1,0,3:0:0:0:
189,338,112003,2,0,B|211:381|276:387|329:391|352:278|281:234,1,264,6|0,3:2|0:0,0:0:0:0:
116,146,112283,6,0,L|78:139,1,32.99999899292,2|0,0:1|0:0,0:0:0:0:
450,341,112701,5,6,0:2:0:0:
458,327,112771,1,0,3:0:0:0:
459,311,112840,1,0,3:0:0:0:
448,288,112910,1,0,3:0:0:0:
415,273,112980,1,0,3:0:0:0:
366,288,113050,1,0,3:0:0:0:
323,338,113119,2,0,B|301:381|236:387|183:391|160:278|231:234,1,264,6|0,3:2|0:0,0:0:0:0:
396,146,113399,6,0,B|419:130|419:130|439:146,1,44,2|0,0:1|0:0,0:0:0:0:
62,341,113817,5,6,0:2:0:0:
54,327,113887,1,0,3:0:0:0:
53,311,113956,1,0,3:0:0:0:
64,288,114026,1,0,3:0:0:0:
97,273,114096,1,0,3:0:0:0:
146,288,114166,1,0,3:0:0:0:
189,338,114235,2,0,B|211:381|276:387|329:391|352:278|281:234,1,264,6|0,3:2|0:0,0:0:0:0:
114,146,114516,6,0,B|101:116|65:94|20:103|-35:172|20:129|30:206|-34:174|58:241|121:227|161:216|168:128|240:110|314:148,1,461.999985900879,2|0,0:1|0:2,0:0:0:0:
286,237,115073,5,6,1:3:0:0:
177,34,115213,1,2,3:2:0:0:
334,49,115352,1,0,3:0:0:0:
306,345,115492,6,0,L|285:236,1,110,6|0,1:3|3:0,0:0:0:0:
457,66,115771,2,0,L|436:174,1,110,6|0,1:3|3:0,0:0:0:0:
174,221,116050,6,0,P|163:267|144:312,1,96.8000029541017,6|0,0:2|0:0,0:0:0:0:
60,289,117027,6,0,L|35:300,1,24.2000007385254,0|0,0:0|0:0,0:0:0:0:
138,197,117306,2,0,P|161:239|178:284,1,96.8000029541017,0|0,0:0|0:0,0:0:0:0:
285,333,118143,6,0,L|310:344,1,24.2000007385254,0|0,0:0|0:0,0:0:0:0:
401,383,118422,2,0,P|424:341|441:296,1,96.8000029541017,0|0,0:0|0:0,0:0:0:0:
285,333,119259,6,0,L|311:325,1,24.2000007385254,0|0,0:0|0:0,0:0:0:0:
441,295,119538,2,0,P|431:248|415:202,1,96.8000029541017,0|0,0:0|0:0,0:0:0:0:
285,333,120376,1,0,0:0:0:0:
0,192,120656,5,6,3:2:0:0:
8,196,120795,1,0,3:0:0:0:
161,299,120934,1,2,1:2:0:0:
50,334,121213,1,2,1:2:0:0:
273,269,121492,1,2,1:2:0:0:
113,163,121771,5,2,3:2:0:0:
121,169,121910,1,0,3:0:0:0:
273,269,122050,1,2,1:2:0:0:
161,299,122329,1,2,1:2:0:0:
387,245,122608,1,2,1:2:0:0:
226,140,122887,5,2,3:2:0:0:
235,147,123026,1,0,3:0:0:0:
387,245,123166,1,2,1:2:0:0:
273,269,123445,1,2,1:2:0:0:
502,227,123724,1,2,1:2:0:0:
342,123,124003,5,2,3:2:0:0:
350,130,124142,1,0,3:0:0:0:
502,227,124283,1,2,1:2:0:0:
387,245,124562,1,2,1:2:0:0:
472,73,124841,5,6,1:2:0:0:
435,335,124980,2,0,L|232:307,1,165,6|0,3:2|0:0,0:0:0:0:
220,272,125259,2,0,L|205:373,1,55,8|8,3:3|0:3,0:0:0:0:
156,267,125399,5,8,0:3:0:0:
158,315,125468,1,8,0:3:0:0:
99,275,125538,5,0,3:0:0:0:
109,316,125607,1,0,3:0:0:0:
52,293,125678,5,4,0:3:0:0:
69,327,125747,1,4,0:3:0:0:
17,324,125817,5,0,3:0:0:0:
37,350,125886,1,0,3:0:0:0:
0,354,125957,5,6,1:2:0:0:
85,49,126096,2,0,L|288:77,1,181.500005538941,6|0,3:2|0:0,0:0:0:0:
314,37,126376,2,0,L|328:138,1,60.5000018463135,8|8,3:3|0:3,0:0:0:0:
370,71,126515,5,8,0:3:0:0:
363,122,126584,1,8,0:3:0:0:
414,115,126655,5,0,3:0:0:0:
396,156,126724,1,0,3:0:0:0:
442,168,126794,5,4,0:3:0:0:
419,198,126863,1,4,0:3:0:0:
457,224,126934,5,0,3:0:0:0:
430,244,127003,1,0,3:0:0:0:
459,278,127073,5,6,1:2:0:0:
169,366,127213,2,0,P|203:293|338:304,1,197.99999395752,6|0,3:2|0:0,0:0:0:0:
331,379,127492,2,0,P|286:375|257:357,1,65.9999979858399,8|8,3:3|0:3,0:0:0:0:
149,269,127631,5,8,0:3:0:0:
140,204,127701,1,8,0:3:0:0:
96,235,127771,5,0,3:0:0:0:
110,183,127840,1,0,3:0:0:0:
58,192,127910,5,4,0:3:0:0:
92,152,127979,1,4,0:3:0:0:
47,142,128050,5,0,3:0:0:0:
89,116,128119,1,0,3:0:0:0:
66,82,128190,5,6,1:2:0:0:
400,11,128329,2,0,L|370:226,1,214.49999018097,6|0,3:2|0:0,0:0:0:0:
414,328,128608,2,0,P|379:345|345:343,1,71.4999967269899,8|8,3:3|0:3,0:0:0:0:
220,305,128748,5,8,0:3:0:0:
255,250,128817,1,8,0:3:0:0:
184,255,128887,5,0,3:0:0:0:
230,235,128956,1,0,3:0:0:0:
182,192,129027,5,4,0:3:0:0:
223,203,129096,1,4,0:3:0:0:
218,140,129166,5,0,3:0:0:0:
239,170,129235,1,0,3:0:0:0:
279,117,129306,5,6,1:2:0:0:
214,218,131817,6,0,P|175:277|159:345,1,140.250002675057,6|0,3:2|0:2,0:0:0:0:
432,197,131992,2,0,P|368:170|298:166,1,140.250002675057,6|0,3:2|0:2,0:0:0:0:
200,202,132166,6,0,P|142:242|101:299,1,140.250002675057,6|0,3:2|0:2,0:0:0:0:
429,118,132341,2,0,P|359:123|295:151,1,140.250002675057,6|0,3:2|0:2,0:0:0:0:
193,181,132515,6,0,P|125:196|65:234,1,140.250002675057,6|0,3:2|0:2,0:0:0:0:
389,48,132690,2,0,P|329:84|285:138,1,140.250002675057,6|0,3:2|0:2,0:0:0:0:
193,159,132864,6,0,P|124:147|55:160,1,140.250002675057,6|0,3:2|0:2,0:0:0:0:
321,3,133038,2,0,P|284:62|269:130,1,140.250002675057,6|0,3:2|0:2,0:0:0:0:
326,322,133213,6,0,L|194:75,1,280.500005350113,6|0,3:2|0:0,0:0:0:0:
194,75,133910,6,0,B|219:100|225:163|191:198|191:198|158:222|99:221|63:184|63:184|73:138|127:105,1,330.000012588501,6|0,3:2|3:2,0:0:0:0:
344,21,134329,2,0,L|507:45,1,165.000006294251,0|8,1:2|0:3,0:0:0:0:
417,149,134538,1,8,0:3:0:0:
419,133,134608,1,4,0:3:0:0:
329,31,134748,1,0,1:0:0:0:
487,257,134887,1,4,0:3:0:0:
210,191,135027,6,0,L|593:130,1,330.000012588501,6|0,3:2|3:2,0:0:0:0:
322,341,135445,2,0,L|159:317,1,165.000006294251,0|8,1:2|0:3,0:0:0:0:
14,176,135724,2,0,L|37:322,1,82.5000031471254,8|8,0:3|0:3,0:0:0:0:
66,337,135864,1,4,0:3:0:0:
64,346,135934,1,4,0:3:0:0:
63,356,136003,1,4,0:3:0:0:
62,366,136073,1,4,0:3:0:0:
158,316,136143,6,0,B|189:281|198:243|153:192|146:189|138:185|58:155|77:32|247:58|185:145,1,330.000012588501,6|0,3:2|3:2,0:0:0:0:
0,107,136561,1,8,0:3:0:0:
2,98,136631,1,8,0:3:0:0:
3,88,136700,1,0,0:0:0:0:
4,78,136770,1,0,0:0:0:0:
36,38,136841,5,2,1:2:0:0:
115,58,136910,1,0,1:0:0:0:
194,77,136980,1,0,1:0:0:0:
274,96,137050,1,0,1:0:0:0:
353,115,137120,1,0,1:0:0:0:
433,134,137189,1,0,1:0:0:0:
512,153,137259,1,2,3:3:0:0:
286,384,137538,5,2,3:3:0:0:
0,231,137817,5,2,3:3:0:0:
226,0,138096,5,2,3:3:0:0:
512,153,138376,6,0,B|465:222|485:311|485:311|431:304|360:337|339:377,1,330.000012588501,6|0,3:2|3:2,0:0:0:0:
27,275,138794,2,0,P|106:280|201:329,1,165.000006294251,0|2,1:0|0:3,0:0:0:0:
340,374,139073,1,2,3:2:0:0:
393,143,139213,1,2,0:3:0:0:
51,330,139352,2,0,P|113:279|194:286,1,165.000006294251,2|2,1:2|0:3,0:0:0:0:
340,374,139631,5,0,3:0:0:0:
278,193,139771,1,2,0:3:0:0:
216,12,139910,1,2,1:2:0:0:
356,271,140050,2,0,L|513:323,1,165.000006294251,2|0,0:3|3:0,0:0:0:0:
156,113,140329,2,0,L|0:62,1,165.000006294251,2|0,0:3|1:0,0:0:0:0:
278,193,140608,5,2,0:3:0:0:
418,169,140748,5,0,3:0:0:0:
177,213,140887,2,0,L|83:228,1,82.5000031471254,0|0,1:0|0:0,0:0:0:0:
311,358,141027,1,2,3:2:0:0:
308,341,141096,1,0,0:0:0:0:
305,325,141166,1,2,1:3:0:0:
254,53,141306,5,0,3:0:0:0:
138,304,141445,1,0,1:0:0:0:
418,169,141585,1,2,3:2:0:0:
401,171,141654,1,0,0:0:0:0:
385,174,141724,1,2,1:3:0:0:
177,213,141864,6,0,L|258:199,1,82.5000031471254,6|0,3:2|0:0,0:0:0:0:
499,155,142003,2,0,L|417:168,1,82.5000031471254,8|4,0:3|0:3,0:0:0:0:
95,226,142143,1,2,1:3:0:0:
313,27,142283,6,0,L|325:103,1,55,2|0,3:3|0:0,0:0:0:0:
363,341,142562,2,0,L|353:286,1,55,2|0,3:3|0:0,0:0:0:0:
0,231,142841,6,0,B|47:162|27:73|27:73|81:80|152:47|173:7,1,330.000012588501,6|0,3:2|3:2,0:0:0:0:
499,155,143259,2,0,P|479:83|408:19,1,165.000006294251,0|8,1:2|0:3,0:0:0:0:
344,218,143469,1,8,0:3:0:0:
355,203,143539,1,4,0:3:0:0:
231,104,143678,1,0,1:0:0:0:
192,375,143817,1,4,0:3:0:0:
467,259,143957,6,0,P|462:101|329:16,1,330.000012588501,6|0,3:2|3:2,0:0:0:0:
404,344,144376,2,0,P|464:300|500:211,1,165.000006294251,0|8,1:2|0:3,0:0:0:0:
231,104,144655,2,0,P|230:145|240:184,1,82.5000031471254,8|8,0:3|0:3,0:0:0:0:
337,290,144794,1,4,0:3:0:0:
322,281,144864,1,4,0:3:0:0:
307,275,144934,1,4,0:3:0:0:
291,272,145004,1,4,0:3:0:0:
206,330,145073,6,0,B|179:243|78:198|0:201|61:229|-8:205|11:268|-4:220|9:332|85:320,1,330.000012588501,6|0,3:2|3:2,0:0:0:0:
96,167,145492,5,8,0:3:0:0:
107,155,145562,1,8,0:3:0:0:
119,145,145632,1,4,0:3:0:0:
135,137,145702,1,4,0:3:0:0:
120,182,145771,5,2,1:2:0:0:
162,252,145841,1,0,1:0:0:0:
239,227,145910,1,0,1:0:0:0:
259,146,145980,1,0,1:0:0:0:
183,108,146050,1,0,1:0:0:0:
203,27,146120,1,0,1:0:0:0:
280,2,146189,1,2,3:3:0:0:
352,384,146469,5,2,3:3:0:0:
64,160,146748,5,2,3:3:0:0:
512,256,147027,5,2,3:3:0:0:
0,321,147306,6,0,P|167:338|323:385,1,330.000012588501,6|0,3:2|3:2,0:0:0:0:
228,159,147724,1,0,1:0:0:0:
315,369,147864,1,2,0:3:0:0:
481,191,148003,6,0,P|400:210|323:237,1,165.000006294251,2|2,3:2|0:3,0:0:0:0:
322,384,148283,1,2,1:2:0:0:
221,144,148422,1,2,0:3:0:0:
62,336,148562,6,0,P|139:308|219:289,1,165.000006294251,2|2,3:2|0:3,0:0:0:0:
401,325,148841,1,2,1:2:0:0:
214,129,148980,6,0,P|136:101|56:82,1,165.000006294251,2|0,0:3|3:0,0:0:0:0:
190,384,149259,6,0,P|348:337|512:321,1,330.000012588501,2|2,0:3|0:3,0:0:0:0:
221,144,149678,1,8,3:3:0:0:
322,384,149817,1,6,3:3:0:0:
480,177,149957,1,0,1:0:0:0:
488,165,150096,1,2,3:3:0:0:
255,260,150236,5,8,3:3:0:0:
497,154,150376,1,6,3:3:0:0:
300,40,150515,5,8,1:3:0:0:
378,223,150655,1,2,3:3:0:0:
51,88,150794,6,0,P|128:60|208:41,2,165.000006294251,8|4|0,0:3|0:3|0:0,0:0:0:0:
405,67,151213,6,0,P|352:51|299:39,1,110,2|0,3:3|0:0,0:0:0:0:
478,177,151492,2,0,P|427:198|378:223,1,110,2|0,3:3|0:0,0:0:0:0:
321,384,151771,6,0,P|175:277|0:321,1,374.000007133484,6|0,2:2|2:2,0:0:0:0:
63,42,152190,2,0,P|119:100|114:181,1,165.000006294251,2|0,1:2|2:0,0:0:0:0:
296,284,152469,5,4,1:3:0:0:
290,275,152539,1,0,0:0:0:0:
346,253,152608,5,4,1:3:0:0:
350,243,152678,1,0,0:0:0:0:
397,280,152748,5,4,1:3:0:0:
408,279,152818,1,0,0:0:0:0:
434,366,152887,6,0,P|497:213|337:143,1,374.000007133484,6|0,2:2|2:2,0:0:0:0:
0,35,153306,2,0,P|80:30|137:86,1,165.000006294251,2|0,1:2|2:0,0:0:0:0:
167,321,153585,5,8,0:3:0:0:
124,297,153655,1,8,0:3:0:0:
152,267,153724,1,4,0:3:0:0:
192,258,153794,1,4,0:3:0:0:
230,274,153864,1,4,0:3:0:0:
252,308,153934,1,4,0:3:0:0:
285,384,154003,6,0,P|252:202|314:28,1,374.000007133484,6|0,3:2|3:2,0:0:0:0:
0,120,154422,2,0,P|47:54|128:45,1,165.000006294251,2|0,1:2|2:0,0:0:0:0:
357,282,154701,1,4,1:3:0:0:
124,197,154841,1,4,1:3:0:0:
463,115,154980,1,4,1:3:0:0:
33,353,155120,6,0,P|236:223|471:275,1,495.000018882752,6|8,3:2|0:3,0:0:0:0:
496,248,155608,1,8,0:3:0:0:
481,240,155677,1,8,0:3:0:0:
465,239,155747,1,8,0:3:0:0:
450,245,155817,1,4,0:3:0:0:
439,258,155887,1,4,0:3:0:0:
435,273,155956,1,4,0:3:0:0:
437,289,156026,1,4,0:3:0:0:
471,275,156097,5,2,1:3:0:0:
331,365,156376,5,0,0:0:0:0:
331,365,156515,2,0,L|12:299,1,275,2|0,3:3|0:0,0:0:0:0:
44,346,156794,5,0,0:0:0:0:
44,346,156933,2,0,L|329:191,1,275,2|0,3:3|0:0,0:0:0:0:
277,255,157213,5,0,0:0:0:0:
277,255,157352,2,0,L|156:-46,1,275,2|0,3:3|0:0,0:0:0:0:
138,16,157631,5,0,0:0:0:0:
138,16,157770,2,0,L|456:81,1,275,2|0,3:3|0:0,0:0:0:0:
444,87,158050,5,0,0:0:0:0:
444,87,158189,2,0,L|125:152,1,275,2|8,3:3|0:3,0:0:0:0:
104,188,158399,5,8,0:3:0:0:
109,204,158469,1,0,1:3:0:0:
125,218,158538,5,0,1:3:0:0:
173,126,158608,5,6,3:2:0:0:
268,372,160701,6,0,P|214:329|165:319,2,88,0|0|0,0:0|0:0|0:0,0:0:0:0:
339,320,161120,6,0,P|313:255|276:222,1,88,2|0,0:3|0:0,0:0:0:0:
282,121,161399,2,0,P|321:139|353:169,1,88,2|0,0:3|0:0,0:0:0:0:
426,310,161678,6,0,P|436:241|420:194,2,88,2|0|2,0:3|0:0|0:3,0:0:0:0:
339,320,162096,1,0,0:0:0:0:
490,151,162236,2,0,P|478:108|452:73,1,88,2|0,0:3|0:0,0:0:0:0:
432,224,162515,1,2,0:3:0:0:
454,66,162655,1,0,3:0:0:0:
456,59,162794,1,2,0:3:0:0:
430,231,162934,6,0,P|388:253|334:261,2,88,0|0|0,3:3|0:0|0:0,0:0:0:0:
374,97,163352,2,0,P|331:105|292:126,1,88,2|0,0:3|0:0,0:0:0:0:
298,286,163631,6,0,P|339:299|383:300,1,88,2|0,0:3|0:0,0:0:0:0:
303,79,163910,2,0,P|265:102|236:134,1,88,2|0,0:3|0:0,0:0:0:0:
242,284,164190,6,0,P|271:316|308:339,1,88,2|0,0:3|0:0,0:0:0:0:
229,89,164469,2,0,P|201:123|185:164,1,88,2|0,0:3|0:0,0:0:0:0:
213,351,164748,6,0,P|193:312|184:269,2,88,2|0|2,0:3|0:0|0:3,0:0:0:0:
81,198,165166,2,0,P|66:239|68:301,1,98.9999969787599,2|0,3:3|0:0,0:0:0:0:
72,309,165445,1,2,0:2:0:0:
89,186,165585,6,0,P|119:147|161:121,1,98.9999969787599,2|0,0:2|0:0,0:0:0:0:
332,142,165864,1,2,0:2:0:0:
194,4,166003,6,0,P|240:21|277:53,1,98.9999969787599,2|0,3:3|0:0,0:0:0:0:
356,238,166283,5,2,3:3:0:0:
465,0,166422,6,0,P|427:32|398:88,1,110,2|0,0:2|0:0,0:0:0:0:
386,330,166701,1,0,0:0:0:0:
162,188,166841,6,0,P|211:188|269:212,1,110,2|2,0:2|0:2,0:0:0:0:
512,356,167120,2,0,P|463:356|405:380,1,110,2|0,0:2|0:0,0:0:0:0:
256,384,167399,6,0,B|194:369|194:369|131:353,1,126.5,0|0,0:2|0:0,0:0:0:0:
76,337,169073,5,0,3:0:0:0:
134,309,169143,1,0,3:0:0:0:
211,269,169213,2,0,B|228:260|228:260|267:222|268:199,1,88,6|0,1:2|0:2,0:0:0:0:
354,161,169631,6,0,B|385:376|385:376|500:179,1,440,6|0,3:2|0:2,0:0:0:0:
453,54,170050,2,0,B|433:181|433:181|364:64,1,197.99999395752,6|0,3:2|3:0,0:0:0:0:
339,14,170259,1,0,3:0:0:0:
453,54,170329,6,0,L|513:75,1,61.6,2|0,3:3|0:0,0:0:0:0:
447,202,170887,5,8,0:3:0:0:
421,229,170957,1,8,0:3:0:0:
384,240,171027,2,0,P|374:211|389:171,1,55,0|0,0:0|0:0,0:0:0:0:
379,349,171166,5,8,0:3:0:0:
353,322,171236,1,8,0:3:0:0:
316,311,171306,2,0,P|288:322|267:359,1,55,0|0,0:0|0:0,0:0:0:0:
138,367,171445,5,8,0:3:0:0:
101,357,171515,1,8,0:3:0:0:
73,331,171585,2,0,P|102:326|139:348,1,55,0|0,0:0|0:0,0:0:0:0:
9,246,171724,6,0,B|53:232|73:145|7:125,1,110,8|8,0:3|0:3,0:0:0:0:
1,232,171934,1,4,0:3:0:0:
26,252,172003,6,0,L|158:230,1,98.9999969787599,0|0,1:0|0:0,0:0:0:0:
341,197,172143,2,0,L|243:213,1,98.9999969787599,2|0,3:3|0:0,0:0:0:0:
468,60,172422,6,0,L|371:44,1,98.9999969787599,2|0,3:3|0:0,0:0:0:0:
82,95,172701,1,4,3:3:0:0:
76,102,172771,1,0,3:2:0:0:
182,84,172841,5,4,3:3:0:0:
190,88,172911,1,0,3:2:0:0:
287,50,172980,6,0,L|419:28,1,110,4|2,3:3|0:2,0:0:0:0:
427,122,173352,1,2,0:2:0:0:
398,201,173585,1,2,0:2:0:0:
470,352,173957,2,0,B|325:331|320:327|316:321|314:279|262:257|234:268|250:323|187:363|169:323|235:207|172:177|67:216|160:328|16:351|166:340|109:150|55:108|-92:214|-68:345|-3:368|58:382|123:363|166:313,1,701.250013375283,6|0,1:2|0:0,0:0:0:0:
282,350,175073,6,0,L|377:365,1,82.5,12|0,0:3|0:0,0:0:0:0:
499,254,175352,6,0,P|511:201|486:142,1,98.9999969787599,6|0,3:2|0:0,0:0:0:0:
332,41,175492,2,0,P|288:73|269:135,1,98.9999969787599,2|0,0:2|0:0,0:0:0:0:
329,328,175631,2,0,P|376:314|410:279,1,98.9999969787599,2|0,1:2|0:0,0:0:0:0:
453,53,175771,5,2,1:2:0:0:
446,38,175841,1,0,1:0:0:0:
356,3,175910,2,0,P|313:13|280:41,1,88,0|0,3:0|0:0,0:0:0:0:
193,255,176050,2,0,P|205:213|197:170,1,88,2|0,1:2|0:0,0:0:0:0:
72,29,176190,2,0,P|114:39|147:67,1,88,2|0,1:3|0:0,0:0:0:0:
99,309,176329,5,0,1:0:0:0:
74,317,176399,1,0,1:0:0:0:
48,309,176469,1,8,0:3:0:0:
29,290,176538,1,8,0:3:0:0:
24,263,176608,1,6,0:3:0:0:
36,239,176678,1,4,0:3:0:0:
121,225,176748,5,6,1:2:0:0:
110,267,176817,1,0,0:0:0:0:
99,309,176887,1,2,3:2:0:0:
88,351,176957,1,0,0:0:0:0:
164,383,177027,6,0,B|221:358|221:358|358:377|358:377|444:325,1,264,8|0,0:3|0:0,0:0:0:0:
495,271,177306,5,2,1:2:0:0:
412,259,177375,1,0,1:2:0:0:
329,248,177445,1,0,1:2:0:0:
246,236,177515,1,0,1:2:0:0:
235,247,177585,6,0,P|227:195|207:140,1,88,6|0,3:2|0:0,0:0:0:0:
288,5,177724,2,0,P|300:47|306:90,1,88,2|0,2:2|0:0,0:0:0:0:
106,212,177864,2,0,P|125:163|135:105,1,88,2|0,2:2|0:0,0:0:0:0:
375,160,178003,1,2,1:2:0:0:
388,164,178073,1,0,1:2:0:0:
433,174,178143,6,0,P|467:135|496:83,1,88,2|0,3:2|0:0,0:0:0:0:
329,248,178283,2,0,P|348:287|362:329,1,88,0|0,1:0|0:0,0:0:0:0:
138,384,178422,2,0,P|151:342|171:302,1,88,2|0,3:3|0:0,0:0:0:0:
27,203,178562,6,0,P|46:242|59:284,1,88,2|0,1:2|0:0,0:0:0:0:
235,247,178701,1,8,0:3:0:0:
241,224,178770,1,4,0:3:0:0:
247,201,178840,1,0,3:0:0:0:
253,178,178910,1,0,3:0:0:0:
321,128,178980,6,0,P|307:86|260:72,1,88,2|0,1:2|0:0,0:0:0:0:
150,29,179120,2,0,P|111:49|105:98,1,88,2|0,1:2|0:0,0:0:0:0:
361,185,179259,6,0,P|377:144|350:102,1,88,2|0,3:2|3:3,0:0:0:0:
293,0,179399,2,0,P|249:-8|214:24,1,88,0|0,3:0|3:0,0:0:0:0:
165,245,179538,5,2,1:2:0:0:
187,303,179608,1,0,0:0:0:0:
248,317,179678,1,2,0:3:0:0:
301,282,179748,1,0,0:0:0:0:
341,333,179817,6,0,B|371:352|371:352|465:334,1,98.9999969787599,6|0,3:2|0:0,0:0:0:0:
512,177,179957,2,0,B|491:144|491:144|397:126,1,98.9999969787599,2|0,3:2|0:0,0:0:0:0:
235,247,180096,2,0,B|424:210,1,98.9999969787599,2|0,1:2|0:0,0:0:0:0:
383,58,180236,5,2,1:2:0:0:
312,14,180306,1,0,1:0:0:0:
232,38,180376,2,0,B|216:68|216:68|236:134,1,88,2|0,3:2|0:0,0:0:0:0:
195,342,180515,2,0,B|211:312|211:312|191:246,1,88,2|0,1:2|0:0,0:0:0:0:
34,141,180655,2,0,B|131:159,1,88,2|0,0:3|0:0,0:0:0:0:
368,82,180794,2,0,B|336:94|336:94|309:158,1,88,0|0,1:0|1:0,0:0:0:0:
377,327,180934,5,8,0:3:0:0:
397,319,181003,1,8,0:3:0:0:
418,314,181073,1,4,0:3:0:0:
439,312,181143,1,4,0:3:0:0:
426,334,181213,5,6,1:2:0:0:
418,314,181282,1,0,0:0:0:0:
413,293,181352,1,8,0:3:0:0:
411,272,181422,1,0,0:0:0:0:
461,200,181492,6,0,B|479:182|493:174|504:168|504:168|481:162|436:141|388:118|366:104|366:104|368:116|371:136|372:182,1,264,4|0,0:3|0:0,0:0:0:0:
333,237,181771,5,2,1:2:0:0:
252,258,181841,1,0,0:0:0:0:
171,279,181910,1,0,1:2:0:0:
90,300,181980,1,0,1:2:0:0:
81,316,182050,5,6,1:2:0:0:
0,242,182190,1,2,3:2:0:0:
132,119,182329,2,0,L|94:238,1,90.7500008654595,2|0,1:2|0:0,0:0:0:0:
175,373,182469,5,0,3:0:0:0:
197,369,182538,1,0,3:0:0:0:
219,365,182608,2,0,L|295:345,1,49.4999984893799,2|0,3:3|0:0,0:0:0:0:
361,145,182748,6,0,L|323:264,1,96.2500009179115,2|0,1:2|0:0,0:0:0:0:
443,352,182887,5,0,3:0:0:0:
421,348,182957,1,0,3:0:0:0:
399,344,183027,2,0,L|323:324,1,55,2|0,3:3|0:0,0:0:0:0:
165,187,183166,6,0,L|258:272,1,101.749999611855,2|0,1:2|0:0,0:0:0:0:
427,256,183306,5,0,3:0:0:0:
449,252,183376,1,0,3:0:0:0:
471,248,183446,2,0,L|547:228,1,60.5000018463135,2|0,3:3|0:0,0:0:0:0:
227,9,183585,6,0,L|265:129,1,107.250000409126,2|0,1:2|0:0,0:0:0:0:
512,48,183724,5,0,3:0:0:0:
490,52,183794,1,0,3:0:0:0:
468,55,183864,2,0,L|392:75,1,63.250001206398,2|0,3:3|0:0,0:0:0:0:
142,101,184003,6,0,L|32:76,1,112.750001720429,2|0,1:2|0:0,0:0:0:0:
0,307,184143,5,6,3:2:0:0:
256,335,184562,1,2,0:3:0:0:
512,363,185120,1,2,0:3:0:0:
423,379,185399,5,6,1:2:0:0:
376,114,185538,2,0,B|396:85|444:76|502:116|537:177|444:246|395:261|298:223|273:148,1,363.000011077881,2|0,3:2|0:0,0:0:0:0:
147,17,185817,2,0,L|187:183,1,142.99999345398,2|0,1:2|3:0,0:0:0:0:
33,334,186096,2,0,L|0:194,1,142.99999345398,2|0,1:2|0:0,0:0:0:0:
162,372,186376,6,0,P|309:287|534:286,1,395.999987915039,4|2,3:1|0:2,0:0:0:0:
137,154,186794,2,0,P|192:265|317:273,1,264,6|0,1:2|0:0,0:0:0:0:
345,60,187073,2,0,P|209:24|125:135,1,296.99999093628,6|0,1:2|0:0,0:0:0:0:
427,203,187352,5,8,0:3:0:0:
431,195,187421,1,8,0:3:0:0:
435,187,187492,2,0,B|481:167|481:167|461:227,1,110,4|4,0:3|0:3,0:0:0:0:
319,272,187631,1,6,1:2:0:0:
512,129,187771,2,0,B|473:243,1,121.000003692627,2|0,3:2|0:0,0:0:0:0:
427,368,187910,1,0,1:0:0:0:
221,196,188050,6,0,P|155:169|84:173,1,142.99999345398,2|0,3:3|0:0,0:0:0:0:
370,14,188329,2,0,P|294:40|236:110,1,142.99999345398,2|0,3:0|0:0,0:0:0:0:
6,227,188608,6,0,P|149:201|276:274,1,296.99999093628,4|0,3:1|0:0,0:0:0:0:
224,349,188887,1,2,0:2:0:0:
490,293,189027,6,0,B|420:281|420:281|341:326,1,142.99999345398,4|0,1:3|3:0,0:0:0:0:
84,173,189306,2,0,B|156:166|156:166|221:196,1,142.99999345398,4|0,1:3|3:0,0:0:0:0:
512,129,189585,2,0,B|449:164|449:164|379:152,1,142.99999345398,4|0,1:3|3:0,0:0:0:0:
301,134,189794,1,0,3:0:0:0:
319,56,189864,5,4,1:3:0:0:
363,339,190003,2,0,B|241:272|143:315|143:315|194:361,1,242.000007385254,2|0,3:3|0:0,0:0:0:0:
2,167,190283,6,0,B|78:145|141:208|141:208,1,142.99999345398,2|0,3:3|0:0,0:0:0:0:
360,10,190562,2,0,B|293:54|301:143|301:143,1,142.99999345398,2|0,3:3|0:0,0:0:0:0:
307,346,190841,5,6,3:2:0:0:
141,104,191050,1,6,3:2:0:0:
465,325,191259,5,6,3:2:0:0:
184,24,191469,1,6,3:2:0:0:
488,244,191678,5,6,3:2:0:0:
360,10,191887,1,6,3:2:0:0:
296,380,192096,5,2,3:2:0:0:
202,284,192794,2,0,B|212:278|223:277|223:277|218:283|218:283|231:276|231:276|227:283|227:283|238:276|238:276|249:276|261:279,1,76.9999976501466,6|0,3:3|0:0,0:0:0:0:
