osu file format v14

[General]
AudioFilename: audio.mp3
AudioLeadIn: 0
PreviewTime: 57027
Countdown: 0
SampleSet: Soft
StackLeniency: 0.4
Mode: 0
LetterboxInBreaks: 1
WidescreenStoryboard: 1

[Editor]
DistanceSpacing: 0.5
BeatDivisor: 4
GridSize: 32
TimelineZoom: 3.749998

[Metadata]
Title:Tenohira de odoru
TitleUnicode:掌で踊る
Artist:sokoninaru
ArtistUnicode:そこに鳴る
Creator:Smokeman
Version:Knight's Insane
Source:
Tags:ゼロ zero KOGA RECORDS j-pop j-rock japanese metal alternative indie rock math-rock celektus knightc0re knightcore
BeatmapID:2096993
BeatmapSetID:902587

[Difficulty]
HPDrainRate:6
CircleSize:3.5
OverallDifficulty:7.6
ApproachRate:9
SliderMultiplier:1.7
SliderTickRate:1

[Events]
//Background and Video events
0,0,"TenohiraBG.jpg",0,0
//Break Periods
2,297,3822
2,26948,30194
2,129785,131217
//Storyboard Layer 0 (Background)
//Storyboard Layer 1 (Fail)
//Storyboard Layer 2 (Pass)
//Storyboard Layer 3 (Foreground)
//Storyboard Layer 4 (Overlay)
//Storyboard Sound Samples

[TimingPoints]
97,279.06976744186,4,2,1,30,1,0
4422,-200,4,2,1,30,0,0
4562,-285.714285714286,4,2,1,30,0,0
5399,-200,4,2,1,30,0,0
6794,-285.714285714286,4,2,1,30,0,0
7631,-200,4,2,1,30,0,0
9027,-66.6666666666667,4,2,1,30,0,0
9445,-133.333333333333,4,2,1,30,0,0
10143,-66.6666666666667,4,2,1,30,0,0
10562,-133.333333333333,4,2,1,30,0,0
12655,-100,4,2,1,30,0,0
13213,-200,4,2,1,30,0,0
13283,-200,4,2,1,5,0,0
13492,-100,4,2,1,30,0,0
14329,-133.333333333333,4,2,1,30,0,0
14887,-100,4,2,1,30,0,0
15445,-133.333333333333,4,2,1,30,0,0
15724,-100,4,2,1,30,0,0
16562,-133.333333333333,4,2,1,30,0,0
17120,-100,4,2,1,30,0,0
17678,-133.333333333333,4,2,1,30,0,0
17957,-100,4,2,1,30,0,0
18794,-133.333333333333,4,2,1,30,0,0
19352,-100,4,2,1,30,0,0
21166,-111.111111111111,4,2,1,30,0,0
21236,-111.111111111111,4,2,1,5,0,0
21445,-125,4,2,1,30,0,0
21515,-125,4,2,1,5,0,0
21724,-142.857142857143,4,2,1,30,0,0
21794,-142.857142857143,4,2,1,5,0,0
22003,-166.666666666667,4,2,1,30,0,0
22073,-166.666666666667,4,2,1,5,0,0
22283,-200,4,2,1,30,0,0
22701,-100,4,2,1,30,0,0
24515,-200,4,2,1,30,0,0
24934,-125,4,2,1,30,0,0
25213,-111.111111111111,4,2,1,30,0,0
25492,-100,4,2,1,30,0,0
26469,-66.6666666666667,4,2,1,30,0,0
26538,-66.6666666666667,4,2,1,5,0,0
26748,-66.6666666666667,4,2,1,30,0,0
30794,-100,4,2,1,30,0,0
31073,-100,4,2,1,5,0,0
31213,-200,4,2,1,30,0,0
31631,-100,4,2,1,30,0,0
33027,-66.6666666666667,4,2,1,30,0,0
33445,-200,4,2,1,30,0,0
33864,-100,4,2,1,30,0,0
34701,-133.333333333333,4,2,1,30,0,0
35399,-66.6666666666667,4,2,1,30,0,0
35469,-66.6666666666667,4,2,1,5,0,0
35678,-133.333333333333,4,2,1,30,0,0
38120,-133.333333333333,4,2,1,5,0,0
38190,-133.333333333333,4,2,1,30,0,0
38329,-200,4,2,1,30,0,0
39724,-100,4,2,1,30,0,0
40143,-133.333333333333,4,2,1,30,0,0
40562,-100,4,2,1,30,0,0
41957,-66.6666666666667,4,2,1,30,0,0
42376,-133.333333333333,4,2,1,30,0,0
42794,-100,4,2,1,30,0,0
43631,-133.333333333333,4,2,1,30,0,0
44329,-66.6666666666667,4,2,1,30,0,0
44399,-66.6666666666667,4,2,1,5,0,0
44608,-200,4,2,1,30,0,0
49073,-133.333333333333,4,2,1,30,0,0
49492,-100,4,2,1,30,0,0
50190,-133.333333333333,4,2,1,30,0,0
50608,-100,4,2,1,30,0,0
53120,-133.333333333333,4,2,1,30,0,0
53190,-133.333333333333,4,2,1,5,0,0
53259,-133.333333333333,4,2,1,30,0,0
53329,-133.333333333333,4,2,1,5,0,0
53538,-200,4,2,1,30,0,0
53957,-100,4,2,1,30,0,0
55771,-200,4,2,1,30,0,0
56120,-200,4,2,1,5,0,0
56190,-125,4,2,1,30,0,0
56469,-111.111111111111,4,2,1,30,0,0
56748,-100,4,2,1,30,0,0
58003,-100,4,2,1,80,0,1
58422,-80,4,2,1,80,0,1
59120,-100,4,2,1,80,0,1
59538,-80,4,2,1,80,0,1
60236,-100,4,2,1,80,0,1
60655,-133.333333333333,4,2,1,80,0,1
61352,-100,4,2,1,80,0,0
61422,-100,4,2,1,5,0,0
61631,-100,4,2,1,80,0,0
61701,-100,4,2,1,5,0,0
61910,-100,4,2,1,80,0,0
61980,-100,4,2,1,5,0,0
62190,-100,4,2,1,80,0,0
62259,-100,4,2,1,5,0,0
62469,-133.333333333333,4,2,1,80,0,1
62887,-100,4,2,1,80,0,1
66376,-133.333333333333,4,2,1,80,0,0
66445,-133.333333333333,4,2,1,5,0,0
66655,-133.333333333333,4,2,1,80,0,0
66724,-133.333333333333,4,2,1,5,0,0
66934,-100,4,2,1,80,0,1
67352,-80,4,2,1,80,0,1
68050,-100,4,2,1,80,0,1
68469,-80,4,2,1,80,0,1
69166,-100,4,2,1,80,0,1
69585,-133.333333333333,4,2,1,80,0,1
70283,-100,4,2,1,80,0,0
70352,-100,4,2,1,5,0,0
70562,-100,4,2,1,80,0,0
70631,-100,4,2,1,5,0,0
70841,-100,4,2,1,80,0,0
70910,-100,4,2,1,5,0,0
71120,-100,4,2,1,80,0,0
71190,-100,4,2,1,5,0,0
71399,-133.333333333333,4,2,1,80,0,1
71817,-80,4,2,1,80,0,1
74887,-100,4,2,1,80,0,1
75306,-133.333333333333,4,2,1,80,0,0
75376,-100,4,2,1,5,0,0
75585,-133.333333333333,4,2,1,80,0,0
75655,-100,4,2,1,5,0,0
75864,-100,4,2,1,80,0,1
76283,-66.6666666666667,4,2,1,80,0,1
76980,-100,4,2,1,80,0,1
77399,-66.6666666666667,4,2,1,80,0,1
77678,-133.333333333333,4,2,1,80,0,1
78096,-100,4,2,1,80,0,1
78515,-66.6666666666667,4,2,1,80,0,1
79213,-100,4,2,1,80,0,1
79910,-133.333333333333,4,2,1,80,0,1
80190,-200,4,2,1,80,0,0
80469,-66.6666666666667,4,2,1,80,0,0
82701,-250,4,2,1,80,0,1
84864,-250,4,2,1,5,0,1
84934,-400,4,2,1,40,0,0
85352,-333.333333333333,4,2,1,40,0,0
85771,-285.714285714286,4,2,1,40,0,0
86190,-250,4,2,1,40,0,0
86608,-222.222222222222,4,2,1,40,0,0
87027,-1000,4,2,1,40,0,0
87096,-1000,4,2,0,5,0,0
89120,-200,4,2,1,40,0,0
89190,-100,4,2,1,5,0,0
89399,-100,4,2,1,40,0,0
90236,-133.333333333333,4,2,1,40,0,0
90794,-100,4,2,1,40,0,0
92469,-133.333333333333,4,2,1,40,0,0
93027,-100,4,2,1,40,0,0
93585,-133.333333333333,4,2,1,40,0,0
93864,-100,4,2,1,40,0,0
94701,-133.333333333333,4,2,1,40,0,0
95259,-100,4,2,1,40,0,0
97073,-133.333333333333,4,2,1,40,0,0
97143,-133.333333333333,4,2,1,5,0,0
97352,-133.333333333333,4,2,1,40,0,0
97771,-66.6666666666667,4,2,1,40,0,0
97841,-100,4,2,1,5,0,0
98190,-133.333333333333,4,2,1,40,0,0
101957,-100,4,2,1,40,0,0
102236,-66.6666666666667,4,2,1,40,0,0
102655,-133.333333333333,4,2,1,40,0,0
103073,-100,4,2,1,40,0,0
106143,-50,4,2,1,40,0,0
106213,-100,4,2,1,5,0,0
106422,-200,4,2,1,40,0,0
107538,-50,4,2,1,40,0,0
107817,-400,4,2,1,40,0,0
108236,-200,4,2,1,40,0,0
108655,-50,4,2,1,40,0,0
108934,-400,4,2,1,40,0,0
109352,-200,4,2,1,40,0,0
109771,-50,4,2,1,40,0,0
110050,-400,4,2,1,40,0,0
110748,-133.333333333333,4,2,1,40,0,0
111306,-100,4,2,1,40,0,0
112283,-400,4,2,1,40,0,0
112701,-100,4,2,1,40,0,0
113399,-400,4,2,1,40,0,0
113817,-100,4,2,1,40,0,0
114515,-400,4,2,1,40,0,0
115073,-133.333333333333,4,2,1,40,0,0
115771,-100,4,2,1,40,0,0
116050,-200,4,2,1,40,0,0
124980,-133.333333333333,4,2,1,40,0,0
126096,-114.285714285714,4,2,1,40,0,0
127213,-100,4,2,1,40,0,0
128190,-88.8888888888889,4,2,1,40,0,0
129306,-133.333333333333,4,2,1,40,0,0
133910,-100,4,2,1,80,0,1
134329,-80,4,2,1,80,0,1
135027,-100,4,2,1,80,0,1
135445,-80,4,2,1,80,0,1
136143,-100,4,2,1,80,0,1
137259,-100,4,2,1,80,0,0
137329,-100,4,2,1,5,0,0
137538,-100,4,2,1,80,0,0
137608,-100,4,2,1,5,0,0
137817,-100,4,2,1,80,0,0
137887,-100,4,2,1,5,0,0
138096,-100,4,2,1,80,0,0
138166,-100,4,2,1,5,0,0
138376,-133.333333333333,4,2,1,80,0,1
138794,-100,4,2,1,80,0,1
142283,-133.333333333333,4,2,1,80,0,0
142352,-133.333333333333,4,2,1,5,0,0
142562,-133.333333333333,4,2,1,80,0,0
142631,-100,4,2,1,5,0,0
142841,-100,4,2,1,80,0,1
143259,-80,4,2,1,80,0,1
143957,-100,4,2,1,80,0,1
144376,-80,4,2,1,80,0,1
145073,-100,4,2,1,80,0,1
145492,-133.333333333333,4,2,1,80,0,1
146190,-100,4,2,1,80,0,0
146259,-100,4,2,1,5,0,0
146469,-100,4,2,1,80,0,0
146538,-100,4,2,1,5,0,0
146748,-100,4,2,1,80,0,0
146817,-100,4,2,1,5,0,0
147027,-100,4,2,1,80,0,0
147096,-100,4,2,1,5,0,0
147306,-133.333333333333,4,2,1,80,0,1
147724,-80,4,2,1,80,0,1
150794,-100,4,2,1,80,0,1
151213,-133.333333333333,4,2,1,80,0,0
151283,-100,4,2,1,5,0,0
151492,-133.333333333333,4,2,1,80,0,0
151562,-133.333333333333,4,2,1,5,0,0
151771,-100,4,2,1,80,0,1
152190,-66.6666666666667,4,2,1,80,0,1
152887,-100,4,2,1,80,0,1
153306,-66.6666666666667,4,2,1,80,0,1
153864,-133.333333333333,4,2,1,80,0,1
154003,-100,4,2,1,80,0,1
154422,-66.6666666666667,4,2,1,80,0,1
155120,-100,4,2,1,80,0,1
155817,-133.333333333333,4,2,1,80,0,1
156376,-133.333333333333,4,2,1,80,0,0
156585,-133.333333333333,4,2,1,5,0,0
156934,-133.333333333333,4,2,1,80,0,0
157003,-133.333333333333,4,2,1,5,0,0
157352,-133.333333333333,4,2,1,80,0,0
157422,-133.333333333333,4,2,1,5,0,0
157771,-133.333333333333,4,2,1,80,0,0
157841,-133.333333333333,4,2,1,5,0,0
158190,-133.333333333333,4,2,1,80,0,0
158259,-100,4,2,1,5,0,0
158329,-100,4,2,1,80,0,0
158608,-400,4,2,1,80,0,1
160631,-133.333333333333,4,2,1,5,0,1
160701,-200,4,2,1,50,0,0
165585,-166.666666666667,4,2,1,50,0,0
165864,-142.857142857143,4,2,1,50,0,0
166283,-125,4,2,1,50,0,0
166701,-111.111111111111,4,2,1,50,0,0
167399,-1000,4,2,1,50,0,0
167469,-1000,4,2,0,5,0,0
169073,-133.333333333333,4,2,1,50,0,0
169213,-200,4,2,1,50,0,0
169562,-200,4,2,1,5,0,0
169631,-133.333333333333,4,2,1,50,0,0
170050,-100,4,2,1,50,0,0
170329,-400,4,2,1,50,0,0
170887,-133.333333333333,4,2,1,50,0,0
172143,-133.333333333333,4,2,1,50,0,0
172213,-133.333333333333,4,2,1,5,0,0
172422,-133.333333333333,4,2,1,50,0,0
172492,-133.333333333333,4,2,1,5,0,0
172701,-133.333333333333,4,2,1,50,0,0
173957,-1000,4,2,1,50,0,0
175003,-1000,4,2,1,5,0,0
175073,-200,4,2,1,50,0,0
175143,-200,4,2,1,5,0,0
175352,-100,4,2,1,50,0,0
176190,-133.333333333333,4,2,1,50,0,0
176748,-100,4,2,1,50,0,0
178422,-133.333333333333,4,2,1,50,0,0
178980,-100,4,2,1,50,0,0
179259,-133.333333333333,4,2,1,50,0,0
179817,-100,4,2,1,50,0,0
180655,-133.333333333333,4,2,1,50,0,0
181213,-100,4,2,1,50,0,0
182748,-90.9090909090909,4,2,1,50,0,0
183166,-83.3333333333333,4,2,1,50,0,0
183585,-76.9230769230769,4,2,1,50,0,0
185538,-100,4,2,1,50,0,0
186376,-200,4,2,1,50,0,0
186794,-100,4,2,1,50,0,0
188608,-200,4,2,1,50,0,0
189027,-100,4,2,1,50,0,0
190841,-80,4,2,1,50,0,0
192794,-66.6666666666667,4,2,1,50,0,0
192864,-66.6666666666667,4,2,1,5,0,0

[Colours]
Combo1 : 192,192,192
Combo2 : 0,255,255
Combo3 : 128,255,255

[HitObjects]
0,384,97,5,6,1:3:0:0:
488,287,4422,6,0,L|489:265,1,21.25,0|0,1:0|1:0,0:0:0:0:
476,303,4562,2,0,P|500:340|511:383,1,89.2499972763062,6|6,1:2|1:2,0:0:0:0:
392,263,5259,5,0,1:2:0:0:
392,263,5399,2,0,L|388:220,1,42.5,2|0,1:2|1:2,0:0:0:0:
339,136,5678,5,2,1:2:0:0:
342,145,5817,1,0,1:2:0:0:
289,212,5957,1,2,1:2:0:0:
287,221,6096,1,0,1:2:0:0:
207,252,6237,1,2,1:2:0:0:
201,259,6376,1,0,1:2:0:0:
116,246,6516,1,2,1:2:0:0:
107,249,6655,1,0,1:2:0:0:
35,303,6794,6,0,P|11:340|0:383,1,89.2499972763062,6|6,1:2|1:2,0:0:0:0:
196,344,7491,5,0,0:0:0:0:
196,344,7631,2,0,P|174:343|155:334,1,42.5,2|0,3:2|0:0,0:0:0:0:
124,242,7910,5,2,3:2:0:0:
184,188,8050,1,0,0:0:0:0:
260,214,8190,1,2,3:2:0:0:
259,221,8329,1,0,0:0:0:0:
319,275,8469,5,2,3:2:0:0:
403,285,8608,1,0,0:0:0:0:
458,253,8748,1,2,3:2:0:0:
479,216,8887,1,0,0:0:0:0:
481,194,9027,6,0,L|469:66,1,127.500004863739,4|4,1:3|1:3,0:0:0:0:
387,18,9306,1,0,3:0:0:0:
387,18,9376,1,0,3:0:0:0:
387,18,9445,2,0,L|355:15,1,31.8750012159348,8|8,0:3|0:3,0:0:0:0:
281,69,9585,6,0,L|252:82,3,31.8750012159348,8|8|0|0,0:3|0:3|3:0|3:0,0:0:0:0:
214,166,9864,2,0,L|195:192,3,31.8750012159348,4|4|0|0,0:3|0:3|3:0|3:0,0:0:0:0:
110,203,10143,6,0,L|121:330,1,127.500004863739,0|0,1:2|3:3,0:0:0:0:
32,361,10422,1,8,0:3:0:0:
32,361,10492,1,8,0:3:0:0:
32,361,10562,2,0,L|34:329,1,31.8750012159348,8|8,0:3|0:3,0:0:0:0:
1,243,10701,5,0,3:0:0:0:
38,176,10841,2,0,L|43:112,2,63.7500024318696,2|0|2,0:3|3:0|0:3,0:0:0:0:
110,203,11259,5,6,1:2:0:0:
111,218,11399,1,0,3:0:0:0:
112,234,11538,1,0,3:0:0:0:
192,170,11678,5,6,1:2:0:0:
211,199,11817,1,0,3:0:0:0:
196,232,11957,1,0,3:0:0:0:
283,126,12096,5,6,1:2:0:0:
349,184,12236,1,0,3:0:0:0:
291,250,12375,1,8,0:3:0:0:
415,257,12515,5,4,3:3:0:0:
423,251,12585,1,4,3:3:0:0:
431,245,12655,2,0,L|424:155,1,85,6|0,1:3|0:0,0:0:0:0:
257,363,13213,6,0,L|255:384,1,21.25,12|0,0:3|0:0,0:0:0:0:
224,211,13492,6,0,L|231:295,1,85,6|2,3:2|0:2,0:0:0:0:
281,160,13771,1,2,1:2:0:0:
222,48,13910,2,0,P|242:44|248:25,1,42.5,2|0,1:2|1:0,0:0:0:0:
244,18,14050,6,0,P|201:19|163:37,1,85,0|2,3:0|1:2,0:0:0:0:
72,57,14329,2,0,P|50:79|39:109,1,63.7500024318696,2|0,1:3|1:0,0:0:0:0:
91,275,14608,5,8,0:3:0:0:
92,267,14678,1,8,0:3:0:0:
92,258,14748,2,0,P|89:242|83:227,1,31.8750012159348,6|4,0:3|0:3,0:0:0:0:
9,185,14887,2,0,P|0:226|8:267,1,85,6|2,1:2|3:2,0:0:0:0:
118,348,15166,5,8,0:3:0:0:
215,310,15306,1,4,0:3:0:0:
223,320,15445,2,0,L|225:351,3,31.8750012159348,2|0|0|0,1:2|1:2|1:2|1:2,0:0:0:0:
306,377,15724,6,0,L|390:384,1,85,6|2,3:2|3:2,0:0:0:0:
463,331,16003,1,2,1:2:0:0:
359,173,16143,2,0,P|338:176|332:195,1,42.5,2|0,1:2|1:2,0:0:0:0:
337,203,16283,6,0,P|379:201|417:183,1,85,2|0,3:2|1:0,0:0:0:0:
455,44,16562,2,0,P|444:73|422:96,1,63.7500024318696,2|2,3:3|1:2,0:0:0:0:
277,135,16841,5,8,0:3:0:0:
269,133,16910,1,4,0:3:0:0:
261,130,16980,1,0,3:0:0:0:
254,127,17050,1,0,3:0:0:0:
246,122,17120,2,0,P|229:108|217:91,1,42.5,2|0,1:2|0:0,0:0:0:0:
210,13,17259,1,2,1:2:0:0:
210,13,17399,6,0,L|167:9,3,42.5,2|0|0|0,3:2|3:3|3:0|3:0,0:0:0:0:
59,71,17678,2,0,L|122:65,1,63.7500024318696,2|2,1:2|0:3,0:0:0:0:
205,114,17957,6,0,P|218:154|213:195,1,85,6|2,3:2|3:2,0:0:0:0:
60,297,18236,1,2,1:2:0:0:
135,184,18376,2,0,P|133:205|124:224,1,42.5,2|0,1:2|1:0,0:0:0:0:
120,233,18515,6,0,L|204:240,1,85,2|2,3:2|1:2,0:0:0:0:
291,298,18794,2,0,L|354:303,1,63.7500024318696,2|0,0:3|1:0,0:0:0:0:
446,352,19073,6,0,L|448:383,3,31.8750012159348,8|8|4|4,0:3|0:3|0:3|0:3,0:0:0:0:
493,292,19352,2,0,L|496:249,1,42.5,6|0,1:2|0:0,0:0:0:0:
426,171,19492,1,8,0:3:0:0:
425,171,19631,6,0,P|464:155|490:121,1,85,4|4,0:3|0:3,0:0:0:0:
442,8,19910,1,2,1:2:0:0:
420,6,19979,1,0,1:2:0:0:
399,4,20049,1,0,1:2:0:0:
378,2,20119,1,0,1:2:0:0:
357,0,20189,5,6,1:2:0:0:
285,24,20329,1,2,3:2:0:0:
186,90,20469,1,2,1:2:0:0:
98,61,20608,1,2,1:2:0:0:
107,41,20677,1,0,1:2:0:0:
105,20,20747,5,2,1:2:0:0:
28,88,20887,1,2,1:2:0:0:
56,187,21027,1,2,1:2:0:0:
21,302,21166,6,0,L|18:340,1,38.2499988327027,2|0,3:3|0:0,0:0:0:0:
116,244,21445,2,0,L|96:271,1,34,2|0,3:3|0:0,0:0:0:0:
227,241,21724,2,0,L|200:253,1,29.7499990921021,2|0,3:3|0:0,0:0:0:0:
324,294,22003,2,0,L|298:291,1,25.4999992218018,2|0,3:3|0:0,0:0:0:0:
370,384,22283,6,0,B|400:373|400:373|453:376,1,85,4|2,3:1|0:2,0:0:0:0:
512,270,22701,6,0,P|490:270|446:317,1,85,6|0,1:2|0:0,0:0:0:0:
403,195,22980,2,0,P|381:217|365:278,1,85,6|2,1:2|3:2,0:0:0:0:
255,255,23259,5,8,0:3:0:0:
261,275,23328,1,8,0:3:0:0:
271,294,23398,1,4,0:3:0:0:
286,309,23468,1,4,0:3:0:0:
305,320,23538,5,6,1:2:0:0:
291,179,23678,2,0,L|287:136,2,42.5,2|0|0,3:2|0:0|1:0,0:0:0:0:
305,320,23957,5,2,3:3:0:0:
291,179,24236,1,2,3:3:0:0:
165,290,24515,6,0,B|153:310|153:310|156:350,1,63.75,6|0,3:2|0:0,0:0:0:0:
168,364,24794,2,0,L|189:365,1,21.25,8|8,0:3|0:3,0:0:0:0:
281,307,24934,6,0,P|270:294|255:285,3,34,0|0|8|8,0:0|0:0|0:3|0:3,0:0:0:0:
228,194,25213,2,0,P|207:197|189:207,3,38.2499988327027,0|0|8|8,0:0|0:0|0:3|0:3,0:0:0:0:
82,198,25492,2,0,P|74:218|74:239,3,42.5,0|0|8|8,0:0|0:0|0:3|0:3,0:0:0:0:
13,333,25771,5,2,3:2:0:0:
13,333,26050,1,2,3:2:0:0:
7,320,26469,6,0,L|17:382,1,63.7500024318696,6|0,3:2|0:0,0:0:0:0:
82,198,26748,5,2,0:2:0:0:
51,27,30794,6,0,B|13:9|-11:40|-1:66|41:95|72:37|71:54|108:16|154:52,1,212.5,2|0,0:2|0:0,0:0:0:0:
158,72,31213,6,0,L|149:163,1,85,6|0,3:2|3:0,0:0:0:0:
155,206,31631,2,0,B|171:164|171:164|167:124,1,85,2|0,1:2|3:0,0:0:0:0:
237,21,31910,2,0,B|265:55|265:55|302:72,1,85,2|0,1:2|3:0,0:0:0:0:
341,101,32190,2,0,B|296:93|296:93|263:70,1,85,2|0,1:2|3:0,0:0:0:0:
234,234,32469,2,0,B|262:199|262:199|299:182,1,85,2|0,1:2|3:0,0:0:0:0:
356,184,32748,2,0,B|311:191|311:191|278:214,1,85,2|0,1:2|3:0,0:0:0:0:
137,163,33027,2,0,B|95:159|95:159|58:182|58:182|16:178,2,127.500004863739,2|2|2,1:2|3:2|1:2,0:0:0:0:
42,101,33445,6,0,P|38:60|57:22,1,85,6|0,3:2|3:0,0:0:0:0:
77,12,33864,2,0,L|161:20,1,85,2|0,1:2|3:0,0:0:0:0:
218,104,34143,2,0,L|302:96,1,85,2|0,1:2|3:0,0:0:0:0:
359,12,34422,2,0,L|443:20,1,85,2|0,1:2|3:0,0:0:0:0:
512,119,34701,6,0,L|509:150,3,31.8750012159348,8|8|0|0,0:3|0:3|3:0|3:0,0:0:0:0:
483,188,34980,2,0,L|485:219,3,31.8750012159348,4|4|0|0,0:3|0:3|3:0|3:0,0:0:0:0:
504,261,35259,1,0,1:0:0:0:
384,202,35399,2,0,L|319:214,1,63.7500024318696,2|0,3:3|0:0,0:0:0:0:
333,350,35678,6,0,P|345:314|295:231,1,127.500004863739,6|0,3:2|3:0,0:0:0:0:
141,342,36096,6,0,L|109:344,1,31.8750012159348,8|8,0:3|0:3,0:0:0:0:
226,305,36236,2,0,L|258:308,1,31.8750012159348,4|4,0:3|0:3,0:0:0:0:
141,331,36376,2,0,L|109:333,1,31.8750012159348,8|8,0:3|0:3,0:0:0:0:
226,294,36515,2,0,L|257:296,1,31.8750012159348,0|0,3:3|3:3,0:0:0:0:
96,255,36655,2,0,L|64:252,3,31.8750012159348,8|8|4|4,0:3|0:3|0:3|0:3,0:0:0:0:
48,244,36934,6,0,L|50:275,1,31.8750012159348,8|8,0:3|0:3,0:0:0:0:
83,139,37213,6,0,L|85:171,1,31.8750012159348,8|8,0:3|0:3,0:0:0:0:
46,54,37353,2,0,L|49:22,1,31.8750012159348,4|4,0:3|0:3,0:0:0:0:
72,139,37493,2,0,L|74:171,1,31.8750012159348,8|8,0:3|0:3,0:0:0:0:
35,54,37632,2,0,L|37:23,1,31.8750012159348,0|0,3:3|3:3,0:0:0:0:
145,79,37771,2,0,L|176:76,3,31.8750012159348,8|8|8|8,0:3|0:3|0:3|0:3,0:0:0:0:
193,68,38050,6,0,L|190:99,1,31.8750012159348,6|0,3:2|0:0,0:0:0:0:
269,84,38190,1,2,0:2:0:0:
321,25,38329,2,0,L|319:3,3,21.25,2|0|0|0,1:2|1:3|1:3|1:3,0:0:0:0:
341,52,38609,5,2,1:2:0:0:
393,111,38748,2,0,L|389:153,1,42.5,2|2,1:2|1:2,0:0:0:0:
436,251,39027,5,2,3:2:0:0:
487,192,39166,2,0,L|485:170,3,21.25,2|0|0|0,1:2|1:3|1:3|1:3,0:0:0:0:
465,143,39446,5,2,1:2:0:0:
413,84,39585,1,2,3:2:0:0:
340,115,39724,2,0,L|332:199,2,85,2|2|2,1:2|3:2|1:2,0:0:0:0:
257,45,40143,6,0,P|194:43|134:66,1,127.500004863739,6|0,3:2|3:0,0:0:0:0:
55,92,40562,2,0,B|95:96|95:96|137:80,1,85,2|0,1:2|3:0,0:0:0:0:
211,137,40841,2,0,B|174:153|174:153|145:188,1,85,2|0,1:2|3:0,0:0:0:0:
90,250,41120,2,0,B|126:233|126:233|155:198,1,85,2|0,1:2|3:0,0:0:0:0:
247,210,41399,2,0,B|223:242|223:242|216:287,1,85,2|0,1:2|3:0,0:0:0:0:
199,369,41678,2,0,B|222:336|222:336|229:291,1,85,2|0,1:2|3:0,0:0:0:0:
314,255,41957,2,0,B|311:281|311:281|322:309|322:309|331:308|331:308|342:336|342:336|338:368,2,127.500004863739,2|2|2,1:2|3:2|1:2,0:0:0:0:
385,184,42376,6,0,P|447:171|496:110,1,127.500004863739,6|0,3:2|3:0,0:0:0:0:
496,44,42794,2,0,B|488:88|488:88|465:121,1,85,2|0,1:2|3:0,0:0:0:0:
257,129,43073,2,0,B|297:133|297:133|339:117,1,85,2|0,1:2|3:0,0:0:0:0:
385,49,43352,2,0,B|356:83|356:83|319:100,1,85,2|0,1:2|3:0,0:0:0:0:
134,3,43631,6,0,B|91:0,3,31.8750012159348,8|8|8|8,0:3|0:3|0:3|0:3,0:0:0:0:
85,17,43910,2,0,B|42:20,3,31.8750012159348,4|4|4|0,0:3|0:3|0:3|0:0,0:0:0:0:
37,38,44190,1,12,0:3:0:0:
147,92,44329,2,0,L|209:80,1,63.7500024318696,4|0,0:3|0:0,0:0:0:0:
238,101,44608,6,0,L|154:93,1,85,6|0,3:2|0:0,0:0:0:0:
147,92,45027,1,0,0:0:0:0:
63,84,45306,1,0,0:0:0:0:
147,92,45585,1,0,0:0:0:0:
229,114,45864,5,0,0:0:0:0:
147,92,46143,1,0,0:0:0:0:
65,70,46422,1,0,0:0:0:0:
147,92,46701,1,0,0:0:0:0:
224,128,46980,5,0,0:0:0:0:
147,92,47259,1,0,0:0:0:0:
71,56,47538,1,0,0:0:0:0:
147,92,47817,1,0,0:0:0:0:
216,141,48096,5,0,0:0:0:0:
147,92,48375,1,0,0:0:0:0:
298,12,48655,1,0,0:0:0:0:
306,4,48934,5,0,0:0:0:0:
383,113,49073,2,0,B|378:163|378:163|363:182|363:182|358:234,1,127.500004863739,6|0,3:2|3:0,0:0:0:0:
396,324,49492,2,0,B|399:280|399:280|371:250,1,85,2|0,1:2|3:0,0:0:0:0:
220,264,49771,5,4,0:3:0:0:
216,276,49910,1,8,0:3:0:0:
284,223,50050,1,0,1:0:0:0:
260,149,50190,6,0,L|132:137,1,127.500004863739,6|0,3:2|3:0,0:0:0:0:
44,178,50608,2,0,B|87:181|87:181|117:153,1,85,2|0,1:2|3:0,0:0:0:0:
60,97,50887,5,4,0:3:0:0:
31,180,51027,1,8,0:3:0:0:
79,289,51166,2,0,L|75:331,4,42.5,2|0|0|0|6,1:2|1:2|1:2|1:2|1:2,0:0:0:0:
81,337,53120,6,0,L|111:331,1,31.8750012159348,4|0,1:3|0:0,0:0:0:0:
187,301,53259,2,0,L|218:307,1,31.8750012159348,4|0,1:3|0:0,0:0:0:0:
302,342,53538,6,0,B|259:345|259:345|229:317,1,85,4|2,3:1|0:2,0:0:0:0:
354,239,53957,2,0,P|395:245|426:273,1,85,6|0,1:2|0:0,0:0:0:0:
275,174,54236,2,0,P|307:147|348:139,1,85,6|2,1:2|3:2,0:0:0:0:
178,191,54515,5,8,0:3:0:0:
177,169,54584,1,8,0:3:0:0:
180,148,54654,1,4,0:3:0:0:
188,129,54724,1,4,0:3:0:0:
199,111,54794,5,6,1:2:0:0:
93,41,54934,2,0,L|50:44,2,42.5,2|0|0,3:2|0:0|1:0,0:0:0:0:
199,111,55213,5,2,3:3:0:0:
93,41,55492,1,2,3:3:0:0:
86,169,55771,6,0,B|92:237|92:237|116:266,1,106.25,6|2,3:2|0:2,0:0:0:0:
133,265,56190,2,0,P|149:258|166:255,3,34,2|0|2|2,0:2|0:2|0:2|0:2,0:0:0:0:
239,203,56469,2,0,P|257:205|275:211,3,38.2499988327027,2|0|2|2,0:2|0:2|0:2|0:2,0:0:0:0:
363,202,56748,2,0,P|380:214|394:231,3,42.5,2|0|2|2,0:2|0:2|0:2|0:2,0:0:0:0:
476,267,57027,5,2,3:2:0:0:
476,267,57306,1,2,3:2:0:0:
468,274,58003,6,0,B|463:290|474:307|474:307|502:276|502:215|475:172,1,170,6|0,3:2|3:2,0:0:0:0:
328,111,58422,2,0,L|433:120,1,106.25,0|8,1:2|0:3,0:0:0:0:
443,114,58631,1,8,0:3:0:0:
451,108,58701,1,4,0:3:0:0:
404,26,58841,1,0,1:0:0:0:
340,123,58980,1,4,0:3:0:0:
217,102,59120,6,0,B|201:101|189:108|189:108|220:139|276:149|321:130,1,170,6|0,3:2|3:2,0:0:0:0:
162,29,59538,2,0,L|57:20,1,106.25,0|8,1:2|0:3,0:0:0:0:
0,93,59817,1,4,0:3:0:0:
1,108,59886,1,4,0:3:0:0:
2,124,59956,1,0,1:0:0:0:
4,140,60026,1,0,0:0:0:0:
5,156,60096,1,4,0:3:0:0:
104,202,60236,6,0,B|123:205|138:190|138:190|99:157|49:153|12:167,1,170,6|0,3:2|3:2,0:0:0:0:
140,296,60655,2,0,L|174:294,3,31.8750012159348,8|8|4|4,0:3|0:3|0:3|0:3,0:0:0:0:
197,304,60934,1,2,1:2:0:0:
196,289,61003,1,0,1:0:0:0:
195,273,61073,1,0,1:0:0:0:
193,257,61143,1,0,1:0:0:0:
192,241,61213,1,0,1:0:0:0:
262,162,61352,6,0,L|258:204,1,42.5,2|0,3:3|0:0,0:0:0:0:
271,154,61631,6,0,L|267:111,1,42.5,2|0,3:3|0:0,0:0:0:0:
270,162,61910,6,0,L|312:158,1,42.5,2|0,3:3|0:0,0:0:0:0:
262,153,62190,6,0,L|220:149,1,42.5,2|0,3:3|0:0,0:0:0:0:
266,158,62469,6,0,B|348:151|348:151|387:173,1,127.500004863739,6|0,3:2|3:2,0:0:0:0:
473,255,62887,2,0,P|479:209|478:167,1,85,0|2,1:0|0:3,0:0:0:0:
402,49,63166,5,2,3:2:0:0:
493,68,63306,1,2,0:3:0:0:
399,57,63445,2,0,P|356:55|314:60,1,85,2|2,1:2|0:3,0:0:0:0:
219,129,63724,5,2,3:2:0:0:
221,139,63864,1,2,0:3:0:0:
156,40,64003,1,2,1:2:0:0:
104,99,64143,2,0,P|114:140|119:182,1,85,2|0,0:3|3:0,0:0:0:0:
29,309,64422,2,0,P|33:266|44:225,1,85,2|0,0:3|1:0,0:0:0:0:
44,225,64701,1,2,0:3:0:0:
177,245,64841,5,6,3:2:0:0:
195,360,64980,1,2,1:3:0:0:
191,237,65120,2,0,L|187:279,2,42.5,2|0|2,3:2|0:0|1:3,0:0:0:0:
304,172,65399,5,2,3:2:0:0:
286,287,65538,1,2,1:3:0:0:
290,164,65678,2,0,L|294:206,2,42.5,2|0|2,3:2|0:0|1:3,0:0:0:0:
177,115,65957,5,6,3:2:0:0:
183,121,66096,2,0,L|186:78,1,42.5,8|4,0:3|0:3,0:0:0:0:
206,3,66236,1,2,1:3:0:0:
309,36,66376,6,0,L|278:41,1,31.8750012159348,2|0,3:3|0:0,0:0:0:0:
327,43,66655,6,0,L|358:36,1,31.8750012159348,2|0,3:3|0:0,0:0:0:0:
317,39,66934,6,0,B|370:-1|472:40|412:94,1,170,6|0,3:2|3:2,0:0:0:0:
327,138,67352,2,0,L|221:129,1,106.25,0|8,1:2|0:3,0:0:0:0:
216,138,67562,1,8,0:3:0:0:
209,146,67631,1,4,0:3:0:0:
112,134,67771,1,0,1:0:0:0:
126,214,67910,1,4,0:3:0:0:
241,242,68050,6,0,B|188:202|86:243|146:297,1,170,6|0,3:2|3:2,0:0:0:0:
231,341,68469,2,0,L|125:331,1,106.25,0|8,1:2|0:3,0:0:0:0:
51,261,68748,1,8,0:3:0:0:
50,245,68817,1,0,0:0:0:0:
49,229,68887,1,8,0:3:0:0:
47,213,68957,1,8,0:3:0:0:
46,197,69027,1,4,0:3:0:0:
15,89,69166,6,0,B|-42:140|59:181|110:139,1,170,6|0,3:2|3:2,0:0:0:0:
204,33,69585,2,0,L|201:64,3,31.8750012159348,8|8|4|4,0:3|0:3|0:3|0:3,0:0:0:0:
186,83,69864,1,2,1:2:0:0:
188,106,69933,1,0,1:0:0:0:
190,130,70003,1,0,1:0:0:0:
192,154,70073,1,0,1:0:0:0:
194,178,70143,1,0,1:0:0:0:
277,226,70283,6,0,L|280:183,1,42.5,2|0,3:3|0:0,0:0:0:0:
201,301,70562,6,0,L|190:259,1,42.5,2|0,3:3|0:0,0:0:0:0:
277,376,70841,6,0,L|294:337,1,42.5,2|0,3:3|0:0,0:0:0:0:
193,305,71120,6,0,L|182:263,1,42.5,2|0,3:3|0:0,0:0:0:0:
285,229,71399,6,0,B|319:200|319:200|401:193,1,127.500004863739,6|0,3:2|3:2,0:0:0:0:
474,328,71817,2,0,L|369:318,1,106.25,0|2,1:0|0:3,0:0:0:0:
395,200,72096,5,2,3:2:0:0:
363,310,72236,1,2,3:3:0:0:
409,196,72376,2,0,L|399:90,1,106.25,2|2,1:2|0:3,0:0:0:0:
324,30,72655,5,2,3:2:0:0:
329,44,72794,1,2,0:3:0:0:
242,11,72934,1,2,1:2:0:0:
161,84,73073,6,0,P|212:97|265:100,1,106.25,2|0,0:3|3:0,0:0:0:0:
276,111,73352,1,2,0:3:0:0:
381,190,73492,2,0,P|328:193|276:206,1,106.25,0|2,1:0|0:3,0:0:0:0:
230,279,73771,6,0,L|239:385,1,106.25,6|2,3:2|3:3,0:0:0:0:
364,372,74050,2,0,L|374:266,1,106.25,2|2,3:2|3:3,0:0:0:0:
77,249,74329,6,0,L|85:354,1,106.25,8|6,0:3|3:3,0:0:0:0:
212,368,74608,2,0,L|221:262,1,106.25,2|2,1:2|3:3,0:0:0:0:
177,97,74887,5,14,0:3:0:0:
84,155,75027,2,0,L|0:147,1,85,8|0,0:3|1:3,0:0:0:0:
177,97,75306,6,0,L|145:91,1,31.8750012159348,2|0,3:3|0:0,0:0:0:0:
84,155,75585,2,0,L|53:161,1,31.8750012159348,2|0,3:3|0:0,0:0:0:0:
177,97,75864,6,0,B|228:120|284:108|316:53|256:42,1,170,6|0,3:2|3:2,0:0:0:0:
244,187,76283,2,0,P|305:168|351:125,1,127.500004863739,2|0,1:2|3:0,0:0:0:0:
444,20,76562,5,4,1:3:0:0:
435,105,76701,1,4,1:3:0:0:
426,190,76841,1,4,1:3:0:0:
508,286,76980,6,0,B|484:249|425:232|379:249|379:249|395:261|415:255,1,170,6|0,3:2|3:2,0:0:0:0:
391,157,77399,2,0,P|330:177|283:220,1,127.500004863739,2|0,1:2|3:0,0:0:0:0:
275,351,77678,6,0,P|265:338|252:329,1,31.8750012159348,8|8,0:3|0:3,0:0:0:0:
242,321,77817,2,0,P|227:314|211:313,1,31.8750012159348,4|4,0:3|0:3,0:0:0:0:
198,311,77957,2,0,P|182:312|167:319,1,31.8750012159348,4|4,0:3|0:3,0:0:0:0:
61,341,78096,6,0,B|54:360|62:378|62:378|91:347|90:286|58:248,1,170,6|0,3:2|3:2,0:0:0:0:
51,123,78515,2,0,P|32:183|42:245,1,127.500004863739,2|0,1:2|3:0,0:0:0:0:
134,187,78794,5,4,1:3:0:0:
125,171,78934,1,4,1:3:0:0:
182,100,79073,1,4,1:3:0:0:
96,20,79213,6,0,B|56:32|45:96|135:116|188:65,1,170,6|0,3:2|3:2,0:0:0:0:
346,98,79631,1,8,0:3:0:0:
318,86,79701,1,8,0:3:0:0:
292,88,79771,1,8,0:3:0:0:
272,97,79841,1,8,0:3:0:0:
262,111,79910,6,0,P|262:126|271:139,3,31.8750012159348,4|4|4|4,0:3|0:3|0:3|0:3,0:0:0:0:
215,268,80190,2,0,L|221:205,1,63.75,2|0,1:3|0:0,0:0:0:0:
205,188,80469,5,4,1:3:0:0:
131,232,80655,1,4,3:3:0:0:
48,213,80841,1,4,1:3:0:0:
43,210,81027,5,4,3:3:0:0:
132,238,81213,1,4,1:3:0:0:
208,182,81399,1,4,3:3:0:0:
211,177,81585,5,4,1:3:0:0:
133,244,81771,1,4,3:3:0:0:
37,207,81957,1,4,1:3:0:0:
34,203,82143,5,4,3:3:0:0:
134,250,82329,1,4,1:3:0:0:
115,126,82515,1,4,3:3:0:0:
215,172,82701,6,0,B|189:201|174:241|176:288|197:332|197:332|180:277|135:256|135:256|100:291|103:349|103:349|107:300|93:255|65:223|34:204,1,527,6|0,0:0|0:2,0:0:0:0:
29,200,84934,6,0,L|26:178,1,21.25,6|0,3:2|0:0,0:0:0:0:
121,179,85213,1,2,0:2:0:0:
121,179,85352,2,0,L|130:156,1,25.4999992218018,0|0,0:0|0:0,0:0:0:0:
212,207,85632,1,2,0:2:0:0:
212,207,85771,2,0,L|235:188,1,29.7499990921021,0|0,0:0|0:0,0:0:0:0:
288,267,86051,1,2,0:2:0:0:
288,267,86190,2,0,L|321:262,1,34,0|0,0:0|0:0,0:0:0:0:
391,320,86469,1,2,0:2:0:0:
391,320,86608,2,0,L|421:296,1,38.2499988327027,0|0,0:0|0:0,0:0:0:0:
512,252,86887,1,2,0:2:0:0:
511,252,87027,6,0,L|500:374,1,123.25,0|0,0:2|0:0,0:0:0:0:
510,362,89120,2,0,L|512:384,1,21.25,12|0,0:3|0:0,0:0:0:0:
396,292,89399,6,0,P|387:335|388:376,1,85,6|2,3:2|0:2,0:0:0:0:
330,227,89678,1,2,1:2:0:0:
409,96,89817,2,0,P|394:81|373:80,1,42.5,2|0,1:2|1:0,0:0:0:0:
362,90,89957,6,0,P|401:107|443:105,1,85,2|2,3:2|1:2,0:0:0:0:
301,146,90236,2,0,P|270:145|241:157,1,63.7500024318696,2|2,1:3|1:2,0:0:0:0:
177,218,90515,5,8,0:3:0:0:
156,221,90585,1,8,0:3:0:0:
134,220,90654,1,6,0:3:0:0:
114,214,90724,1,4,0:3:0:0:
95,202,90794,2,0,P|87:182|88:161,1,42.5,6|0,1:2|0:0,0:0:0:0:
134,92,90934,1,4,0:3:0:0:
133,92,91073,6,0,P|96:110|53:108,1,85,8|4,0:3|0:3,0:0:0:0:
11,42,91352,2,0,L|14:0,3,42.5,2|0|0|0,1:2|1:2|1:2|1:2,0:0:0:0:
30,67,91631,6,0,P|38:110|37:151,1,85,6|2,3:2|3:2,0:0:0:0:
6,223,91910,1,2,1:3:0:0:
121,291,92050,2,0,P|135:276|136:255,1,42.5,2|0,1:3|0:0,0:0:0:0:
126,244,92190,6,0,P|109:282|111:324,1,85,2|2,3:3|1:2,0:0:0:0:
211,334,92469,2,0,P|222:363|246:384,1,63.7500024318696,2|2,3:3|1:2,0:0:0:0:
412,335,92748,5,8,0:3:0:0:
389,339,92818,1,4,0:3:0:0:
365,338,92888,1,0,3:0:0:0:
342,331,92958,1,0,3:0:0:0:
320,318,93027,2,0,P|307:303|298:283,2,42.5,2|0|2,1:2|0:0|1:2,0:0:0:0:
439,221,93306,5,2,3:2:0:0:
439,231,93375,1,0,3:3:0:0:
440,242,93445,1,0,3:0:0:0:
441,252,93515,1,0,3:0:0:0:
442,263,93585,2,0,L|378:257,1,63.7500024318696,2|2,1:2|0:3,0:0:0:0:
304,121,93864,6,0,L|388:113,1,85,6|2,3:2|3:2,0:0:0:0:
208,168,94143,1,2,1:3:0:0:
124,79,94283,2,0,P|119:25|128:19,1,42.5,2|0,1:2|1:0,0:0:0:0:
115,30,94422,6,0,P|118:72|104:112,1,85,2|2,3:2|1:3,0:0:0:0:
119,207,94701,2,0,P|98:230|69:245,1,63.7500024318696,2|2,3:3|1:2,0:0:0:0:
29,346,94980,6,0,L|31:377,3,31.8750012159348,8|4|0|0,0:3|0:3|3:0|3:0,0:0:0:0:
50,320,95259,2,0,P|70:327|90:330,1,42.5,2|0,1:2|0:0,0:0:0:0:
176,309,95399,1,4,3:3:0:0:
176,309,95538,6,0,P|211:286|253:284,1,85,4|4,0:3|0:3,0:0:0:0:
323,340,95817,1,2,1:2:0:0:
339,353,95886,1,0,1:2:0:0:
358,362,95956,1,0,1:2:0:0:
379,365,96026,1,0,1:2:0:0:
400,364,96096,6,0,P|435:341|477:339,1,85,6|2,1:2|3:2,0:0:0:0:
505,230,96376,1,2,1:2:0:0:
442,173,96515,2,0,L|399:176,1,42.5,2|0,1:2|1:2,0:0:0:0:
384,161,96655,5,2,1:2:0:0:
307,222,96794,1,2,1:2:0:0:
191,174,96934,1,2,1:2:0:0:
52,244,97073,6,0,L|54:275,1,31.8750012159348,2|0,3:3|0:0,0:0:0:0:
49,304,97352,5,0,3:0:0:0:
54,319,97562,5,0,3:0:0:0:
10,173,97771,6,0,L|21:111,1,63.7500024318696,2|0,1:2|0:0,0:0:0:0:
0,79,98190,6,0,P|58:106|114:101,1,95.6250036478044,4|0,3:1|0:0,0:0:0:0:
97,99,98469,1,10,0:3:0:0:
120,95,98538,1,4,0:3:0:0:
142,87,98608,1,0,1:2:0:0:
162,75,98677,1,0,0:0:0:0:
185,68,98748,1,8,0:3:0:0:
209,67,98817,1,8,0:3:0:0:
232,71,98887,6,0,L|234:102,3,31.8750012159348,4|4|4|4,0:3|0:3|0:3|0:3,0:0:0:0:
284,160,99166,1,0,1:2:0:0:
315,164,99235,1,0,0:0:0:0:
346,159,99305,1,8,0:3:0:0:
374,144,99375,1,8,0:3:0:0:
396,121,99445,6,0,L|393:89,3,31.8750012159348,4|4|4|4,0:3|0:3|0:3|0:3,0:0:0:0:
465,27,99724,2,0,L|462:58,3,31.8750012159348,0|0|8|8,1:0|0:0|0:3|0:3,0:0:0:0:
382,132,100003,6,0,L|376:100,3,31.8750012159348,4|4|4|4,0:3|0:3|0:3|0:3,0:0:0:0:
481,21,100283,2,0,L|475:52,3,31.8750012159348,0|0|8|8,1:0|0:0|0:3|0:3,0:0:0:0:
468,131,100562,6,0,L|470:162,3,31.8750012159348,4|4|4|4,0:3|0:3|0:3|0:3,0:0:0:0:
482,251,100841,1,0,1:0:0:0:
461,238,100910,1,0,0:0:0:0:
439,230,100980,1,8,0:3:0:0:
415,227,101050,1,8,0:3:0:0:
392,231,101120,6,0,L|394:262,3,31.8750012159348,4|4|4|4,0:3|0:3|0:3|0:3,0:0:0:0:
341,323,101399,1,0,1:0:0:0:
309,327,101468,1,0,0:0:0:0:
278,323,101538,1,8,0:3:0:0:
249,310,101608,1,8,0:3:0:0:
224,289,101678,6,0,L|230:225,1,63.7500024318696,6|6,0:3|0:3,0:0:0:0:
144,109,101957,2,0,L|151:193,1,85,2|6,1:3|0:3,0:0:0:0:
53,302,102236,6,0,L|58:238,5,63.7500024318696,2|0|0|0|0|0,1:2|1:0|1:0|1:0|1:0|1:0,0:0:0:0:
36,203,102655,6,0,P|83:225|162:211,1,127.500004863739,6|0,3:2|0:3,0:0:0:0:
233,104,103073,1,2,3:3:0:0:
228,115,103143,2,0,L|235:202,1,85,0|0,1:0|1:0,0:0:0:0:
324,256,103422,2,0,L|331:171,1,85,0|0,1:0|1:0,0:0:0:0:
420,115,103701,2,0,L|427:200,1,85,0|0,1:0|1:0,0:0:0:0:
512,262,103980,6,0,L|504:346,1,85,0|0,1:0|1:0,0:0:0:0:
404,281,104259,2,0,L|411:365,1,85,0|0,1:0|1:0,0:0:0:0:
395,384,104469,2,0,L|352:380,5,42.5,2|0|0|0|0|0,1:2|1:0|1:0|1:0|1:0|1:0,0:0:0:0:
326,359,104887,6,0,P|267:376|166:329,1,170,6|0,3:2|3:3,0:0:0:0:
168,313,105236,1,0,3:0:0:0:
168,313,105306,2,0,L|175:228,1,85,2|0,1:2|3:0,0:0:0:0:
159,203,105515,1,0,3:0:0:0:
159,203,105585,2,0,L|151:118,1,85,2|0,1:2|3:0,0:0:0:0:
168,93,105794,1,0,3:0:0:0:
168,93,105864,2,0,L|171:50,2,42.5,0|0|0,1:0|1:0|1:0,0:0:0:0:
285,136,106143,6,0,B|319:128|319:128|325:140|325:140|361:143,1,85,2|0,0:2|0:0,0:0:0:0:
366,144,106422,2,0,L|281:136,1,85,2|2,0:2|0:2,0:0:0:0:
350,241,107120,6,0,P|392:239|428:217,1,85,6|0,3:2|0:0,0:0:0:0:
481,108,107538,2,0,P|482:191|424:249,1,170,6|0,3:2|0:0,0:0:0:0:
173,191,107817,2,0,L|172:180,5,10.625,2|2|2|2|2|2,0:2|0:2|0:2|0:2|0:2|0:2,0:0:0:0:
184,209,108236,6,0,P|226:210|262:232,1,85,6|0,3:2|0:0,0:0:0:0:
315,341,108655,2,0,P|316:258|257:199,1,170,6|0,3:2|0:0,0:0:0:0:
7,258,108934,2,0,L|6:269,5,10.625,2|2|2|2|2|2,0:2|0:2|0:2|0:2|0:2|0:2,0:0:0:0:
18,240,109352,6,0,P|60:239|96:217,1,85,6|0,3:2|0:0,0:0:0:0:
91,249,109771,2,0,P|150:190|149:108,1,170,6|0,3:2|0:0,0:0:0:0:
10,43,110050,2,0,L|-1:42,7,10.625,2|2|2|2|2|2|2|2,0:2|0:2|0:2|0:2|0:2|0:2|0:2|0:2,0:0:0:0:
23,54,110608,5,6,1:3:0:0:
102,20,110748,2,0,L|165:25,1,63.7500024318696,2|0,3:2|3:0,0:0:0:0:
223,163,111027,2,0,P|243:138|249:107,1,63.7500024318696,6|0,1:3|3:0,0:0:0:0:
348,142,111306,2,0,P|344:100|321:65,1,85,6|0,1:3|3:0,0:0:0:0:
475,0,111585,6,0,P|460:15|451:34,5,42.5,4|0|0|0|0|0,3:2|3:0|3:0|3:0|3:0|3:0,0:0:0:0:
432,46,112003,2,0,P|435:87|458:122,1,85,6|0,3:2|0:0,0:0:0:0:
424,199,112283,2,0,L|420:241,1,42.5,2|0,0:1|0:0,0:0:0:0:
333,285,112701,6,0,P|323:266|319:245,5,42.5,6|0|0|0|0|0,0:2|3:0|3:0|3:0|3:0|3:0,0:0:0:0:
301,228,113119,2,0,P|315:188|346:161,1,85,6|0,3:2|0:0,0:0:0:0:
332,78,113399,2,0,L|328:35,1,42.5,2|0,0:1|0:0,0:0:0:0:
221,12,113817,6,0,P|216:32|217:53,5,42.5,6|0|0|0|0|0,0:2|3:0|3:0|3:0|3:0|3:0,0:0:0:0:
204,75,114236,2,0,P|227:109|265:127,1,85,6|0,3:2|0:0,0:0:0:0:
152,238,114515,2,0,P|180:224|198:198,1,63.75,2|0,0:1|0:0,0:0:0:0:
204,176,115073,5,6,1:3:0:0:
271,252,115213,2,0,L|265:315,1,63.7500024318696,2|0,3:2|3:0,0:0:0:0:
155,328,115492,2,0,P|137:301|135:270,1,63.7500024318696,6|0,1:3|3:0,0:0:0:0:
34,241,115771,2,0,P|42:199|70:168,1,85,6|0,1:3|3:0,0:0:0:0:
204,176,116050,6,0,L|288:168,1,85,6|0,0:2|0:0,0:0:0:0:
295,167,116469,1,0,0:0:0:0:
364,119,116748,1,0,0:0:0:0:
295,167,117027,1,0,0:0:0:0:
220,221,117306,5,0,0:0:0:0:
295,167,117585,1,0,0:0:0:0:
330,91,117864,1,0,0:0:0:0:
295,167,118143,1,0,0:0:0:0:
258,252,118422,5,0,0:0:0:0:
295,167,118701,1,0,0:0:0:0:
288,84,118980,1,0,0:0:0:0:
295,167,119259,1,0,0:0:0:0:
305,259,119538,5,0,0:0:0:0:
295,167,119817,1,0,0:0:0:0:
247,98,120096,1,0,0:0:0:0:
295,167,120375,1,0,0:0:0:0:
343,236,120655,6,0,L|338:288,1,42.5,6|0,3:2|3:0,0:0:0:0:
388,343,120934,2,0,L|472:335,2,85,2|2|2,1:2|1:2|1:2,0:0:0:0:
210,328,121771,6,0,L|205:275,1,42.5,2|0,3:2|3:0,0:0:0:0:
255,221,122050,2,0,L|339:228,2,85,2|2|2,1:2|1:2|1:2,0:0:0:0:
77,236,122887,6,0,L|72:288,1,42.5,2|0,3:2|3:0,0:0:0:0:
122,343,123166,2,0,L|206:335,2,85,2|2|2,1:2|1:2|1:2,0:0:0:0:
73,228,124003,6,0,L|68:175,1,42.5,2|0,3:2|3:0,0:0:0:0:
118,121,124282,2,0,L|202:128,1,85,2|2,1:2|1:2,0:0:0:0:
210,136,124841,5,6,1:2:0:0:
302,68,124980,2,0,B|341:46|341:46|423:53,1,127.500004863739,6|8,3:2|3:3,0:0:0:0:
428,60,125329,1,8,0:3:0:0:
430,69,125399,2,0,L|427:100,3,31.8750012159348,8|8|0|0,0:3|0:3|3:0|3:0,0:0:0:0:
461,176,125678,2,0,L|463:207,3,31.8750012159348,4|4|0|0,0:3|0:3|3:0|3:0,0:0:0:0:
412,269,125957,5,6,1:2:0:0:
320,337,126096,2,0,B|274:362|274:362|179:354,1,148.750001418591,6|8,3:2|3:3,0:0:0:0:
173,346,126445,1,8,0:3:0:0:
171,335,126515,2,0,L|174:298,3,37.1875003546476,8|8|0|0,0:3|0:3|3:0|3:0,0:0:0:0:
134,211,126794,2,0,L|130:174,3,37.1875003546476,4|4|0|0,0:3|0:3|3:0|3:0,0:0:0:0:
171,87,127073,5,6,1:2:0:0:
57,76,127213,2,0,B|27:109|27:109|153:98,1,170,6|8,3:2|3:3,0:0:0:0:
171,87,127562,1,8,0:3:0:0:
171,87,127631,2,0,L|167:129,3,42.5,8|8|0|0,0:3|0:3|3:0|3:0,0:0:0:0:
234,181,127910,2,0,L|237:223,3,42.5,4|4|0|0,0:3|0:3|3:0|3:0,0:0:0:0:
304,275,128189,5,6,1:2:0:0:
176,287,128329,2,0,B|143:249|143:249|283:262,1,191.250007295609,6|8,3:2|3:3,0:0:0:0:
304,275,128678,1,8,0:3:0:0:
304,275,128747,2,0,L|299:227,3,47.8125018239022,8|8|0|0,0:3|0:3|3:0|3:0,0:0:0:0:
374,169,129026,2,0,L|378:121,3,47.8125018239022,4|4|0|0,0:3|0:3|3:0|3:0,0:0:0:0:
452,63,129306,6,0,L|328:96,1,127.500004863739,6|2,1:2|0:2,0:0:0:0:
134,146,131817,5,6,3:2:0:0:
231,120,131992,1,6,3:2:0:0:
328,95,132166,1,6,3:2:0:0:
159,49,132341,5,6,3:2:0:0:
231,120,132516,1,6,3:2:0:0:
301,191,132690,1,6,3:2:0:0:
256,23,132864,5,6,3:2:0:0:
231,120,133039,1,6,3:2:0:0:
204,216,133213,1,6,3:2:0:0:
211,226,133910,6,0,B|293:264|375:176|304:153|306:211,1,170,6|0,3:2|3:2,0:0:0:0:
423,268,134329,2,0,L|432:162,1,106.25,0|8,1:2|0:3,0:0:0:0:
425,170,134538,1,8,0:3:0:0:
418,178,134608,1,4,0:3:0:0:
458,288,134748,1,0,1:0:0:0:
413,354,134887,1,4,0:3:0:0:
307,335,135027,6,0,B|389:297|471:385|400:408|402:350,1,170,6|0,3:2|3:2,0:0:0:0:
232,283,135445,2,0,P|183:300|142:334,1,106.25,0|8,1:2|0:3,0:0:0:0:
47,300,135724,1,8,0:3:0:0:
53,318,135793,1,8,0:3:0:0:
57,338,135863,1,4,0:3:0:0:
58,358,135933,1,4,0:3:0:0:
56,378,136003,1,4,0:3:0:0:
149,320,136143,6,0,B|187:238|99:156|76:227|134:225,1,170,6|0,3:2|3:2,0:0:0:0:
241,205,136562,1,8,0:3:0:0:
262,206,136631,1,8,0:3:0:0:
283,208,136701,1,4,0:3:0:0:
304,210,136771,1,4,0:3:0:0:
325,212,136841,6,0,L|321:169,1,42.5,2|0,1:2|1:0,0:0:0:0:
389,135,136980,2,0,L|392:92,1,42.5,0|0,1:0|1:0,0:0:0:0:
325,58,137120,2,0,L|321:15,1,42.5,0|0,1:0|1:0,0:0:0:0:
310,5,137259,6,0,L|313:47,1,42.5,2|0,3:3|0:0,0:0:0:0:
404,82,137538,6,0,L|400:124,1,42.5,2|0,3:3|0:0,0:0:0:0:
310,159,137817,6,0,L|313:201,1,42.5,2|0,3:3|0:0,0:0:0:0:
400,124,138096,6,0,L|404:82,1,42.5,2|0,3:3|0:0,0:0:0:0:
220,124,138376,6,0,P|221:187|257:239,1,127.500004863739,6|0,3:2|3:2,0:0:0:0:
386,311,138794,2,0,L|301:303,1,85,0|2,1:0|0:3,0:0:0:0:
194,285,139073,5,2,3:2:0:0:
110,293,139212,1,2,0:3:0:0:
203,303,139352,2,0,P|192:343|164:375,1,85,2|2,1:2|0:3,0:0:0:0:
48,362,139631,5,0,3:0:0:0:
54,372,139771,1,2,0:3:0:0:
106,282,139910,1,2,1:2:0:0:
9,202,140050,2,0,L|16:286,1,85,2|0,0:3|3:0,0:0:0:0:
117,186,140329,2,0,L|109:270,1,85,2|0,0:3|1:0,0:0:0:0:
198,294,140608,1,2,0:3:0:0:
301,220,140748,5,0,3:0:0:0:
200,281,140887,1,0,1:0:0:0:
129,184,141027,2,0,L|125:141,2,42.5,2|0|2,3:2|0:0|1:3,0:0:0:0:
15,88,141306,5,0,3:0:0:0:
116,149,141445,1,0,1:0:0:0:
187,52,141585,2,0,L|190:9,2,42.5,2|0|2,3:2|0:0|1:3,0:0:0:0:
288,113,141864,5,6,3:2:0:0:
360,74,142003,1,8,0:3:0:0:
358,59,142072,1,4,0:3:0:0:
357,45,142142,1,2,1:3:0:0:
442,55,142283,6,0,L|439:86,1,31.8750012159348,2|0,3:3|0:0,0:0:0:0:
448,136,142562,6,0,L|450:104,1,31.8750012159348,2|0,3:3|0:0,0:0:0:0:
445,95,142841,6,0,B|340:71|403:149|284:143,1,170,6|0,3:2|3:2,0:0:0:0:
192,61,143259,2,0,P|214:129|214:174,1,106.25,0|8,1:2|0:3,0:0:0:0:
210,172,143469,1,8,0:3:0:0:
203,180,143538,1,4,0:3:0:0:
88,240,143678,1,0,1:0:0:0:
173,263,143817,1,4,0:3:0:0:
299,200,143957,6,0,B|399:172|366:249|473:243,1,170,6|0,3:2|3:2,0:0:0:0:
509,126,144376,2,0,L|499:231,1,106.25,0|8,1:2|0:3,0:0:0:0:
443,341,144655,1,8,0:3:0:0:
429,332,144724,1,8,0:3:0:0:
414,326,144794,1,4,0:3:0:0:
399,320,144864,1,4,0:3:0:0:
384,317,144934,1,4,0:3:0:0:
289,363,145073,6,0,B|330:264|248:293|272:201,1,170,6|0,3:2|3:2,0:0:0:0:
332,127,145492,2,0,P|336:142|337:158,3,31.8750012159348,8|8|4|4,0:3|0:3|0:3|0:3,0:0:0:0:
316,114,145771,5,2,1:2:0:0:
284,108,145840,1,0,1:0:0:0:
253,110,145910,1,0,1:0:0:0:
225,126,145980,1,0,1:0:0:0:
198,142,146050,1,0,1:0:0:0:
166,144,146119,1,0,1:0:0:0:
135,139,146190,6,0,L|138:96,1,42.5,2|0,3:3|0:0,0:0:0:0:
88,249,146469,6,0,L|76:207,1,42.5,2|0,3:3|0:0,0:0:0:0:
81,368,146748,6,0,L|56:333,1,42.5,2|0,3:3|0:0,0:0:0:0:
88,249,147027,6,0,L|76:207,1,42.5,2|0,3:3|0:0,0:0:0:0:
135,139,147306,6,0,B|214:127|173:173|256:160,1,127.500004863739,6|0,3:2|3:2,0:0:0:0:
336,116,147724,1,0,1:0:0:0:
431,214,147864,1,2,0:3:0:0:
426,206,148003,6,0,P|363:204|322:228,1,106.25,2|2,3:2|0:3,0:0:0:0:
286,325,148283,1,2,1:2:0:0:
292,345,148422,1,2,0:3:0:0:
194,259,148562,6,0,L|184:365,1,106.25,2|2,3:2|0:3,0:0:0:0:
107,185,148841,1,2,1:2:0:0:
182,248,148980,2,0,P|245:250|286:226,1,106.25,2|0,0:3|3:0,0:0:0:0:
366,273,149259,2,0,P|429:271|470:295,1,106.25,2|0,0:3|1:0,0:0:0:0:
500,373,149538,1,2,0:3:0:0:
477,288,149678,6,0,L|486:182,1,106.25,8|6,3:3|3:3,0:0:0:0:
293,233,149957,2,0,L|283:127,1,106.25,0|2,1:0|3:3,0:0:0:0:
387,235,150236,6,0,L|396:129,1,106.25,8|6,3:3|3:3,0:0:0:0:
203,290,150515,2,0,L|193:184,1,106.25,8|2,1:3|3:3,0:0:0:0:
94,85,150794,6,0,L|86:169,1,85,8|4,0:3|0:3,0:0:0:0:
27,296,151073,1,0,0:0:0:0:
83,200,151213,6,0,L|86:169,1,31.8750012159348,2|0,3:3|0:0,0:0:0:0:
27,296,151492,6,0,L|24:264,1,31.8750012159348,2|0,3:3|0:0,0:0:0:0:
91,374,151771,6,0,B|149:304|260:350|206:400|183:347,1,170,6|0,2:2|2:2,0:0:0:0:
168,261,152190,2,0,P|217:228|294:242,1,127.500004863739,2|0,1:2|2:0,0:0:0:0:
478,201,152469,5,4,1:3:0:0:
379,209,152608,1,4,1:3:0:0:
486,192,152748,1,4,1:3:0:0:
371,218,152887,6,0,B|269:224|319:153|201:178,1,170,6|0,2:2|2:2,0:0:0:0:
55,157,153306,2,0,P|135:141|171:103,1,127.500004863739,2|0,1:2|2:0,0:0:0:0:
178,9,153585,5,8,0:3:0:0:
194,17,153654,1,8,0:3:0:0:
210,24,153724,1,4,0:3:0:0:
228,29,153794,1,4,0:3:0:0:
244,32,153864,2,0,P|261:34|289:29,1,31.8750012159348,4|4,0:3|0:3,0:0:0:0:
363,57,154003,6,0,B|258:40|313:109|210:114,1,170,6|0,3:2|3:2,0:0:0:0:
128,144,154422,2,0,P|190:143|242:179,1,127.500004863739,2|0,1:2|2:0,0:0:0:0:
271,264,154701,5,4,1:3:0:0:
255,185,154841,1,4,1:3:0:0:
314,80,154980,1,4,1:3:0:0:
391,158,155120,6,0,B|429:240|341:322|318:251|376:253,1,170,6|0,3:2|3:2,0:0:0:0:
472,273,155538,1,8,0:3:0:0:
463,292,155607,1,8,0:3:0:0:
457,312,155677,1,8,0:3:0:0:
455,333,155747,1,8,0:3:0:0:
457,353,155817,6,0,P|460:368|466:383,3,31.8750012159348,4|4|4|4,0:3|0:3|0:3|0:3,0:0:0:0:
378,329,156096,1,2,1:3:0:0:
378,329,156515,6,0,L|346:331,1,31.8750012159348,2|0,3:3|0:0,0:0:0:0:
294,245,156934,6,0,L|262:239,1,31.8750012159348,2|0,3:3|0:0,0:0:0:0:
250,349,157352,6,0,L|219:357,1,31.8750012159348,2|0,3:3|0:0,0:0:0:0:
168,213,157771,6,0,L|138:202,1,31.8750012159348,2|0,3:3|0:0,0:0:0:0:
110,371,158190,6,0,L|81:384,1,31.8750012159348,2|0,3:3|0:0,0:0:0:0:
8,355,158329,6,0,L|11:312,3,42.5,8|0|0|0,0:3|0:0|0:0|0:0,0:0:0:0:
2,300,158608,6,0,B|105:352|208:243|148:166|62:168|52:227,1,308.125,6|0,3:2|0:0,0:0:0:0:
46,218,160701,6,0,L|42:175,2,42.5,0|0|0,0:0|0:0|0:0,0:0:0:0:
97,111,161120,2,0,L|100:68,1,42.5,2|0,0:3|0:0,0:0:0:0:
185,139,161399,2,0,L|181:96,1,42.5,2|0,0:3|0:0,0:0:0:0:
265,110,161678,6,0,L|269:68,1,42.5,2|0,0:3|0:0,0:0:0:0:
174,103,161957,2,0,L|178:146,1,42.5,2|0,0:3|0:0,0:0:0:0:
272,117,162236,2,0,L|276:74,2,42.5,2|0|2,0:3|0:0|0:3,0:0:0:0:
325,183,162655,2,0,L|328:225,1,42.5,0|2,3:0|0:3,0:0:0:0:
386,282,162934,5,0,3:3:0:0:
386,282,163073,2,0,L|428:278,1,42.5,0|0,0:0|0:0,0:0:0:0:
365,363,163352,2,0,L|322:359,1,42.5,2|0,0:3|0:0,0:0:0:0:
258,281,163631,2,0,L|301:278,1,42.5,2|0,0:3|0:0,0:0:0:0:
237,362,163910,6,0,L|194:358,1,42.5,2|0,0:3|0:0,0:0:0:0:
173,284,164190,2,0,L|130:287,1,42.5,2|0,0:3|0:0,0:0:0:0:
230,369,164469,2,0,L|187:365,1,42.5,2|0,0:3|0:0,0:0:0:0:
166,276,164748,2,0,L|123:280,2,42.5,2|0|2,0:3|0:0|0:3,0:0:0:0:
218,214,165166,6,0,L|221:171,1,42.5,2|0,3:3|0:0,0:0:0:0:
166,103,165445,1,2,0:2:0:0:
174,102,165585,2,0,P|196:90|216:74,1,50.9999984436036,2|0,0:2|0:0,0:0:0:0:
290,128,165864,1,2,0:2:0:0:
298,130,166004,2,0,P|321:148|341:169,1,59.4999981842042,2|0,3:3|0:0,0:0:0:0:
382,73,166283,1,2,3:3:0:0:
391,67,166423,2,0,P|413:42|431:13,1,68,2|0,0:2|0:0,0:0:0:0:
470,125,166701,1,0,0:0:0:0:
477,130,166841,2,0,P|497:162|512:196,1,76.4999976654053,2|2,0:2|0:2,0:0:0:0:
354,278,167120,2,0,P|333:245|318:211,1,76.4999976654053,2|0,0:2|0:0,0:0:0:0:
448,269,167399,6,0,L|439:362,1,93.5,0|0,0:2|0:0,0:0:0:0:
429,367,169073,6,0,P|410:359|386:357,1,31.8750012159348,0|0,3:0|3:0,0:0:0:0:
333,309,169213,2,0,P|284:326|227:330,1,106.25,6|0,1:2|0:2,0:0:0:0:
181,277,169631,6,0,P|235:286|215:337,1,127.500004863739,6|0,3:2|0:0,0:0:0:0:
88,313,170050,2,0,P|84:270|93:229,1,85,6|0,3:2|3:0,0:0:0:0:
100,224,170259,1,0,3:0:0:0:
107,220,170329,6,0,L|101:156,1,63.75,2|0,3:3|0:0,0:0:0:0:
46,83,170887,6,0,P|60:75|76:71,3,31.8750012159348,8|8|0|0,0:3|0:3|0:0|0:0,0:0:0:0:
156,30,171166,2,0,P|171:34|185:42,3,31.8750012159348,8|8|0|0,0:3|0:3|0:0|0:0,0:0:0:0:
234,117,171445,6,0,P|247:124|263:128,3,31.8750012159348,8|8|0|0,0:3|0:3|0:0|0:0,0:0:0:0:
342,170,171724,2,0,P|371:157|390:131,1,63.7500024318696,8|8,0:3|0:3,0:0:0:0:
395,122,171934,1,4,0:3:0:0:
395,122,172003,5,0,1:0:0:0:
480,44,172143,2,0,L|477:75,1,31.8750012159348,2|0,3:3|0:0,0:0:0:0:
395,122,172422,2,0,L|397:153,1,31.8750012159348,2|0,3:3|0:0,0:0:0:0:
480,200,172701,6,0,L|477:231,1,31.8750012159348,4|0,3:3|3:2,0:0:0:0:
512,264,172841,2,0,L|485:245,1,31.8750012159348,4|0,3:3|3:2,0:0:0:0:
440,259,172980,2,0,L|468:245,1,31.8750012159348,4|0,3:3|3:2,0:0:0:0:
478,242,173957,6,0,L|413:236,1,63.75,6|0,1:2|0:0,0:0:0:0:
407,245,175073,2,0,L|408:266,1,21.25,12|0,0:3|0:0,0:0:0:0:
300,365,175352,6,0,P|313:331|306:280,1,85,6|2,3:2|0:2,0:0:0:0:
248,210,175631,1,2,1:2:0:0:
299,86,175771,2,0,P|322:89|343:114,1,42.5,2|0,1:2|1:0,0:0:0:0:
348,106,175910,6,0,P|361:139|354:191,1,85,0|2,3:0|1:2,0:0:0:0:
253,223,176190,2,0,P|236:244|200:258,1,63.7500024318696,2|0,1:3|1:0,0:0:0:0:
105,210,176469,5,8,0:3:0:0:
90,202,176538,1,8,0:3:0:0:
78,192,176608,1,6,0:3:0:0:
68,180,176678,1,4,0:3:0:0:
59,166,176748,2,0,L|63:124,2,42.5,6|0|2,1:2|0:0|3:2,0:0:0:0:
13,247,177027,6,0,P|29:286|29:328,1,85,8|4,0:3|0:3,0:0:0:0:
121,370,177306,1,2,1:2:0:0:
136,356,177375,1,0,1:2:0:0:
150,339,177445,1,0,1:2:0:0:
160,320,177515,1,0,1:2:0:0:
166,300,177585,6,0,P|124:289|83:295,1,85,6|2,3:2|2:2,0:0:0:0:
13,247,177864,1,2,2:2:0:0:
69,87,178003,2,0,P|52:75|31:77,1,42.5,2|0,1:2|1:2,0:0:0:0:
27,86,178143,6,0,P|69:97|110:91,1,85,2|0,3:2|1:0,0:0:0:0:
197,129,178422,2,0,P|225:112|243:87,1,63.7500024318696,2|2,3:3|1:2,0:0:0:0:
314,10,178701,5,8,0:3:0:0:
312,33,178770,1,4,0:3:0:0:
314,57,178840,1,0,3:0:0:0:
321,80,178910,1,0,3:0:0:0:
331,102,178980,2,0,P|345:117|364:127,1,42.5,2|0,1:2|0:0,0:0:0:0:
475,141,179120,1,2,1:2:0:0:
475,141,179259,6,0,L|472:172,3,31.8750012159348,2|0|0|0,3:2|3:3|3:0|3:0,0:0:0:0:
434,207,179538,2,0,P|443:239|439:278,1,63.7500024318696,2|2,1:2|0:3,0:0:0:0:
352,358,179817,6,0,P|391:342|433:342,1,85,6|2,3:2|3:2,0:0:0:0:
268,312,180096,1,2,1:2:0:0:
136,369,180236,2,0,P|115:376|94:376,1,42.5,2|0,1:2|1:0,0:0:0:0:
88,362,180376,6,0,P|130:361|169:377,1,85,2|2,3:2|1:2,0:0:0:0:
268,312,180655,2,0,P|298:304|324:285,1,63.7500024318696,2|0,0:3|1:0,0:0:0:0:
271,159,180934,5,8,0:3:0:0:
239,162,181003,1,8,0:3:0:0:
212,178,181073,1,4,0:3:0:0:
194,204,181143,1,4,0:3:0:0:
189,235,181213,2,0,P|192:258|206:282,2,42.5,6|0|8,1:2|0:0|0:3,0:0:0:0:
122,172,181492,6,0,P|142:134|146:92,1,85,4|4,0:3|0:3,0:0:0:0:
81,20,181771,2,0,L|38:23,3,42.5,2|0|0|0,1:2|1:2|1:2|1:2,0:0:0:0:
27,33,182050,6,0,L|19:117,1,85,6|2,1:2|3:2,0:0:0:0:
122,172,182329,2,0,P|142:134|146:92,1,85,2|0,1:2|3:0,0:0:0:0:
143,88,182538,1,0,3:0:0:0:
140,84,182608,1,2,3:3:0:0:
213,0,182748,2,0,P|241:37|253:81,1,93.5000028533936,2|0,1:2|3:0,0:0:0:0:
250,88,182957,1,0,3:0:0:0:
246,94,183027,1,2,3:3:0:0:
304,189,183166,6,0,P|341:154|363:108,1,101.999996887207,2|0,1:2|3:0,0:0:0:0:
362,98,183375,1,0,3:0:0:0:
358,88,183445,1,2,3:3:0:0:
412,0,183585,2,0,P|459:29|490:74,1,110.499994941712,2|0,1:2|3:0,0:0:0:0:
492,84,183794,1,0,3:0:0:0:
491,95,183864,1,2,3:3:0:0:
446,206,184003,1,2,1:2:0:0:
474,280,184143,5,6,3:2:0:0:
474,280,185399,5,6,1:2:0:0:
391,232,185538,2,0,L|306:239,1,85,2|0,3:2|3:0,0:0:0:0:
474,280,185817,5,2,1:2:0:0:
391,232,186096,1,2,1:2:0:0:
295,373,186376,6,0,B|325:362|325:362|378:365,1,85,4|2,3:1|0:2,0:0:0:0:
231,314,186794,2,0,P|194:293|177:256,1,85,6|0,1:2|0:0,0:0:0:0:
87,280,187073,2,0,P|84:238|102:200,1,85,6|2,1:2|3:2,0:0:0:0:
42,131,187352,5,8,0:3:0:0:
59,119,187421,1,8,0:3:0:0:
79,111,187491,1,4,0:3:0:0:
100,108,187561,1,4,0:3:0:0:
121,110,187631,5,6,1:2:0:0:
217,175,187771,2,0,L|213:217,2,42.5,2|0|0,3:2|0:0|1:0,0:0:0:0:
121,110,188050,5,2,3:3:0:0:
284,71,188329,1,2,3:3:0:0:
399,192,188608,6,0,B|410:222|410:222|407:275,1,85,4|2,3:1|0:2,0:0:0:0:
490,369,189027,2,0,P|496:327|480:288,1,85,4|0,1:3|3:0,0:0:0:0:
391,268,189306,2,0,P|365:234|327:217,1,85,4|0,1:3|3:0,0:0:0:0:
249,266,189585,2,0,P|207:259|168:275,1,85,4|0,1:3|3:0,0:0:0:0:
165,287,189794,1,0,3:0:0:0:
163,299,189864,5,4,1:3:0:0:
136,189,190003,1,2,3:3:0:0:
89,384,190283,5,2,3:3:0:0:
62,274,190562,1,2,3:3:0:0:
244,220,190841,6,0,L|397:261,5,159.375,6|6|6|6|6|6,3:2|3:2|3:2|3:2|3:2|3:2,0:0:0:0:
499,333,192096,5,2,0:2:0:0:
499,333,192375,1,2,0:2:0:0:
505,320,192794,6,0,L|495:382,1,63.7500024318696,6|0,3:3|0:0,0:0:0:0:
