osu file format v14

[General]
AudioFilename: audio.mp3
AudioLeadIn: 0
PreviewTime: 57027
Countdown: 0
SampleSet: Soft
StackLeniency: 0.2
Mode: 0
LetterboxInBreaks: 1
WidescreenStoryboard: 1

[Editor]
Bookmarks: 11399,13494,19631,21169,22285,26750,31215,35681,40146,43841,44610,49076,51448,53541,58006,80471,84936,89401,98192,102657,107122,115422,116053,120657,124983,129587,131820,133913,156378,160704,166003,169634,175355,184146,190843
DistanceSpacing: 1.2
BeatDivisor: 4
GridSize: 32
TimelineZoom: 2.949999

[Metadata]
Title:Tenohira de odoru
TitleUnicode:掌で踊る
Artist:sokoninaru
ArtistUnicode:そこに鳴る
Creator:Smokeman
Version:Extra
Source:
Tags:ゼロ zero KOGA RECORDS j-pop j-rock japanese metal alternative indie rock math-rock celektus knightc0re knightcore
BeatmapID:2154658
BeatmapSetID:902587

[Difficulty]
HPDrainRate:7
CircleSize:3.5
OverallDifficulty:8.3
ApproachRate:9.3
SliderMultiplier:1.85
SliderTickRate:1

[Events]
//Background and Video events
0,0,"TenohiraBG.jpg",0,0
//Break Periods
2,26948,30240
2,44808,48380
2,116250,120101
2,129506,131263
//Storyboard Layer 0 (Background)
//Storyboard Layer 1 (Fail)
//Storyboard Layer 2 (Pass)
//Storyboard Layer 3 (Foreground)
//Storyboard Layer 4 (Overlay)
//Storyboard Sound Samples

[TimingPoints]
97,279.06976744186,4,2,1,60,1,0
97,-55.5555555555556,4,2,1,60,0,0
306,-55.5555555555556,4,2,1,5,0,0
376,-200,4,2,1,30,0,0
4492,-66.6666666666667,4,2,1,30,0,0
4562,-66.6666666666667,4,2,1,60,0,0
5190,-100,4,2,1,5,0,0
5259,-100,4,2,1,40,0,0
6794,-66.6666666666667,4,2,1,60,0,0
7492,-83.3333333333333,4,2,1,50,0,0
9027,-100,4,2,1,60,0,0
11259,-66.6666666666667,4,2,1,60,0,0
11469,-66.6666666666667,4,2,1,40,0,0
11538,-66.6666666666667,4,2,1,60,0,0
11608,-66.6666666666667,4,2,1,40,0,0
11678,-60.6060606060606,4,2,1,60,0,0
11887,-60.6060606060606,4,2,1,40,0,0
11957,-60.6060606060606,4,2,1,60,0,0
12027,-60.6060606060606,4,2,1,40,0,0
12096,-55.5555555555556,4,2,1,60,0,0
12306,-55.5555555555556,4,2,1,40,0,0
12376,-55.5555555555556,4,2,1,60,0,0
12445,-55.5555555555556,4,2,1,40,0,0
12515,-55.5555555555556,4,2,1,60,0,0
12655,-333.333333333333,4,2,1,60,0,0
13213,-100,4,2,1,60,0,0
13492,-58.8235294117647,4,2,1,70,0,0
13910,-66.6666666666667,4,2,1,70,0,0
17678,-50,4,2,1,70,0,0
17957,-58.8235294117647,4,2,1,70,0,0
18376,-66.6666666666667,4,2,1,70,0,0
21166,-76.9230769230769,4,2,1,70,0,0
22283,-58.8235294117647,4,2,1,70,0,0
22701,-66.6666666666667,4,2,1,70,0,0
22980,-58.8235294117647,4,2,1,70,0,0
23259,-50,4,2,1,70,0,0
23538,-45.4545454545455,4,2,1,70,0,0
23957,-76.9230769230769,4,2,1,70,0,0
24515,-100,4,2,1,70,0,0
25701,-100,4,2,1,5,0,0
25771,-100,4,2,1,40,0,0
26469,-303.030303030303,4,2,1,60,0,0
26678,-100,4,2,1,5,0,0
26748,-100,4,2,1,20,0,0
30794,-200,4,2,1,50,0,0
31143,-100,4,2,1,5,0,0
31213,-90.9090909090909,4,2,1,60,0,0
31631,-76.9230769230769,4,2,1,60,0,0
35678,-100,4,2,1,60,0,0
40143,-76.9230769230769,4,2,1,60,0,0
43631,-111.111111111111,4,2,1,60,0,0
44608,-200,4,2,1,60,0,0
49073,-90.9090909090909,4,2,1,60,0,0
50190,-90.9090909090909,4,2,1,60,0,0
50469,-83.3333333333333,4,2,1,60,0,0
51445,-125,4,2,1,60,0,0
53538,-58.8235294117647,4,2,1,70,0,0
53957,-66.6666666666667,4,2,1,70,0,0
54236,-58.8235294117647,4,2,1,70,0,0
54515,-52.6315789473684,4,2,1,70,0,0
54794,-52.6315789473684,4,2,1,70,0,0
55213,-66.6666666666667,4,2,1,70,0,0
55771,-76.9230769230769,4,2,1,60,0,0
56957,-76.9230769230769,4,2,1,5,0,0
57027,-500,4,2,1,40,0,0
57236,-500,4,2,1,5,0,0
57306,-100,4,2,1,40,0,0
58003,-71.4285714285714,4,2,1,80,0,1
61352,-100,4,2,1,80,0,0
62469,-71.4285714285714,4,2,1,80,0,1
66376,-200,4,2,1,80,0,0
66934,-71.4285714285714,4,2,1,80,0,1
70283,-100,4,2,1,80,0,0
71399,-71.4285714285714,4,2,1,80,0,1
75306,-100,4,2,1,80,0,0
75864,-62.5,4,2,1,80,0,1
76143,-71.4285714285714,4,2,1,80,0,1
76980,-62.5,4,2,1,80,0,1
77399,-71.4285714285714,4,2,1,80,0,1
78096,-62.5,4,2,1,80,0,1
78515,-71.4285714285714,4,2,1,80,0,1
79213,-66.6666666666667,4,2,1,80,0,1
79631,-71.4285714285714,4,2,1,80,0,1
80190,-100,4,2,1,80,0,0
80469,-66.6666666666667,4,2,1,80,0,1
82701,-100,4,2,1,50,0,1
82841,-100,4,2,1,50,0,0
84864,-100,4,2,1,5,0,1
84934,-188.679245283019,4,2,1,40,0,0
87027,-1000,4,2,1,30,0,0
87096,-1000,4,2,2,5,0,0
89120,-100,4,2,1,60,0,0
89399,-58.8235294117647,4,2,1,70,0,0
89817,-66.6666666666667,4,2,1,70,0,0
93864,-58.8235294117647,4,2,1,70,0,0
94283,-66.6666666666667,4,2,1,70,0,0
98190,-100,4,2,1,60,0,0
98469,-166.666666666667,4,2,1,60,0,0
101678,-100,4,2,1,60,0,0
101957,-71.4285714285714,4,2,1,60,0,0
103143,-64.5161290322581,4,2,1,60,0,0
106422,-100,4,2,1,40,0,0
107120,-62.5,4,2,1,70,0,0
107469,-62.5,4,2,1,5,0,0
107538,-62.5,4,2,1,70,0,0
107748,-62.5,4,2,1,5,0,0
107817,-100,4,2,1,70,0,0
108236,-62.5,4,2,1,70,0,0
108585,-62.5,4,2,1,5,0,0
108655,-62.5,4,2,1,70,0,0
108864,-62.5,4,2,1,5,0,0
108934,-100,4,2,1,70,0,0
109352,-62.5,4,2,1,70,0,0
109701,-62.5,4,2,1,5,0,0
109771,-62.5,4,2,1,70,0,0
109980,-62.5,4,2,1,5,0,0
110050,-100,4,2,1,70,0,0
110608,-113.636363636364,4,2,1,70,0,0
111306,-119.047619047619,4,2,1,70,0,0
111585,-52.6315789473684,4,2,1,70,0,0
112003,-62.5,4,2,1,70,0,0
112213,-62.5,4,2,1,5,0,0
112283,-666.666666666667,4,2,1,70,0,0
112701,-52.6315789473684,4,2,1,70,0,0
113120,-62.5,4,2,1,70,0,0
113329,-62.5,4,2,1,5,0,0
113399,-500,4,2,1,70,0,0
113817,-52.6315789473684,4,2,1,70,0,0
114236,-62.5,4,2,1,70,0,0
114515,-83.3333333333333,4,2,1,70,0,0
115003,-83.3333333333333,4,2,1,70,0,0
115073,-100,4,2,1,70,0,0
115492,-100,4,2,1,70,0,0
115771,-100,4,2,1,70,0,0
116050,-454.545454545455,4,2,1,70,0,0
120655,-100,4,2,1,40,0,0
124841,-100,4,2,1,60,0,0
126096,-90.9090909090909,4,2,1,60,0,0
127213,-83.3333333333333,4,2,1,60,0,0
128329,-76.9230769230769,4,2,1,60,0,0
129585,-100,4,2,1,30,0,0
131817,-58.8235294117647,4,2,1,70,0,0
131922,-58.8235294117647,4,2,1,5,0,0
131992,-58.8235294117647,4,2,1,70,0,0
132096,-58.8235294117647,4,2,1,5,0,0
132166,-58.8235294117647,4,2,1,70,0,0
132271,-58.8235294117647,4,2,1,5,0,0
132341,-58.8235294117647,4,2,1,70,0,0
132445,-58.8235294117647,4,2,1,5,0,0
132515,-58.8235294117647,4,2,1,70,0,0
132620,-58.8235294117647,4,2,1,5,0,0
132690,-58.8235294117647,4,2,1,70,0,0
132794,-58.8235294117647,4,2,1,5,0,0
132864,-58.8235294117647,4,2,1,70,0,0
132969,-58.8235294117647,4,2,1,5,0,0
133038,-58.8235294117647,4,2,1,70,0,0
133143,-58.8235294117647,4,2,1,5,0,0
133213,-58.8235294117647,4,2,1,70,0,0
133422,-100,4,2,1,5,0,0
133910,-71.4285714285714,4,2,1,80,0,1
137259,-100,4,2,1,80,0,0
138376,-71.4285714285714,4,2,1,80,0,1
142283,-200,4,2,1,80,0,0
142841,-71.4285714285714,4,2,1,80,0,1
146190,-100,4,2,1,80,0,0
147306,-71.4285714285714,4,2,1,80,0,1
151213,-100,4,2,1,80,0,0
151771,-62.5,4,2,1,80,0,1
152050,-71.4285714285714,4,2,1,80,0,1
152887,-62.5,4,2,1,80,0,1
153166,-71.4285714285714,4,2,1,80,0,1
154003,-62.5,4,2,1,80,0,1
154283,-71.4285714285714,4,2,1,80,0,1
155120,-66.6666666666667,4,2,1,80,0,1
156376,-40,4,2,1,50,0,1
156515,-40,4,2,1,80,0,1
156655,-40,4,2,1,5,0,1
156794,-40,4,2,1,50,0,1
156934,-40,4,2,1,80,0,1
157073,-40,4,2,1,5,0,1
157213,-40,4,2,1,50,0,1
157352,-40,4,2,1,80,0,1
157492,-40,4,2,1,5,0,1
157631,-40,4,2,1,50,0,1
157771,-40,4,2,1,80,0,1
157910,-40,4,2,1,5,0,1
158050,-40,4,2,1,50,0,1
158190,-40,4,2,1,80,0,1
158329,-40,4,2,1,5,0,1
158399,-40,4,2,1,50,0,1
158608,-100,4,2,1,80,0,1
160631,-100,4,2,1,5,0,1
160701,-125,4,2,1,50,0,0
165166,-111.111111111111,4,2,1,50,0,0
166283,-100,4,2,1,50,0,0
167399,-1000,4,2,1,50,0,0
169073,-312.5,4,2,1,70,0,0
169631,-62.5,4,2,1,70,0,0
169980,-62.5,4,2,1,5,0,0
170050,-55.5555555555556,4,2,1,70,0,0
170329,-625,4,2,1,70,0,0
170887,-100,4,2,1,70,0,0
172003,-55.5555555555556,4,2,1,70,0,0
172701,-100,4,2,1,100,0,0
173120,-100,4,2,1,20,0,0
173259,-100,4,2,1,5,0,0
173352,-100,4,2,1,20,0,0
173492,-100,4,2,1,5,0,0
173585,-100,4,2,1,20,0,0
173957,-117.647058823529,4,2,1,80,0,0
174027,-117.647058823529,4,2,2,30,0,0
175073,-200,4,2,1,60,0,0
175283,-200,4,2,1,5,0,0
175352,-55.5555555555556,4,2,1,70,0,0
175771,-62.5,4,2,1,70,0,0
179817,-55.5555555555556,4,2,1,70,0,0
180236,-62.5,4,2,1,70,0,0
182329,-60.6060606060606,4,2,1,70,0,0
182608,-111.111111111111,4,2,1,70,0,0
182748,-57.1428571428571,4,2,1,70,0,0
183027,-100,4,2,1,70,0,0
183166,-54.054054054054,4,2,1,70,0,0
183445,-90.9090909090909,4,2,1,70,0,0
183585,-51.2820512820513,4,2,1,70,0,0
183864,-86.9565217391304,4,2,1,70,0,0
184003,-48.780487804878,4,2,1,70,0,0
184143,-100,4,2,1,40,0,0
185399,-47.6190476190476,4,2,1,50,0,0
185817,-76.9230769230769,4,2,1,50,0,0
186376,-58.8235294117647,4,2,1,70,0,0
186794,-66.6666666666667,4,2,1,70,0,0
187073,-58.8235294117647,4,2,1,70,0,0
187352,-52.6315789473684,4,2,1,70,0,0
187631,-47.6190476190476,4,2,1,70,0,0
188050,-76.9230769230769,4,2,1,70,0,0
188608,-58.8235294117647,4,2,1,70,0,0
189027,-76.9230769230769,4,2,1,50,0,0
189864,-47.6190476190476,4,2,1,50,0,0
190283,-76.9230769230769,4,2,1,70,0,0
190841,-100,4,2,1,80,0,0
190980,-100,4,2,1,5,0,0
191050,-100,4,2,1,80,0,0
191190,-100,4,2,1,5,0,0
191259,-100,4,2,1,80,0,0
191399,-100,4,2,1,5,0,0
191469,-100,4,2,1,80,0,0
191608,-100,4,2,1,5,0,0
191678,-100,4,2,1,80,0,0
191817,-100,4,2,1,5,0,0
191887,-100,4,3,1,80,0,0
192027,-100,4,3,1,5,0,0
192096,-100,4,2,1,30,0,0
192794,-71.4285714285714,4,2,1,80,0,0
192864,-100,4,2,1,5,0,0

[Colours]
Combo1 : 192,192,192
Combo2 : 0,255,255
Combo3 : 128,255,255

[HitObjects]
113,262,97,5,6,1:3:0:0:
361,184,376,2,0,P|343:206|334:231,1,46.25,2|0,0:2|0:0,0:0:0:0:
369,191,655,2,0,P|371:219|381:244,1,46.25,2|0,0:2|0:0,0:0:0:0:
474,238,934,2,0,P|495:257|519:269,1,46.25,2|0,0:2|0:0,0:0:0:0:
458,292,1213,2,0,P|460:264|470:239,1,46.25,2|0,0:2|0:0,0:0:0:0:
339,341,1492,2,0,P|360:322|384:310,1,46.25,2|0,0:2|0:0,0:0:0:0:
317,288,1771,2,0,P|319:315|329:340,1,46.25,2|0,0:2|0:0,0:0:0:0:
216,347,2050,2,0,P|236:366|260:378,1,46.25,2|0,0:2|0:0,0:0:0:0:
233,260,2329,6,0,P|223:234|206:213,1,46.25,2|0,0:2|0:0,0:0:0:0:
252,204,2608,2,0,P|250:231|240:257,1,46.25,2|0,0:2|0:0,0:0:0:0:
126,335,2887,2,0,P|153:331|177:319,1,46.25,2|0,0:2|0:0,0:0:0:0:
180,313,3166,2,0,P|154:305|132:289,1,46.25,2|0,0:2|0:0,0:0:0:0:
78,234,3445,2,0,P|68:208|51:187,1,46.25,2|0,0:2|0:0,0:0:0:0:
95,184,3724,2,0,P|92:211|82:236,1,46.25,2|0,0:2|0:0,0:0:0:0:
0,320,4003,2,0,P|27:317|51:305,1,46.25,2|0,0:2|0:0,0:0:0:0:
46,349,4282,2,0,P|20:341|-2:326,1,46.25,2|0,0:2|1:0,0:0:0:0:
71,239,4492,5,0,1:0:0:0:
65,169,4562,1,6,1:2:0:0:
119,71,4980,1,6,1:2:0:0:
236,178,5259,5,0,1:2:0:0:
236,178,5399,1,2,1:2:0:0:
258,269,5538,5,0,1:2:0:0:
258,269,5678,1,2,1:2:0:0:
348,218,5817,5,0,1:2:0:0:
348,218,5957,1,2,1:2:0:0:
374,318,6096,5,0,1:2:0:0:
374,318,6236,1,2,1:2:0:0:
470,266,6376,5,0,1:2:0:0:
470,266,6516,1,2,1:2:0:0:
503,373,6655,5,0,1:2:0:0:
374,318,6795,1,6,1:2:0:0:
430,141,7213,1,6,1:2:0:0:
360,280,7492,6,0,P|308:279|284:232,1,110.999996612549,2|2,0:2|3:2,0:0:0:0:
275,131,7771,1,0,0:0:0:0:
295,221,7910,2,0,P|294:273|259:328,1,110.999996612549,2|0,3:2|0:0,0:0:0:0:
154,374,8190,2,0,P|113:340|129:290,1,110.999996612549,2|0,3:2|0:0,0:0:0:0:
358,298,8469,2,0,P|304:296|268:336,1,110.999996612549,2|0,3:2|0:0,0:0:0:0:
71,240,8748,2,0,P|122:249|135:300,1,110.999996612549,2|0,3:2|0:0,0:0:0:0:
252,151,9027,5,4,1:3:0:0:
252,151,9166,1,4,1:3:0:0:
62,125,9445,2,0,L|131:102,1,46.25,8|8,0:3|0:3,0:0:0:0:
105,86,9585,2,0,L|146:65,1,46.25,8|8,0:3|0:3,0:0:0:0:
236,36,9724,1,0,3:0:0:0:
255,40,9794,1,0,3:0:0:0:
274,44,9864,6,0,L|318:66,1,46.25,4|4,0:3|0:3,0:0:0:0:
325,87,10003,2,0,L|369:109,1,46.25,0|0,3:0|3:0,0:0:0:0:
408,175,10143,2,0,L|467:245,1,92.5,0|0,1:2|3:3,0:0:0:0:
313,248,10422,2,0,L|342:343,1,92.5,8|8,0:3|0:3,0:0:0:0:
191,275,10701,2,0,L|182:367,1,92.5,0|2,3:0|0:3,0:0:0:0:
192,257,10980,2,0,L|202:165,1,92.5,0|2,3:0|0:3,0:0:0:0:
112,256,11259,6,0,L|-26:243,1,138.750005292893,6|0,1:2|3:0,0:0:0:0:
46,366,11538,2,0,L|116:335,1,69.3750026464463,0|0,3:0|0:0,0:0:0:0:
277,248,11678,6,0,L|482:264,1,152.625001455545,6|0,1:2|3:0,0:0:0:0:
509,365,11957,2,0,L|413:342,1,76.3125007277727,0|0,3:0|0:0,0:0:0:0:
206,178,12096,6,0,L|39:168,1,166.499994918823,6|0,1:2|3:0,0:0:0:0:
0,53,12376,2,0,L|82:65,1,83.2499974594117,8|8,0:3|0:3,0:0:0:0:
204,89,12515,1,4,3:3:0:0:
220,90,12585,1,4,3:3:0:0:
237,93,12655,6,0,L|275:44,1,55.4999983062745,6|0,1:3|0:0,0:0:0:0:
352,7,13213,1,12,0:3:0:0:
491,88,13492,6,0,P|468:130|449:270,1,157.250002999306,6|2,3:2|0:2,0:0:0:0:
502,349,13771,1,2,1:2:0:0:
444,328,13841,1,0,0:0:0:0:
393,312,13910,2,0,P|326:333|268:370,1,138.750005292893,2|0,1:2|3:0,0:0:0:0:
82,349,14190,1,2,1:2:0:0:
77,332,14259,1,0,0:0:0:0:
73,316,14329,2,0,P|81:272|75:196,1,69.3750026464463,2|0,1:3|0:0,0:0:0:0:
0,191,14469,6,0,P|33:183|66:170,1,69.3750026464463,0|0,1:0|1:0,0:0:0:0:
135,92,14608,2,0,P|100:88|67:78,3,69.3750026464463,8|8|6|4,0:3|0:3|0:3|0:3,0:0:0:0:
220,261,14887,2,0,P|231:184|291:104,1,138.750005292893,6|2,1:2|3:2,0:0:0:0:
442,80,15166,2,0,P|351:78|235:149,1,208.125007939339,8|0,0:3|0:0,0:0:0:0:
343,43,15445,1,2,1:2:0:0:
336,63,15515,1,0,1:2:0:0:
336,86,15585,1,0,1:2:0:0:
328,104,15655,1,0,1:2:0:0:
348,153,15724,6,0,L|359:227,1,69.3750026464463,6|0,3:2|0:0,0:0:0:0:
430,243,15864,2,0,L|364:206,1,69.3750026464463,2|0,3:2|0:0,0:0:0:0:
242,235,16003,1,2,1:2:0:0:
233,256,16073,1,0,0:0:0:0:
224,277,16143,2,0,L|328:239,1,69.3750026464463,2|0,1:2|1:2,0:0:0:0:
157,62,16283,6,0,L|195:205,1,138.750005292893,2|0,3:2|1:0,0:0:0:0:
114,237,16492,1,0,0:0:0:0:
118,219,16562,2,0,L|-3:262,1,69.3750026464463,2|0,3:3|0:0,0:0:0:0:
0,325,16701,2,0,L|101:350,4,69.3750026464463,2|0|8|4|0,1:2|1:0|0:3|0:3|3:0,0:0:0:0:
315,317,17120,6,0,P|388:332|434:355,1,69.3750026464463,2|0,1:2|0:0,0:0:0:0:
382,234,17259,6,0,P|425:295|443:344,1,69.3750026464463,2|0,1:2|0:0,0:0:0:0:
479,205,17399,2,0,P|468:278|448:327,3,69.3750026464463,2|0|0|0,3:2|3:3|3:0|3:0,0:0:0:0:
451,121,17678,1,2,1:2:0:0:
511,338,17817,1,2,0:3:0:0:
319,181,17957,6,0,P|298:144|285:103,1,78.6250014996529,6|0,3:2|0:0,0:0:0:0:
259,29,18096,2,0,P|277:63|288:101,1,78.6250014996529,2|0,3:2|0:0,0:0:0:0:
211,186,18236,1,2,1:2:0:0:
196,197,18306,1,0,0:0:0:0:
180,207,18376,2,0,P|144:201|55:132,1,138.750005292893,2|2,1:2|3:2,0:0:0:0:
0,276,18655,1,2,1:2:0:0:
23,267,18724,1,0,0:0:0:0:
50,264,18794,2,0,L|72:329,1,69.3750026464463,2|0,0:3|0:0,0:0:0:0:
162,368,18934,6,0,P|166:333|176:300,1,69.3750026464463,0|0,1:0|1:0,0:0:0:0:
260,243,19073,2,0,P|297:237|333:228,3,69.3750026464463,8|8|4|4,0:3|0:3|0:3|0:3,0:0:0:0:
422,32,19352,2,0,P|379:89|366:171,1,138.750005292893,6|8,1:2|0:3,0:0:0:0:
462,347,19632,2,0,P|450:273|406:213,1,138.750005292893,4|4,0:3|0:3,0:0:0:0:
260,243,19910,1,2,1:2:0:0:
216,252,19979,1,0,1:2:0:0:
172,261,20049,1,0,1:2:0:0:
128,270,20120,1,0,1:2:0:0:
87,258,20190,6,0,P|94:184|144:129,1,138.750005292893,6|2,1:2|3:2,0:0:0:0:
235,164,20469,1,2,1:2:0:0:
386,62,20608,1,2,1:2:0:0:
355,52,20678,1,0,1:2:0:0:
326,43,20748,5,2,1:2:0:0:
213,13,20887,1,2,1:2:0:0:
318,181,21027,1,2,1:2:0:0:
267,365,21166,1,2,3:3:0:0:
24,274,21445,5,2,3:3:0:0:
469,161,21724,5,2,3:3:0:0:
159,359,22003,5,2,3:3:0:0:
3,193,22283,6,0,P|150:230|357:257,1,314.500005998612,4|2,3:1|0:2,0:0:0:0:
509,84,22701,2,0,P|458:111|340:142,1,138.750005292893,6|0,1:2|0:0,0:0:0:0:
160,0,22980,2,0,P|190:48|244:168,1,157.250002999306,6|2,1:2|3:2,0:0:0:0:
117,350,23259,1,8,0:3:0:0:
99,348,23329,1,8,0:3:0:0:
81,338,23399,1,4,0:3:0:0:
71,326,23469,1,4,0:3:0:0:
89,315,23538,6,0,L|269:297,1,101.750003105164,6|0,1:2|0:0,0:0:0:0:
216,284,23678,2,0,L|13:304,1,203.500006210327,2|0,3:2|1:0,0:0:0:0:
0,230,23957,1,2,3:3:0:0:
269,355,24236,1,2,3:3:0:0:
512,190,24515,1,6,3:2:0:0:
256,192,24655,12,8,25701,0:3:0:0:
417,279,25771,6,0,L|314:210,1,92.5,2|0,3:2|0:0,0:0:0:0:
238,275,26050,1,2,3:2:0:0:
31,245,26469,6,0,L|37:263,1,15.2624999534225,6|0,3:2|0:0,0:0:0:0:
255,187,26748,1,2,0:2:0:0:
491,336,30794,6,0,L|501:278,2,46.25,2|0|0,0:2|0:0|0:0,0:0:0:0:
221,253,31213,1,6,3:2:0:0:
172,314,31492,5,0,3:0:0:0:
49,370,31631,2,0,P|16:316|1:259,1,120.249994495392,2|0,1:2|3:0,0:0:0:0:
97,80,31910,2,0,P|69:133|57:191,1,120.249994495392,2|0,1:2|3:0,0:0:0:0:
106,360,32190,6,0,P|60:315|32:263,1,120.249994495392,2|0,1:2|3:0,0:0:0:0:
162,127,32469,2,0,P|154:186|163:245,1,120.249994495392,2|0,1:2|3:0,0:0:0:0:
157,341,32748,6,0,P|102:308|62:265,1,120.249994495392,2|0,1:2|3:0,0:0:0:0:
235,152,33027,2,0,P|248:210|276:262,1,120.249994495392,2|2,1:2|3:2,0:0:0:0:
343,309,33306,1,2,1:2:0:0:
343,162,33445,6,0,P|268:106|128:60,1,240.499988990784,6|0,3:2|3:0,0:0:0:0:
199,205,33864,2,0,P|283:169|349:171,1,120.249994495392,2|0,1:2|3:0,0:0:0:0:
471,19,34143,2,0,P|434:66|415:123,1,120.249994495392,2|0,1:2|3:0,0:0:0:0:
256,265,34422,6,0,P|319:199|380:175,1,120.249994495392,2|0,1:2|3:0,0:0:0:0:
512,235,34701,1,8,0:3:0:0:
501,240,34771,1,8,0:3:0:0:
489,245,34841,1,0,3:0:0:0:
475,244,34911,1,0,3:0:0:0:
462,235,34981,1,4,0:3:0:0:
450,215,35050,1,4,0:3:0:0:
457,190,35120,1,0,3:0:0:0:
473,183,35190,1,0,3:0:0:0:
481,185,35260,1,0,1:0:0:0:
422,339,35399,2,0,L|399:260,1,60.1249972476961,2|0,3:3|0:0,0:0:0:0:
279,8,35678,6,0,L|341:224,1,185,6|0,3:2|3:0,0:0:0:0:
259,284,36096,2,0,L|241:341,3,46.25,8|8|4|4,0:3|0:3|0:3|0:3,0:0:0:0:
219,253,36376,6,0,L|205:194,3,46.25,8|8|0|0,0:3|0:3|3:3|3:3,0:0:0:0:
127,306,36655,6,0,L|109:363,3,46.25,8|8|4|4,0:3|0:3|0:3|0:3,0:0:0:0:
32,384,36934,2,0,L|12:323,1,46.25,8|8,0:3|0:3,0:0:0:0:
0,156,37213,6,0,L|17:213,3,46.25,8|8|4|4,0:3|0:3|0:3|0:3,0:0:0:0:
77,177,37493,6,0,L|66:222,3,46.25,8|8|0|0,0:3|0:3|0:0|0:0,0:0:0:0:
121,216,37771,1,8,0:3:0:0:
226,205,37910,6,0,L|305:214,1,46.25,8|8,0:3|0:3,0:0:0:0:
364,237,38050,1,6,3:2:0:0:
447,286,38190,1,2,0:2:0:0:
241,303,38329,2,0,P|289:285|349:280,1,92.5,2|0,1:2|1:3,0:0:0:0:
458,300,38608,1,2,1:2:0:0:
512,133,38748,6,0,P|480:167|458:207,1,92.5,2|2,1:2|1:2,0:0:0:0:
342,306,39027,1,2,3:2:0:0:
190,196,39166,6,0,P|235:202|278:219,1,92.5,2|0,1:2|1:3,0:0:0:0:
356,334,39445,1,2,1:2:0:0:
297,113,39585,1,2,3:2:0:0:
386,161,39724,6,0,P|399:116|423:77,1,92.5,2|2,1:2|3:2,0:0:0:0:
331,8,40003,1,2,1:2:0:0:
420,251,40143,1,6,3:2:0:0:
278,219,40422,5,0,3:0:0:0:
152,322,40562,2,0,P|80:285|-8:256,1,120.249994495392,2|0,1:2|3:0,0:0:0:0:
119,185,40841,2,0,P|38:191|-51:213,1,120.249994495392,2|0,1:2|3:0,0:0:0:0:
264,332,41120,6,0,P|212:269|142:208,1,120.249994495392,2|0,1:2|3:0,0:0:0:0:
294,91,41399,2,0,P|229:139|164:205,1,120.249994495392,2|0,1:2|3:0,0:0:0:0:
363,384,41678,6,0,P|339:306|299:223,1,120.249994495392,2|0,1:2|3:0,0:0:0:0:
444,96,41957,2,0,P|414:171|395:262,1,120.249994495392,2|2,1:2|3:2,0:0:0:0:
442,303,42236,1,2,1:2:0:0:
398,25,42376,6,0,P|409:117|486:293,1,240.499988990784,6|0,3:2|3:0,0:0:0:0:
294,352,42794,2,0,P|354:321|341:268,1,120.249994495392,2|0,1:2|3:0,0:0:0:0:
258,109,43073,2,0,P|242:175|291:199,1,120.249994495392,2|0,1:2|3:0,0:0:0:0:
467,237,43352,2,0,P|426:182|376:204,1,120.249994495392,2|0,1:2|3:0,0:0:0:0:
231,287,43631,5,8,0:3:0:0:
217,290,43701,1,8,0:3:0:0:
203,293,43771,2,0,L|149:307,1,41.6249987297059,8|8,0:3|0:3,0:0:0:0:
73,336,43910,2,0,L|32:325,2,41.6249987297059,4|4|4,0:3|0:3|0:3,0:0:0:0:
144,384,44190,5,12,0:3:0:0:
180,158,44329,1,4,0:3:0:0:
91,206,44608,5,6,3:2:0:0:
139,320,48934,6,0,L|176:325,1,23.125,0|0,0:0|0:0,0:0:0:0:
252,374,49073,6,0,P|317:332|460:308,1,203.500006210327,6|0,3:2|3:0,0:0:0:0:
384,148,49492,2,0,P|451:168|508:202,1,101.750003105164,2|0,1:2|3:0,0:0:0:0:
286,242,49771,2,0,P|324:279|343:326,1,101.750003105164,4|8,0:3|0:3,0:0:0:0:
169,356,50050,1,0,1:0:0:0:
0,234,50190,6,0,L|239:252,1,203.500006210327,6|0,3:2|3:0,0:0:0:0:
421,102,50608,2,0,L|329:191,1,110.999996612549,2|0,1:2|3:0,0:0:0:0:
234,131,50887,1,4,0:3:0:0:
325,21,51027,5,8,0:3:0:0:
324,34,51096,1,8,0:3:0:0:
323,46,51166,1,2,1:2:0:0:
379,22,51236,5,0,1:2:0:0:
342,14,51305,1,0,1:2:0:0:
306,7,51375,1,0,1:2:0:0:
270,0,51445,1,6,1:2:0:0:
256,384,53120,5,4,1:3:0:0:
256,384,53259,1,4,1:3:0:0:
146,233,53538,6,0,B|196:187|266:298|176:365|3:314|40:157,1,314.500005998612,4|2,3:1|0:2,0:0:0:0:
290,121,53957,2,0,P|285:187|276:278,1,138.750005292893,6|0,1:2|0:0,0:0:0:0:
473,45,54236,2,0,P|468:111|459:202,1,157.250002999306,6|2,1:2|3:2,0:0:0:0:
129,22,54515,2,0,P|216:29|304:38,1,175.749995306969,8|4,0:3|0:3,0:0:0:0:
508,74,54794,1,6,1:2:0:0:
200,74,54934,1,2,3:2:0:0:
12,214,55213,6,0,P|62:178|81:120,1,69.3750026464463,2|0,3:3|0:0,0:0:0:0:
322,23,55492,2,0,P|290:76|297:136,1,69.3750026464463,2|0,3:3|0:0,0:0:0:0:
366,311,55771,2,0,B|377:336|466:356|530:319|529:212|595:144|538:216|529:113|471:196|429:120|484:197|399:176|389:191|380:204|415:357|405:361|399:365|292:375|179:370|139:338|142:194|253:147|285:133|381:96|270:216|426:100|306:224|356:252|193:296|153:226,1,961.999955963137,6|2,3:2|0:2,0:0:0:0:
45,168,57027,5,2,3:2:0:0:
30,160,57306,1,2,3:2:0:0:
154,384,58003,6,0,B|181:358|199:317|204:271|204:271|206:272|206:272|214:223|196:158|168:137,1,258.999992095948,6|0,3:2|3:2,0:0:0:0:
5,18,58422,2,0,P|66:77|111:97,1,129.499996047974,0|8,1:2|0:3,0:0:0:0:
206,68,58631,1,8,0:3:0:0:
221,75,58701,1,4,0:3:0:0:
401,186,58841,2,0,P|448:142|508:117,1,129.499996047974,0|4,1:0|0:3,0:0:0:0:
266,274,59120,6,0,L|328:15,1,258.999992095948,6|0,3:2|3:2,0:0:0:0:
84,138,59538,2,0,P|159:160|206:204,1,129.499996047974,0|8,1:2|0:3,0:0:0:0:
266,274,59748,2,0,L|338:253,1,64.7499980239869,8|4,0:3|0:3,0:0:0:0:
411,323,59887,1,4,0:3:0:0:
428,318,59957,1,0,1:0:0:0:
445,305,60027,1,0,0:0:0:0:
460,307,60096,1,4,0:3:0:0:
476,306,60166,1,0,0:0:0:0:
511,343,60236,6,0,B|447:309|390:297|390:297|326:299|263:320,1,258.999992095948,6|0,3:2|3:2,0:0:0:0:
128,308,60655,2,0,L|151:386,3,64.7499980239869,8|8|4|4,0:3|0:3|0:3|0:3,0:0:0:0:
95,380,60934,5,2,1:2:0:0:
106,330,61003,1,0,1:0:0:0:
97,278,61073,1,0,1:0:0:0:
122,232,61143,1,0,1:0:0:0:
102,183,61213,1,0,1:0:0:0:
136,143,61283,1,0,1:0:0:0:
115,89,61352,5,2,3:3:0:0:
273,20,61631,5,2,3:3:0:0:
15,90,61910,5,2,3:3:0:0:
246,162,62190,5,2,3:3:0:0:
459,23,62469,6,0,P|443:83|418:297,1,258.999992095948,6|0,3:2|3:2,0:0:0:0:
222,246,62887,2,0,P|247:310|262:386,1,129.499996047974,0|2,1:0|0:3,0:0:0:0:
92,172,63166,1,2,3:2:0:0:
76,273,63306,1,2,0:3:0:0:
42,384,63445,1,2,1:2:0:0:
58,283,63585,1,2,0:3:0:0:
82,146,63724,6,0,L|104:3,1,129.499996047974,2|2,3:2|0:3,0:0:0:0:
170,211,64003,1,2,1:2:0:0:
296,99,64143,2,0,L|315:226,1,129.499996047974,2|0,0:3|3:0,0:0:0:0:
508,186,64422,2,0,L|488:313,1,129.499996047974,2|0,0:3|1:0,0:0:0:0:
338,362,64701,1,2,0:3:0:0:
492,174,64841,6,0,L|512:47,1,129.499996047974,6|2,3:2|1:3,0:0:0:0:
315,227,65120,1,2,3:2:0:0:
303,237,65190,1,0,0:0:0:0:
291,250,65259,1,2,1:3:0:0:
169,137,65399,6,0,L|211:300,1,129.499996047974,2|2,3:2|1:3,0:0:0:0:
381,289,65678,1,2,3:2:0:0:
398,296,65748,1,0,0:0:0:0:
413,302,65817,1,2,1:3:0:0:
512,119,65957,6,0,L|414:132,1,64.7499980239869,6|0,3:2|0:0,0:0:0:0:
357,135,66097,1,8,0:3:0:0:
340,137,66167,1,4,0:3:0:0:
324,139,66236,1,2,1:3:0:0:
192,37,66376,6,0,L|247:43,1,46.25,2|0,3:3|0:0,0:0:0:0:
55,133,66655,2,0,L|109:126,1,46.25,2|0,3:3|0:0,0:0:0:0:
55,357,66934,6,0,B|18:352|10:260|154:206|237:246,1,258.999992095948,6|0,3:2|3:2,0:0:0:0:
440,354,67352,2,0,P|383:305|325:270,1,129.499996047974,0|8,1:2|0:3,0:0:0:0:
321,183,67561,1,8,0:3:0:0:
307,192,67631,1,4,0:3:0:0:
263,48,67771,2,0,P|217:106|184:173,1,129.499996047974,0|4,1:0|0:3,0:0:0:0:
512,93,68050,6,0,L|240:237,1,258.999992095948,6|0,3:2|3:2,0:0:0:0:
88,100,68469,2,0,P|105:189|132:251,1,129.499996047974,0|8,1:2|0:3,0:0:0:0:
10,350,68678,2,0,L|124:327,1,64.7499980239869,0|8,0:0|0:3,0:0:0:0:
213,384,68817,1,0,0:0:0:0:
222,371,68887,1,8,0:3:0:0:
226,356,68957,1,8,0:3:0:0:
254,372,69026,1,4,0:3:0:0:
247,348,69096,1,4,0:3:0:0:
273,339,69166,6,0,B|362:313|306:206|273:238|247:281|227:104|305:144|338:162,1,258.999992095948,6|0,3:2|3:2,0:0:0:0:
496,356,69585,2,0,P|486:325|473:295,3,64.7499980239869,8|8|4|4,0:3|0:3|0:3|0:3,0:0:0:0:
423,239,69864,5,2,1:2:0:0:
449,195,69933,1,0,1:0:0:0:
449,142,70003,1,0,1:0:0:0:
398,129,70073,1,0,1:0:0:0:
371,84,70143,1,0,1:0:0:0:
382,32,70213,1,0,1:0:0:0:
433,39,70282,5,2,3:3:0:0:
241,152,70562,5,2,3:3:0:0:
6,182,70841,5,2,3:3:0:0:
324,64,71120,5,2,3:3:0:0:
217,375,71399,6,0,B|189:376|-38:296|-42:277,1,258.999992095948,6|0,3:2|3:2,0:0:0:0:
108,99,71817,1,0,1:0:0:0:
171,276,71957,1,2,0:3:0:0:
240,145,72096,1,2,3:2:0:0:
225,149,72236,1,2,3:3:0:0:
290,310,72376,5,2,1:2:0:0:
376,198,72516,1,2,0:3:0:0:
336,4,72655,6,0,B|309:74|309:74|320:153,1,129.499996047974,2|2,3:2|0:3,0:0:0:0:
395,307,72934,5,2,1:2:0:0:
410,110,73073,6,0,B|462:45|462:45|544:13,1,129.499996047974,2|0,0:3|3:0,0:0:0:0:
390,316,73352,1,2,0:3:0:0:
264,211,73492,6,0,B|221:159|221:159|156:133,1,129.499996047974,0|2,1:0|0:3,0:0:0:0:
22,230,73771,5,6,3:2:0:0:
186,268,73910,1,2,3:3:0:0:
11,247,74050,5,2,3:2:0:0:
196,193,74190,1,2,3:3:0:0:
0,79,74329,6,0,L|162:135,1,129.499996047974,8|6,0:3|3:3,0:0:0:0:
0,264,74608,6,0,L|180:201,1,129.499996047974,2|2,1:2|3:3,0:0:0:0:
290,381,74887,6,0,L|351:231,2,129.499996047974,14|8|0,0:3|0:3|1:3,0:0:0:0:
466,163,75306,6,0,L|487:272,1,92.5,2|0,3:3|0:0,0:0:0:0:
512,349,75585,2,0,L|455:259,1,92.5,2|0,3:3|0:0,0:0:0:0:
225,54,75864,6,0,B|153:12|88:137|241:208|345:125,1,296,6|0,3:2|3:2,0:0:0:0:
461,47,76283,2,0,P|439:71|425:136,1,64.7499980239869,2|0,1:2|0:0,0:0:0:0:
362,70,76422,2,0,P|382:89|436:105,1,64.7499980239869,0|0,3:0|0:0,0:0:0:0:
479,201,76562,6,0,L|411:189,1,64.7499980239869,4|0,1:3|0:0,0:0:0:0:
330,224,76701,6,0,L|262:212,1,64.7499980239869,4|0,1:3|0:0,0:0:0:0:
181,247,76841,6,0,L|113:235,1,64.7499980239869,4|0,1:3|0:0,0:0:0:0:
52,352,76980,6,0,B|62:371|97:374|118:358|134:335|136:279|120:223|14:146,1,296,6|0,3:2|3:2,0:0:0:0:
71,0,77399,2,0,P|78:37|124:128,1,129.499996047974,2|0,1:2|3:0,0:0:0:0:
212,226,77678,1,8,0:3:0:0:
272,215,77748,1,8,0:3:0:0:
326,206,77818,1,4,0:3:0:0:
371,198,77887,1,4,0:3:0:0:
414,190,77957,1,4,0:3:0:0:
453,186,78027,1,4,0:3:0:0:
471,193,78096,6,0,B|421:117|495:98|546:84|570:186|524:258|441:315,1,296,6|0,3:2|3:2,0:0:0:0:
381,16,78515,2,0,P|438:55|475:131,1,129.499996047974,2|0,1:2|3:0,0:0:0:0:
375,244,78794,5,4,1:3:0:0:
193,156,78934,1,4,1:3:0:0:
80,350,79073,1,4,1:3:0:0:
0,218,79213,6,0,L|413:290,1,416.250015878678,6|8,3:2|0:3,0:0:0:0:
492,325,79701,1,8,0:3:0:0:
483,315,79771,1,8,0:3:0:0:
474,305,79840,1,8,0:3:0:0:
465,295,79910,1,4,0:3:0:0:
456,284,79980,1,4,0:3:0:0:
447,274,80049,1,4,0:3:0:0:
438,264,80119,1,4,0:3:0:0:
419,244,80190,6,0,L|518:215,1,92.5,2|0,1:3|0:0,0:0:0:0:
445,204,80469,5,4,1:3:0:0:
400,27,80654,1,4,3:3:0:0:
340,258,80840,5,4,1:3:0:0:
369,39,81026,1,4,3:3:0:0:
308,251,81212,5,4,1:3:0:0:
265,37,81398,1,4,3:3:0:0:
206,254,81584,5,4,1:3:0:0:
235,24,81770,1,4,3:3:0:0:
179,268,81956,5,4,1:3:0:0:
137,74,82142,1,4,3:3:0:0:
31,182,82329,5,4,1:3:0:0:
295,90,82515,1,4,3:3:0:0:
465,306,82700,5,6,0:0:0:0:
256,384,84934,6,0,B|330:346|352:298|208:64|189:138|178:252|116:260|54:179|304:103|272:89|233:73|61:235|15:147|-36:32|276:127|280:117|283:108|46:83|64:58|88:0|232:136|241:129|253:122|201:65|-36:-55|74:-56|92:-123|237:209|338:319|350:247|-9:-182|142:-321|288:-169|169:119|157:198|313:245|255:-39|305:-277|343:-27|246:20|261:47|289:99|384:-22|344:17|316:42|351:88,1,686.350001047287,6|2,3:2|0:2,0:0:0:0:
415,138,87027,2,0,P|383:195|370:259,1,129.5,0|0,0:2|0:0,0:0:0:0:
412,360,89120,1,12,0:3:0:0:
512,334,89399,6,0,P|474:324|341:287,1,157.250002999306,6|2,3:2|0:2,0:0:0:0:
229,249,89678,1,2,1:2:0:0:
251,299,89748,1,0,0:0:0:0:
272,342,89817,2,0,L|127:388,1,138.750005292893,2|2,1:2|3:2,0:0:0:0:
6,211,90097,1,2,1:2:0:0:
22,219,90166,1,0,0:0:0:0:
36,226,90236,2,0,P|80:234|156:228,1,69.3750026464463,2|0,1:3|0:0,0:0:0:0:
195,137,90376,6,0,P|162:149|129:157,1,69.3750026464463,2|0,1:2|1:0,0:0:0:0:
261,195,90515,2,0,P|257:230|247:263,3,69.3750026464463,8|8|6|4,0:3|0:3|0:3|0:3,0:0:0:0:
402,326,90794,2,0,P|373:253|342:161,1,138.750005292893,6|4,1:2|0:3,0:0:0:0:
512,56,91073,2,0,P|446:110|371:208,1,208.125007939339,8|0,0:3|0:0,0:0:0:0:
276,86,91352,1,2,1:2:0:0:
266,68,91422,1,0,1:2:0:0:
248,53,91492,1,0,1:2:0:0:
239,36,91562,1,0,1:2:0:0:
213,15,91631,6,0,L|224:89,1,69.3750026464463,6|0,3:2|0:0,0:0:0:0:
153,142,91771,2,0,L|87:105,1,69.3750026464463,2|0,3:2|0:0,0:0:0:0:
63,208,91910,1,2,1:3:0:0:
54,229,91980,1,0,0:0:0:0:
45,250,92050,2,0,L|7:146,1,69.3750026464463,2|0,1:3|0:0,0:0:0:0:
85,8,92190,2,0,P|107:71|130:177,1,138.750005292893,2|2,3:3|1:2,0:0:0:0:
180,249,92399,1,0,0:0:0:0:
204,242,92469,2,0,L|228:176,1,69.3750026464463,2|0,3:3|0:0,0:0:0:0:
346,104,92608,2,0,L|447:129,4,69.3750026464463,2|0|8|4|0,1:2|1:0|0:3|0:3|3:0,0:0:0:0:
487,275,93027,6,0,P|455:289|426:308,1,69.3750026464463,2|0,1:2|0:0,0:0:0:0:
361,369,93166,6,0,P|342:339|320:312,1,69.3750026464463,2|0,1:2|0:0,0:0:0:0:
235,332,93306,2,0,P|210:356|183:378,3,69.3750026464463,2|0|0|0,3:2|3:3|3:0|3:0,0:0:0:0:
89,384,93585,1,2,1:2:0:0:
315,342,93724,1,2,0:3:0:0:
107,271,93864,6,0,P|70:248|22:231,1,78.6250014996529,6|0,3:2|0:0,0:0:0:0:
97,117,94003,2,0,P|116:152|127:190,1,78.6250014996529,2|0,3:2|0:0,0:0:0:0:
190,237,94143,1,2,1:3:0:0:
206,210,94213,1,0,0:0:0:0:
222,189,94283,2,0,P|246:161|352:124,1,138.750005292893,2|2,1:2|3:2,0:0:0:0:
500,163,94562,1,2,1:3:0:0:
477,154,94631,1,0,0:0:0:0:
450,151,94701,2,0,L|428:216,1,69.3750026464463,2|0,3:3|0:0,0:0:0:0:
460,349,94841,6,0,P|464:314|474:281,1,69.3750026464463,2|0,1:2|1:0,0:0:0:0:
349,221,94980,2,0,P|315:229|281:234,3,69.3750026464463,8|4|0|0,0:3|0:3|3:0|3:0,0:0:0:0:
223,317,95259,2,0,P|168:275|101:260,1,138.750005292893,2|4,1:2|3:3,0:0:0:0:
53,62,95539,2,0,P|15:119|5:187,1,138.750005292893,4|4,0:3|0:3,0:0:0:0:
163,327,95817,1,2,1:2:0:0:
159,285,95886,1,0,1:2:0:0:
154,243,95956,1,0,1:2:0:0:
150,200,96027,1,0,1:2:0:0:
128,165,96096,5,6,1:2:0:0:
255,203,96236,1,2,3:2:0:0:
378,99,96376,2,0,L|227:112,1,138.750005292893,2|2,1:2|1:2,0:0:0:0:
341,190,96585,1,0,1:2:0:0:
369,202,96655,5,2,1:2:0:0:
507,144,96794,1,2,1:2:0:0:
295,79,96934,1,2,1:2:0:0:
123,187,97073,1,2,3:3:0:0:
6,124,97352,5,0,3:0:0:0:
0,103,97562,1,0,3:0:0:0:
66,371,97771,5,2,1:2:0:0:
300,326,98190,5,4,3:1:0:0:
429,344,98469,1,10,0:3:0:0:
438,333,98538,1,4,0:3:0:0:
445,322,98608,2,0,P|452:298|453:271,5,27.7499991531372,0|0|8|8|4|4,1:2|0:0|0:3|0:3|0:3|0:3,0:0:0:0:
385,214,99027,5,4,0:3:0:0:
384,199,99096,1,4,0:3:0:0:
381,186,99166,2,0,P|369:163|352:143,5,27.7499991531372,0|0|8|8|4|4,1:2|0:0|0:3|0:3|0:3|0:3,0:0:0:0:
274,155,99585,5,4,0:3:0:0:
261,147,99654,1,4,0:3:0:0:
249,141,99724,2,0,P|224:136|197:138,5,27.7499991531372,0|0|8|8|4|4,1:0|0:0|0:3|0:3|0:3|0:3,0:0:0:0:
140,181,100144,5,4,0:3:0:0:
125,186,100213,1,4,0:3:0:0:
113,191,100283,2,0,P|94:207|79:230,5,27.7499991531372,0|0|8|8|4|4,1:0|0:0|0:3|0:3|0:3|0:3,0:0:0:0:
136,282,100701,5,4,0:3:0:0:
131,297,100771,1,4,0:3:0:0:
128,310,100841,2,0,P|130:334|139:360,5,27.7499991531372,0|0|8|8|4|4,1:0|0:0|0:3|0:3|0:3|0:3,0:0:0:0:
215,356,101259,5,4,0:3:0:0:
226,366,101329,1,4,0:3:0:0:
235,375,101399,2,0,P|258:384|285:387,3,27.7499991531372,0|0|8|8,1:0|0:0|0:3|0:3,0:0:0:0:
353,368,101678,6,0,P|355:324|343:286,1,46.25,6|4,0:3|0:3,0:0:0:0:
460,299,101817,2,0,P|422:275|383:266,1,46.25,6|4,0:3|0:3,0:0:0:0:
356,149,101957,6,0,P|385:181|401:218,1,64.7499980239869,2|0,1:3|0:3,0:0:0:0:
271,264,102096,2,0,P|291:224|300:182,1,64.7499980239869,6|4,0:3|0:3,0:0:0:0:
270,129,102236,5,2,1:2:0:0:
237,98,102306,1,0,1:0:0:0:
179,53,102376,1,0,1:0:0:0:
139,80,102446,1,0,1:0:0:0:
78,47,102515,1,0,1:0:0:0:
16,68,102585,1,0,1:0:0:0:
50,133,102655,1,6,3:2:0:0:
8,149,103073,5,2,3:3:0:0:
50,133,103143,2,0,P|97:129|147:136,1,71.6875005469322,0|0,1:0|3:0,0:0:0:0:
171,259,103283,2,0,P|166:212|173:162,1,71.6875005469322,0|2,1:0|3:3,0:0:0:0:
237,79,103423,6,0,P|231:115|234:151,1,71.6875005469322,0|0,1:0|3:0,0:0:0:0:
270,297,103562,2,0,P|266:250|273:200,1,71.6875005469322,0|2,1:0|3:3,0:0:0:0:
420,187,103702,6,0,P|385:183|349:184,1,71.6875005469322,0|0,1:0|3:0,0:0:0:0:
288,303,103841,2,0,P|284:256|291:206,1,71.6875005469322,0|2,1:0|3:3,0:0:0:0:
247,83,103981,6,0,P|241:119|244:155,1,71.6875005469322,0|0,1:0|3:0,0:0:0:0:
186,274,104121,2,0,P|181:227|188:177,1,71.6875005469322,0|2,1:0|3:3,0:0:0:0:
330,92,104259,6,0,P|324:128|327:164,1,71.6875005469322,0|0,1:0|3:0,0:0:0:0:
380,261,104399,1,0,1:0:0:0:
378,272,104469,1,2,1:2:0:0:
376,283,104538,1,0,1:0:0:0:
374,294,104609,1,0,1:0:0:0:
372,305,104679,1,0,1:0:0:0:
370,317,104748,1,0,1:0:0:0:
368,328,104818,1,0,1:0:0:0:
366,339,104888,1,6,3:2:0:0:
165,369,105166,5,0,3:3:0:0:
156,363,105236,1,0,3:0:0:0:
147,357,105306,2,0,P|111:355|75:359,1,71.6875005469322,2|0,1:2|0:0,0:0:0:0:
6,295,105445,5,0,3:0:0:0:
14,288,105515,1,0,3:0:0:0:
22,281,105585,2,0,P|57:275|93:275,1,71.6875005469322,2|0,1:2|0:0,0:0:0:0:
181,205,105724,5,0,3:0:0:0:
172,199,105794,1,0,3:0:0:0:
163,193,105864,2,0,P|127:191|91:195,1,71.6875005469322,0|0,1:0|1:0,0:0:0:0:
22,135,106003,5,0,1:0:0:0:
9,115,106073,1,0,1:0:0:0:
413,29,107120,6,0,B|462:66|446:148|403:173|402:158|401:140|363:202|330:252|408:320|497:303|529:202|430:168,1,370,6|0,3:2|0:2,0:0:0:0:
326,122,107538,2,0,P|299:196|364:328,1,222,6|2,3:2|0:2,0:0:0:0:
221,369,107817,2,0,L|264:320,1,46.25,2|2,0:2|0:2,0:0:0:0:
186,334,107957,2,0,L|229:314,3,46.25,2|2|2|2,0:2|0:2|0:2|0:2,0:0:0:0:
99,355,108236,6,0,B|50:318|66:236|109:211|110:226|111:244|149:182|182:132|104:64|15:81|-17:182|82:216,1,370,6|2,3:2|0:2,0:0:0:0:
185,262,108655,2,0,P|211:156|157:63,1,222,6|2,3:2|0:2,0:0:0:0:
291,15,108934,2,0,L|248:64,1,46.25,2|2,0:2|0:2,0:0:0:0:
326,50,109073,2,0,L|283:70,3,46.25,2|2|2|2,0:2|0:2|0:2|0:2,0:0:0:0:
413,29,109352,6,0,B|462:66|446:148|403:173|402:158|401:140|363:202|330:252|408:320|475:371|529:202|427:209,1,370,6|0,3:2|0:2,0:0:0:0:
304,165,109771,2,0,L|73:139,1,222,6|2,3:2|0:2,0:0:0:0:
15,274,110050,2,0,L|-1:215,1,46.25,2|2,0:2|0:2,0:0:0:0:
50,296,110190,2,0,L|68:253,1,46.25,2|2,0:2|0:2,0:0:0:0:
128,337,110329,2,0,L|111:277,1,46.25,2|2,0:2|0:2,0:0:0:0:
192,279,110469,2,0,L|164:326,1,46.25,2|2,0:2|0:2,0:0:0:0:
261,358,110608,5,6,1:3:0:0:
469,317,110748,1,2,3:2:0:0:
397,273,110887,1,0,3:0:0:0:
494,123,111027,2,0,P|487:163|471:200,1,81.4000024841309,6|0,1:3|3:0,0:0:0:0:
283,139,111306,2,0,P|309:166|329:200,1,77.6999976287842,6|0,1:3|3:0,0:0:0:0:
168,317,111585,6,0,L|83:343,5,87.8749976534844,4|0|0|0|0|0,3:2|3:0|3:0|3:0|3:0|3:0,0:0:0:0:
0,192,112003,2,0,L|235:230,1,222,6|0,3:2|0:0,0:0:0:0:
345,271,112283,6,0,L|335:246,1,27.7499991531372,2|0,0:1|0:0,0:0:0:0:
344,67,112701,6,0,L|429:41,5,87.8749976534844,6|0|0|0|0|0,0:2|3:0|3:0|3:0|3:0|3:0,0:0:0:0:
512,192,113120,2,0,L|277:154,1,222,6|0,3:2|0:0,0:0:0:0:
163,105,113399,6,0,B|166:116|166:116|174:121|174:121|177:138,1,37,2|0,0:1|0:0,0:0:0:0:
406,364,113817,6,0,L|381:280,5,87.8749976534844,6|0|0|0|0|0,0:2|3:0|3:0|3:0|3:0|3:0,0:0:0:0:
299,111,114236,2,0,L|261:346,1,222,6|0,3:2|0:0,0:0:0:0:
130,383,114515,6,0,B|154:338|177:281|165:192|41:144|-12:169|-60:250|24:293,1,388.499988143921,2|0,0:1|0:2,0:0:0:0:
172,239,115073,5,6,1:3:0:0:
95,61,115213,1,2,3:2:0:0:
178,96,115352,1,0,3:0:0:0:
349,0,115492,6,0,P|315:37|274:88,1,92.5,6|0,1:3|3:0,0:0:0:0:
416,173,115771,2,0,P|391:211|369:252,1,92.5,6|0,1:3|3:0,0:0:0:0:
482,380,116050,1,6,0:2:0:0:
0,271,120655,5,6,3:2:0:0:
76,288,120794,1,0,3:0:0:0:
145,324,120934,1,2,1:2:0:0:
152,322,121213,1,2,1:2:0:0:
159,320,121492,1,2,1:2:0:0:
166,318,121771,5,2,3:2:0:0:
210,253,121910,1,0,3:0:0:0:
282,222,122050,1,2,1:2:0:0:
291,226,122329,1,2,1:2:0:0:
300,230,122608,1,2,1:2:0:0:
309,234,122887,5,2,3:2:0:0:
350,301,123027,1,0,3:0:0:0:
418,338,123166,1,2,1:2:0:0:
437,329,123445,1,2,1:2:0:0:
456,320,123724,1,2,1:2:0:0:
475,311,124003,5,2,3:2:0:0:
506,238,124143,1,0,3:0:0:0:
500,159,124283,1,2,1:2:0:0:
415,26,124562,1,2,1:2:0:0:
156,53,124841,5,6,1:2:0:0:
109,331,124980,1,6,3:2:0:0:
0,266,125259,5,8,3:3:0:0:
23,235,125329,1,8,0:3:0:0:
53,210,125399,2,0,L|126:237,1,46.25,8|8,0:3|0:3,0:0:0:0:
110,190,125538,2,0,L|170:241,1,46.25,0|0,3:0|3:0,0:0:0:0:
171,191,125678,2,0,L|209:259,1,46.25,4|4,0:3|0:3,0:0:0:0:
229,212,125817,2,0,L|242:289,1,46.25,0|0,3:0|3:0,0:0:0:0:
314,306,125957,6,0,L|327:383,1,46.25,6|0,1:2|0:0,0:0:0:0:
478,219,126096,1,6,3:2:0:0:
467,57,126376,5,8,3:3:0:0:
424,67,126446,1,8,0:3:0:0:
389,93,126516,2,0,P|381:129|370:182,1,50.8750015525818,8|8,0:3|0:3,0:0:0:0:
334,146,126656,2,0,P|334:183|336:237,1,50.8750015525818,0|0,3:0|0:0,0:0:0:0:
293,210,126795,2,0,P|301:246|315:298,1,50.8750015525818,4|4,0:3|0:3,0:0:0:0:
267,281,126935,2,0,P|283:314|309:362,1,50.8750015525818,0|0,3:0|0:0,0:0:0:0:
110,290,127073,6,0,P|126:256|152:208,1,50.8750015525818,6|0,1:2|0:0,0:0:0:0:
12,120,127213,1,6,3:2:0:0:
111,24,127492,5,8,3:3:0:0:
150,50,127562,1,8,0:3:0:0:
182,84,127632,2,0,P|183:119|169:177,1,55.4999983062745,8|8,0:3|0:3,0:0:0:0:
227,140,127771,2,0,P|221:174|198:229,1,55.4999983062745,0|0,3:0|3:0,0:0:0:0:
262,203,127911,2,0,P|250:236|217:285,1,55.4999983062745,4|4,0:3|0:3,0:0:0:0:
285,271,128050,2,0,P|268:301|227:345,1,55.4999983062745,0|0,3:0|3:0,0:0:0:0:
86,228,128190,6,0,P|110:215|137:207,1,55.4999983062745,6|0,1:2|0:0,0:0:0:0:
326,94,128329,1,6,3:2:0:0:
482,110,128608,5,8,3:3:0:0:
493,172,128677,1,8,0:3:0:0:
495,233,128748,2,0,P|482:252|413:286,1,60.1249972476961,8|8,0:3|0:3,0:0:0:0:
431,321,128887,2,0,P|408:324|336:297,1,60.1249972476961,0|0,3:0|3:0,0:0:0:0:
322,334,129027,2,0,P|303:319|274:248,1,60.1249972476961,4|4,0:3|0:3,0:0:0:0:
238,264,129166,2,0,P|236:241|268:171,1,60.1249972476961,0|0,3:0|3:0,0:0:0:0:
204,60,129306,1,6,1:2:0:0:
131,225,131817,6,0,P|90:226|56:298,1,117.937502249479,6|0,3:2|0:2,0:0:0:0:
161,351,131992,2,0,P|196:307|178:254,1,117.937502249479,6|0,3:2|0:2,0:0:0:0:
128,212,132166,6,0,P|91:192|9:213,1,117.937502249479,6|0,3:2|0:2,0:0:0:0:
268,329,132341,2,0,P|244:276|193:251,1,117.937502249479,6|0,3:2|0:2,0:0:0:0:
131,199,132515,6,0,P|103:168|19:136,1,117.937502249479,6|0,3:2|0:2,0:0:0:0:
316,277,132690,2,0,P|265:248|207:243,1,117.937502249479,6|0,3:2|0:2,0:0:0:0:
139,189,132864,6,0,P|130:148|95:71,1,117.937502249479,6|0,3:2|0:2,0:0:0:0:
327,190,133038,2,0,P|270:205|218:232,1,117.937502249479,6|0,3:2|0:2,0:0:0:0:
262,81,133213,6,0,L|115:303,1,235.875004498959,6|0,3:2|0:0,0:0:0:0:
132,277,133910,6,0,B|139:328|94:373|17:330|-15:230|76:163,1,258.999992095948,6|0,3:2|3:2,0:0:0:0:
162,0,134329,2,0,L|181:131,1,129.499996047974,0|8,1:2|0:3,0:0:0:0:
245,211,134538,1,8,0:3:0:0:
240,226,134608,1,4,0:3:0:0:
317,352,134748,2,0,P|364:308|424:283,1,129.499996047974,0|4,1:0|0:3,0:0:0:0:
49,188,135027,6,0,L|303:237,1,258.999992095948,6|0,3:2|3:2,0:0:0:0:
472,73,135445,2,0,L|406:195,1,129.499996047974,0|8,1:2|0:3,0:0:0:0:
334,302,135655,2,0,L|315:239,1,64.7499980239869,8|8,0:3|0:3,0:0:0:0:
288,157,135794,1,8,0:3:0:0:
302,136,135864,1,4,0:3:0:0:
281,122,135934,1,4,0:3:0:0:
282,102,136003,1,4,0:3:0:0:
270,93,136073,1,4,0:3:0:0:
264,79,136143,6,0,B|230:56|171:86|186:100|195:107|111:144|20:102|30:24|102:32,1,258.999992095948,6|0,3:2|3:2,0:0:0:0:
0,218,136562,2,0,L|74:189,3,64.7499980239869,8|8|4|4,0:3|0:3|0:3|0:3,0:0:0:0:
88,241,136841,5,2,1:2:0:0:
138,252,136910,1,0,1:0:0:0:
190,243,136980,1,0,1:0:0:0:
236,268,137050,1,0,1:0:0:0:
285,248,137120,1,0,1:0:0:0:
325,282,137190,1,0,1:0:0:0:
379,261,137259,5,2,3:3:0:0:
468,13,137538,5,2,3:3:0:0:
445,339,137817,5,2,3:3:0:0:
375,55,138097,5,2,3:3:0:0:
333,383,138376,2,0,P|296:254|241:129,1,258.999992095948,6|0,3:2|3:2,0:0:0:0:
58,17,138794,2,0,P|44:79|20:140,1,129.499996047974,0|2,1:0|0:3,0:0:0:0:
195,320,139073,1,2,3:2:0:0:
81,281,139213,1,2,0:3:0:0:
137,114,139352,2,0,P|145:176|164:239,1,129.499996047974,2|2,1:2|0:3,0:0:0:0:
283,377,139631,5,0,3:0:0:0:
170,339,139771,1,2,0:3:0:0:
56,301,139910,1,2,1:2:0:0:
129,131,140050,2,0,L|286:105,1,129.499996047974,2|0,0:3|3:0,0:0:0:0:
476,74,140329,2,0,L|348:95,1,129.499996047974,2|0,0:3|1:0,0:0:0:0:
294,185,140608,5,2,0:3:0:0:
492,58,140748,6,0,L|472:185,1,129.499996047974,0|0,3:0|1:0,0:0:0:0:
413,327,141027,1,2,3:2:0:0:
407,312,141097,1,0,0:0:0:0:
398,296,141166,1,2,1:3:0:0:
268,165,141306,6,0,L|226:328,1,129.499996047974,0|0,3:0|1:0,0:0:0:0:
103,346,141585,1,2,3:2:0:0:
115,332,141655,1,0,0:0:0:0:
126,320,141724,1,2,1:3:0:0:
162,128,141864,6,0,L|115:173,1,64.7499980239869,6|0,3:2|0:0,0:0:0:0:
38,230,142004,1,8,0:3:0:0:
23,238,142074,1,4,0:3:0:0:
9,247,142143,1,2,1:3:0:0:
3,74,142283,6,0,L|54:100,1,46.25,2|0,3:3|0:0,0:0:0:0:
221,21,142562,2,0,L|214:76,1,46.25,2|0,3:3|0:0,0:0:0:0:
376,189,142841,6,0,B|316:131|359:38|414:36|414:36|464:59|451:135,1,258.999992095948,6|0,3:2|3:2,0:0:0:0:
492,266,143259,2,0,P|418:240|357:199,1,129.499996047974,0|8,1:2|0:3,0:0:0:0:
276,236,143468,1,8,0:3:0:0:
262,245,143538,1,4,0:3:0:0:
56,305,143678,2,0,P|112:273|173:253,1,129.499996047974,0|4,1:0|0:3,0:0:0:0:
223,0,143957,6,0,L|269:259,1,258.999992095948,6|0,3:2|3:2,0:0:0:0:
438,384,144376,2,0,P|367:326|307:296,1,129.499996047974,0|8,1:2|0:3,0:0:0:0:
182,264,144585,2,0,L|120:249,1,64.7499980239869,0|8,0:0|0:3,0:0:0:0:
34,219,144724,1,8,0:3:0:0:
36,203,144794,1,4,0:3:0:0:
44,190,144864,1,4,0:3:0:0:
9,197,144933,1,4,0:3:0:0:
30,180,145003,1,4,0:3:0:0:
3,166,145073,6,0,B|3:43|142:-2|180:60|151:110,1,258.999992095948,6|0,3:2|3:2,0:0:0:0:
329,139,145492,2,0,P|339:108|352:78,3,64.7499980239869,8|8|4|4,0:3|0:3|0:3|0:3,0:0:0:0:
416,78,145771,5,2,1:2:0:0:
437,124,145840,1,0,1:0:0:0:
462,169,145910,1,0,1:0:0:0:
435,213,145980,1,0,1:0:0:0:
410,258,146050,1,0,1:0:0:0:
398,310,146120,1,0,1:0:0:0:
357,340,146189,5,2,3:3:0:0:
231,124,146469,5,2,3:3:0:0:
39,285,146748,5,2,3:3:0:0:
339,212,147027,5,2,3:3:0:0:
4,60,147306,6,0,P|158:9|255:-1,1,258.999992095948,6|0,3:2|3:2,0:0:0:0:
289,165,147724,1,0,1:0:0:0:
347,27,147864,1,2,0:3:0:0:
512,170,148003,6,0,P|450:135|386:108,1,129.499996047974,2|2,3:2|0:3,0:0:0:0:
264,84,148283,1,2,1:2:0:0:
311,254,148422,1,2,0:3:0:0:
102,222,148562,6,0,P|162:199|225:183,1,129.499996047974,2|2,3:2|0:3,0:0:0:0:
405,217,148841,1,2,1:2:0:0:
298,355,148980,6,0,P|235:337|174:315,1,129.499996047974,2|0,0:3|3:0,0:0:0:0:
0,157,149259,6,0,P|129:147|256:185,1,258.999992095948,2|2,0:3|0:3,0:0:0:0:
365,128,149678,1,8,3:3:0:0:
433,293,149817,1,6,3:3:0:0:
476,142,149957,2,0,L|514:7,1,129.499996047974,0|2,1:0|3:3,0:0:0:0:
284,100,150236,5,8,3:3:0:0:
469,166,150376,1,6,3:3:0:0:
327,30,150515,5,8,1:3:0:0:
405,213,150655,1,2,3:3:0:0:
208,64,150794,6,0,P|131:36|51:17,2,129.499996047974,8|4|0,0:3|0:3|0:0,0:0:0:0:
84,173,151213,6,0,P|33:194|-16:219,1,92.5,2|0,3:3|0:0,0:0:0:0:
214,337,151492,2,0,P|161:321|108:309,1,92.5,2|0,3:3|0:0,0:0:0:0:
408,359,151771,6,0,B|403:384|362:421|280:392|260:207|399:141,1,296,6|0,2:2|2:2,0:0:0:0:
477,214,152190,2,0,L|449:147,1,64.7499980239869,2|0,1:2|0:0,0:0:0:0:
499,92,152329,2,0,L|460:157,1,64.7499980239869,0|0,2:0|0:0,0:0:0:0:
362,74,152469,6,0,P|327:78|296:95,1,64.7499980239869,4|0,1:3|0:0,0:0:0:0:
249,169,152608,6,0,P|214:165|183:148,1,64.7499980239869,4|0,1:3|0:0,0:0:0:0:
135,71,152748,6,0,P|100:75|69:92,1,64.7499980239869,4|0,1:3|0:0,0:0:0:0:
0,240,152887,6,0,B|12:191|136:169|233:266|258:344,1,296,6|0,2:2|2:2,0:0:0:0:
0,346,153306,2,0,P|63:324|133:322,1,129.499996047974,2|0,1:2|2:0,0:0:0:0:
257,361,153585,1,8,0:3:0:0:
296,320,153655,1,8,0:3:0:0:
357,308,153725,1,4,0:3:0:0:
402,306,153794,1,4,0:3:0:0:
443,315,153864,1,4,0:3:0:0:
476,331,153934,1,4,0:3:0:0:
489,343,154003,6,0,B|556:265|549:192|541:128|447:83|401:188,1,296,6|0,3:2|3:2,0:0:0:0:
266,12,154422,2,0,P|287:67|306:153,1,129.499996047974,2|0,1:2|2:0,0:0:0:0:
186,366,154701,5,4,1:3:0:0:
70,255,154841,1,4,1:3:0:0:
211,131,154980,1,4,1:3:0:0:
72,40,155120,6,0,L|208:373,1,346.875013232232,6|0,3:2|0:0,0:0:0:0:
342,338,155608,1,8,0:3:0:0:
346,325,155678,1,8,0:3:0:0:
350,312,155747,1,8,0:3:0:0:
354,299,155817,1,4,0:3:0:0:
359,286,155887,1,4,0:3:0:0:
363,273,155956,1,4,0:3:0:0:
367,260,156026,1,4,0:3:0:0:
340,268,156096,1,2,1:3:0:0:
494,173,156376,5,0,0:0:0:0:
486,188,156515,2,0,P|444:157|395:-10,1,231.25,2|0,3:3|0:0,0:0:0:0:
484,22,156794,5,0,0:0:0:0:
487,34,156934,2,0,P|435:135|334:186,1,231.25,2|0,3:3|0:0,0:0:0:0:
240,213,157213,5,0,0:0:0:0:
247,231,157352,2,0,P|180:167|165:18,1,231.25,2|0,3:3|0:0,0:0:0:0:
278,67,157631,5,0,0:0:0:0:
286,80,157771,2,0,P|220:149|61:206,1,231.25,2|0,3:3|0:0,0:0:0:0:
1,74,158050,5,0,0:0:0:0:
13,55,158190,2,0,L|84:298,1,231.25,2|8,3:3|0:3,0:0:0:0:
153,349,158399,1,8,0:3:0:0:
171,355,158469,1,0,1:3:0:0:
199,357,158538,1,0,1:3:0:0:
253,349,158608,5,6,3:2:0:0:
68,272,160701,6,0,P|42:224|-1:191,2,74,0|0|0,0:0|0:0|0:0,0:0:0:0:
160,281,161120,6,0,P|173:228|164:174,1,74,2|0,0:3|0:0,0:0:0:0:
220,346,161399,2,0,P|265:316|295:271,1,74,2|0,0:3|0:0,0:0:0:0:
373,322,161678,6,0,P|382:286|382:250,1,74,2|0,0:3|0:0,0:0:0:0:
261,215,161957,2,0,P|292:196|317:169,1,74,2|0,0:3|0:0,0:0:0:0:
205,78,162236,2,0,P|241:85|278:82,1,74,2|0,0:3|0:0,0:0:0:0:
367,18,162515,1,2,0:3:0:0:
454,66,162655,1,0,3:0:0:0:
460,60,162794,1,2,0:3:0:0:
485,174,162934,6,0,P|466:217|430:258,2,74,0|0|0,3:3|0:0|0:0,0:0:0:0:
446,333,163352,2,0,P|412:317|375:312,1,74,2|0,0:3|0:0,0:0:0:0:
331,215,163631,6,0,P|290:228|246:229,1,74,2|0,0:3|0:0,0:0:0:0:
172,362,163910,2,0,P|198:337|231:319,1,74,2|0,0:3|0:0,0:0:0:0:
81,348,164190,6,0,P|51:326|27:299,1,74,2|0,0:3|0:0,0:0:0:0:
142,185,164469,2,0,P|127:226|126:270,1,74,2|0,0:3|0:0,0:0:0:0:
60,123,164748,6,0,P|40:84|31:41,2,74,2|0|2,0:3|0:0|0:3,0:0:0:0:
171,0,165166,2,0,P|156:41|158:103,1,83.2499974594117,2|0,3:3|0:0,0:0:0:0:
187,158,165445,1,2,0:2:0:0:
271,86,165585,6,0,P|316:67|365:65,1,83.2499974594117,2|0,0:2|0:0,0:0:0:0:
451,143,165864,1,2,0:2:0:0:
301,251,166003,6,0,P|325:208|363:177,1,83.2499974594117,2|0,3:3|0:0,0:0:0:0:
330,347,166283,5,2,3:3:0:0:
197,255,166422,6,0,P|153:240|107:241,1,92.5,2|0,0:2|0:0,0:0:0:0:
320,359,166701,1,0,0:0:0:0:
500,281,166841,6,0,P|456:266|410:267,1,92.5,2|2,0:2|0:2,0:0:0:0:
207,158,167120,2,0,P|249:182|287:232,1,92.5,2|0,0:2|0:0,0:0:0:0:
74,350,167399,6,0,B|12:315|12:315|-20:331,1,106.375,0|0,0:2|0:0,0:0:0:0:
55,379,169073,1,0,3:0:0:0:
65,377,169143,1,0,3:0:0:0:
76,377,169213,2,0,L|141:365,1,59.2,6|0,1:2|0:0,0:0:0:0:
256,384,169631,6,0,B|309:278|456:190|511:196|552:285|441:322,1,370,6|0,3:2|0:2,0:0:0:0:
377,168,170050,2,0,B|402:136|441:127|471:179|468:237|404:293,1,166.499994918823,6|0,3:2|3:0,0:0:0:0:
321,269,170259,1,0,3:0:0:0:
299,265,170329,6,0,L|248:255,1,51.8,2|0,3:3|0:0,0:0:0:0:
134,226,170887,5,8,0:3:0:0:
145,237,170957,2,0,P|162:270|169:314,2,46.25,8|0|0,0:3|0:0|0:0,0:0:0:0:
53,185,171166,5,8,0:3:0:0:
37,189,171236,2,0,P|5:209|-22:243,2,46.25,8|0|0,0:3|0:0|0:0,0:0:0:0:
127,120,171445,5,8,0:3:0:0:
142,120,171515,2,0,P|176:134|209:163,2,46.25,8|0|0,0:3|0:0|0:0,0:0:0:0:
10,52,171724,2,0,L|158:25,1,138.75,8|4,0:3|0:3,0:0:0:0:
157,14,172003,6,0,P|227:49|295:66,1,83.2499974594117,0|0,1:0|0:0,0:0:0:0:
348,111,172143,2,0,P|423:88|484:54,1,83.2499974594117,2|0,3:3|0:0,0:0:0:0:
353,124,172422,6,0,P|394:114|433:99,1,83.2499974594117,2|0,3:3|0:0,0:0:0:0:
491,217,172701,5,4,3:3:0:0:
482,210,172771,1,0,3:2:0:0:
420,250,172841,5,4,3:3:0:0:
411,243,172911,1,0,3:2:0:0:
349,283,172980,6,0,L|233:251,1,92.5,4|2,3:3|0:2,0:0:0:0:
134,341,173352,1,2,0:2:0:0:
0,309,173585,1,2,0:2:0:0:
24,339,173957,6,0,B|-4:309|-63:198|-9:56|57:202|117:82|-2:29|126:288|26:72|214:195|-10:90|-60:87|305:-45|378:-35|153:57|258:142|290:177|158:-22|300:-3|366:22|399:60|350:79,1,629.000011997223,6|12,1:2|0:3,0:0:0:0:
304,384,175353,6,0,P|276:295|304:207,1,166.499994918823,6|2,3:2|0:2,0:0:0:0:
468,128,175631,1,2,1:2:0:0:
491,186,175701,1,0,0:0:0:0:
512,237,175771,2,0,P|429:221|376:151,1,148,2|0,1:2|3:0,0:0:0:0:
318,0,176050,1,2,1:2:0:0:
310,16,176119,1,0,0:0:0:0:
304,31,176190,2,0,P|263:51|201:102,1,74,2|0,1:3|0:0,0:0:0:0:
155,32,176329,6,0,P|138:64|116:94,1,74,0|0,1:0|1:0,0:0:0:0:
33,138,176468,2,0,P|28:174|16:209,3,74,8|8|6|4,0:3|0:3|0:3|0:3,0:0:0:0:
0,337,176747,2,0,P|68:278|186:247,1,148,6|2,1:2|3:2,0:0:0:0:
264,55,177026,2,0,P|273:166|223:263,1,222,8|0,0:3|0:0,0:0:0:0:
387,369,177306,1,2,1:2:0:0:
376,344,177375,1,0,1:2:0:0:
379,331,177445,1,0,1:2:0:0:
361,311,177515,1,0,1:2:0:0:
369,280,177585,6,0,L|473:245,1,74,6|0,3:2|0:0,0:0:0:0:
512,211,177724,2,0,L|446:174,1,74,2|0,2:2|0:0,0:0:0:0:
399,76,177864,1,2,2:2:0:0:
408,55,177934,1,0,0:0:0:0:
417,34,178003,2,0,L|313:72,1,74,2|0,1:2|1:2,0:0:0:0:
185,16,178143,6,0,L|223:159,1,148,2|0,3:2|1:0,0:0:0:0:
121,238,178352,1,0,0:0:0:0:
117,255,178422,2,0,L|186:230,1,74,2|0,3:3|0:0,0:0:0:0:
111,139,178562,2,0,L|39:121,4,74,2|0|8|4|0,1:2|1:0|0:3|0:3|3:0,0:0:0:0:
177,331,178980,6,0,P|250:346|296:369,1,74,2|0,1:2|0:0,0:0:0:0:
347,305,179120,6,0,P|328:273|304:244,1,74,2|0,1:2|0:0,0:0:0:0:
449,196,179259,2,0,P|438:269|418:318,3,74,2|0|0|0,3:2|3:3|3:0|3:0,0:0:0:0:
512,304,179538,1,2,1:2:0:0:
397,121,179677,1,2,0:3:0:0:
509,47,179817,6,0,P|496:86|475:122,1,83.2499974594117,6|0,3:2|0:0,0:0:0:0:
321,90,179957,2,0,P|311:49|292:12,1,83.2499974594117,2|0,3:2|0:0,0:0:0:0:
196,84,180096,1,2,1:2:0:0:
191,104,180166,1,0,0:0:0:0:
186,121,180236,2,0,P|219:145|341:166,1,148,2|2,1:2|3:2,0:0:0:0:
376,326,180515,1,2,1:2:0:0:
355,337,180584,1,0,0:0:0:0:
334,348,180655,2,0,L|264:320,1,74,2|0,0:3|0:0,0:0:0:0:
165,313,180794,6,0,P|161:276|150:241,1,74,0|0,1:0|1:0,0:0:0:0:
65,316,180933,2,0,P|34:297|-2:280,3,74,8|8|4|4,0:3|0:3|0:3|0:3,0:0:0:0:
58,198,181212,2,0,P|36:115|0:61,1,148,6|8,1:2|0:3,0:0:0:0:
211,0,181492,2,0,L|176:157,1,148,4|4,0:3|0:3,0:0:0:0:
269,246,181770,1,2,1:2:0:0:
314,212,181841,1,0,1:2:0:0:
368,214,181910,1,0,1:2:0:0:
419,235,181980,1,0,1:2:0:0:
448,182,182050,6,0,P|472:258|516:318,1,148,6|2,1:2|3:2,0:0:0:0:
393,357,182329,1,2,1:2:0:0:
256,341,182468,5,0,3:0:0:0:
246,348,182538,1,0,3:0:0:0:
238,357,182608,1,2,3:3:0:0:
348,289,182747,5,2,1:2:0:0:
199,251,182887,5,0,3:0:0:0:
184,254,182957,1,0,3:0:0:0:
172,258,183027,1,2,3:3:0:0:
333,201,183166,5,2,1:2:0:0:
189,139,183306,5,0,3:0:0:0:
171,136,183376,1,0,3:0:0:0:
154,133,183445,1,2,3:3:0:0:
358,116,183585,5,2,1:2:0:0:
239,36,183724,5,0,3:0:0:0:
222,22,183794,1,0,3:0:0:0:
206,9,183864,1,2,3:3:0:0:
422,41,184003,5,2,1:2:0:0:
97,78,184143,5,6,3:2:0:0:
1,291,184562,1,2,0:3:0:0:
443,355,185120,1,2,0:3:0:0:
512,159,185399,5,6,1:2:0:0:
468,308,185538,2,0,B|421:353|369:271|367:185|446:155,1,194.249994071961,2|0,3:2|3:0,0:0:0:0:
257,25,185817,2,0,P|348:72|371:100,1,120.249994495392,2|0,1:2|3:0,0:0:0:0:
179,236,186096,2,0,P|277:208|313:213,1,120.249994495392,2|0,1:2|0:0,0:0:0:0:
443,355,186376,6,0,P|345:318|131:275,1,314.500005998612,4|2,3:1|0:2,0:0:0:0:
70,50,186794,2,0,B|65:33|107:16|140:52|123:102|84:152,1,138.750005292893,6|0,1:2|0:0,0:0:0:0:
0,315,187073,2,0,P|32:300|238:248,1,235.875004498959,6|0,1:2|0:0,0:0:0:0:
354,264,187352,1,8,0:3:0:0:
395,278,187422,1,8,0:3:0:0:
432,303,187492,2,0,P|472:253|521:233,1,87.8749976534844,4|4,0:3|0:3,0:0:0:0:
473,384,187631,5,6,1:2:0:0:
372,141,187771,2,0,L|422:395,1,194.249994071961,2|0,3:2|1:0,0:0:0:0:
196,352,188050,2,0,L|323:288,1,120.249994495392,2|0,3:3|0:0,0:0:0:0:
49,259,188329,2,0,L|98:125,1,120.249994495392,2|0,3:3|0:0,0:0:0:0:
251,0,188608,6,0,B|287:43|293:111|293:111|280:170|235:226,1,235.875004498959,4|0,3:1|0:0,0:0:0:0:
179,102,188887,2,0,L|278:125,1,78.6250014996529,2|0,0:2|0:0,0:0:0:0:
397,44,189027,2,0,P|398:98|374:170,1,120.249994495392,4|0,1:3|3:0,0:0:0:0:
476,275,189306,2,0,P|406:302|350:363,1,120.249994495392,4|0,1:3|3:0,0:0:0:0:
230,384,189585,2,0,P|171:336|90:318,1,120.249994495392,4|0,1:3|3:0,0:0:0:0:
41,352,189794,1,0,3:0:0:0:
50,369,189864,6,0,P|50:308|37:269,1,97.1249970359803,4|0,1:3|0:0,0:0:0:0:
0,157,190003,2,0,P|0:218|13:257,1,97.1249970359803,2|0,3:3|0:0,0:0:0:0:
235,22,190283,6,0,P|168:51|121:106,1,120.249994495392,2|0,3:3|0:0,0:0:0:0:
362,194,190562,2,0,P|332:260|335:333,1,120.249994495392,2|0,3:3|0:0,0:0:0:0:
442,357,190841,5,6,3:2:0:0:
206,315,191050,1,6,3:2:0:0:
491,273,191259,5,6,3:2:0:0:
209,146,191469,1,6,3:2:0:0:
512,96,191678,5,6,3:2:0:0:
287,53,191887,1,6,3:2:0:0:
341,322,192794,6,0,B|337:336|337:336|333:348|331:354|331:354|329:360|328:370|328:370|323:384,1,64.7499980239869,6|0,3:3|0:0,0:0:0:0:
