osu file format v14

[General]
AudioFilename: audio.mp3
AudioLeadIn: 0
PreviewTime: 57027
Countdown: 0
SampleSet: Soft
StackLeniency: 0.3
Mode: 0
LetterboxInBreaks: 1
WidescreenStoryboard: 1

[Editor]
Bookmarks: 13494,21169,22285,26750,31215,35681,40146,44610,49076,51448,53541,58006,80471,84936,89401,98192,102657,107122,116053,120657,124983,129587,131820,133913,156378,160704,169634,175355,184146,190843
DistanceSpacing: 1.3
BeatDivisor: 4
GridSize: 32
TimelineZoom: 1.85

[Metadata]
Title:Tenohira de odoru
TitleUnicode:掌で踊る
Artist:sokoninaru
ArtistUnicode:そこに鳴る
Creator:Smokeman
Version:Celektus' Virtuoso
Source:
Tags:ゼロ zero KOGA RECORDS j-pop j-rock japanese metal alternative indie rock math-rock celektus knightc0re knightcore
BeatmapID:2060873
BeatmapSetID:902587

[Difficulty]
HPDrainRate:8
CircleSize:4
OverallDifficulty:9
ApproachRate:9.6
SliderMultiplier:1.8
SliderTickRate:1

[Events]
//Background and Video events
0,0,"TenohiraBG.jpg",0,0
//Break Periods
2,44817,48515
2,116259,120096
//Storyboard Layer 0 (Background)
//Storyboard Layer 1 (Fail)
//Storyboard Layer 2 (Pass)
//Storyboard Layer 3 (Foreground)
//Storyboard Layer 4 (Overlay)
//Storyboard Sound Samples

[TimingPoints]
97,279.06976744186,4,2,1,60,1,0
97,-66.6666666666667,4,2,1,60,0,0
306,-66.6666666666667,4,2,1,5,0,0
376,-153.846153846153,4,2,1,30,0,0
4562,-66.6666666666667,4,2,1,60,0,0
5190,-66.6666666666667,4,2,1,5,0,0
5259,-66.6666666666667,4,2,1,40,0,0
6794,-66.6666666666667,4,2,1,60,0,0
7492,-100,4,2,1,50,0,0
9027,-100,4,2,1,60,0,0
11259,-76.9230769230769,4,2,1,60,0,0
12655,-1000,4,2,1,60,0,0
13213,-200,4,2,1,60,0,0
13492,-66.6666666666667,4,2,1,70,0,0
22283,-74.0740740740741,4,2,1,70,0,0
24515,-86.9565217391304,4,2,1,70,0,0
25771,-86.9565217391304,4,2,1,40,0,0
26469,-66.6666666666667,4,2,1,60,0,0
26678,-66.6666666666667,4,2,1,5,0,0
26748,-200,4,2,1,20,0,0
30794,-66.6666666666667,4,2,1,50,0,0
31143,-66.6666666666667,4,2,1,5,0,0
31213,-80,4,2,1,60,0,0
49073,-80,4,2,1,60,0,0
53538,-74.0740740740741,4,2,1,70,0,0
55771,-86.9565217391304,4,2,1,60,0,0
57027,-86.9565217391304,4,2,1,40,0,0
57306,-347.490347490347,4,2,1,40,0,0
58003,-66.6666666666667,4,2,1,80,0,1
61352,-66.6666666666667,4,2,1,80,0,0
62469,-66.6666666666667,4,2,1,80,0,1
66376,-66.6666666666667,4,2,1,80,0,0
66934,-66.6666666666667,4,2,1,80,0,1
70283,-66.6666666666667,4,2,1,80,0,0
71399,-66.6666666666667,4,2,1,80,0,1
75306,-66.6666666666667,4,2,1,80,0,0
75864,-66.6666666666667,4,2,1,80,0,1
80190,-66.6666666666667,4,2,1,80,0,0
80469,-66.6666666666667,4,2,1,80,0,1
82701,-200,4,2,1,50,0,1
84864,-200,4,2,1,5,0,1
84934,-133.333333333333,4,2,1,40,0,0
87027,-133.333333333333,4,2,1,5,0,0
89120,-133.333333333333,4,2,1,60,0,0
89399,-66.6666666666667,4,2,1,70,0,0
98190,-74.074074074074,4,2,1,60,0,0
106422,-200,4,2,1,40,0,0
107120,-66.6666666666667,4,2,1,70,0,0
107469,-66.6666666666667,4,2,1,5,0,0
107538,-66.6666666666667,4,2,1,70,0,0
107748,-66.6666666666667,4,2,1,5,0,0
107817,-66.6666666666667,4,2,1,70,0,0
108585,-66.6666666666667,4,2,1,5,0,0
108655,-66.6666666666667,4,2,1,70,0,0
108934,-66.6666666666667,4,2,1,70,0,0
109701,-66.6666666666667,4,2,1,5,0,0
109771,-66.6666666666667,4,2,1,70,0,0
109980,-66.6666666666667,4,2,1,5,0,0
110050,-66.6666666666667,4,2,1,70,0,0
111585,-66.6666666666667,4,2,1,70,0,0
112283,-399.999999999997,4,2,1,70,0,0
112701,-66.6666666666667,4,2,1,70,0,0
113399,-399.999999999997,4,2,1,70,0,0
113817,-66.6666666666667,4,2,1,70,0,0
114515,-74.0740740740741,4,2,1,70,0,0
120655,-100,4,2,1,40,0,0
124841,-76.9230769230769,4,2,1,60,0,0
126096,-71.4285714285714,4,2,1,60,0,0
127213,-66.6666666666667,4,2,1,60,0,0
128329,-62.5,4,2,1,60,0,0
129585,-200,4,2,1,30,0,0
131817,-66.6666666666667,4,2,1,70,0,0
131922,-66.6666666666667,4,2,1,5,0,0
131992,-66.6666666666667,4,2,1,70,0,0
132096,-66.6666666666667,4,2,1,5,0,0
132166,-66.6666666666667,4,2,1,70,0,0
132271,-66.6666666666667,4,2,1,5,0,0
132341,-66.6666666666667,4,2,1,70,0,0
132445,-66.6666666666667,4,2,1,5,0,0
132515,-66.6666666666667,4,2,1,70,0,0
132620,-66.6666666666667,4,2,1,5,0,0
132690,-66.6666666666667,4,2,1,70,0,0
132794,-66.6666666666667,4,2,1,5,0,0
132864,-66.6666666666667,4,2,1,70,0,0
132969,-66.6666666666667,4,2,1,5,0,0
133038,-66.6666666666667,4,2,1,70,0,0
133143,-66.6666666666667,4,2,1,5,0,0
133213,-178.571428571429,4,2,1,70,0,0
133492,-178.571428571429,4,2,1,5,0,0
133910,-66.6666666666667,4,2,1,80,0,1
137259,-66.6666666666667,4,2,1,80,0,0
138376,-66.6666666666667,4,2,1,80,0,1
142283,-66.6666666666667,4,2,1,80,0,0
142841,-66.6666666666667,4,2,1,80,0,1
146190,-66.6666666666667,4,2,1,80,0,0
147306,-66.6666666666667,4,2,1,80,0,1
151213,-66.6666666666667,4,2,1,80,0,0
151771,-66.6666666666667,4,2,1,80,0,1
158608,-200,4,2,1,80,0,1
160631,-200,4,2,1,5,0,1
160701,-133.333333333333,4,2,1,50,0,0
165166,-105.263157894737,4,2,1,50,0,0
166283,-86.9565217391303,4,2,1,50,0,0
167399,-400,4,2,1,50,0,0
169073,-400,4,2,1,70,0,0
169631,-66.6666666666667,4,2,1,70,0,0
170329,-399.999999999997,4,2,1,70,0,0
170887,-86.9565217391304,4,2,1,70,0,0
172701,-66.6666666666667,4,2,1,100,0,0
173120,-200,4,2,1,20,0,0
173259,-200,4,2,1,5,0,0
173352,-200,4,2,1,20,0,0
173492,-200,4,2,1,5,0,0
173585,-333.333333333333,4,2,1,20,0,0
173957,-399.999999999997,4,2,1,80,0,0
174027,-399.999999999997,4,2,2,30,0,0
175073,-399.999999999997,4,2,1,60,0,0
175352,-66.6666666666667,4,2,1,70,0,0
184143,-74.074074074074,4,2,1,40,0,0
185399,-74.074074074074,4,2,1,50,0,0
186376,-74.074074074074,4,2,1,70,0,0
189027,-74.074074074074,4,2,1,50,0,0
190003,-74.074074074074,4,2,1,70,0,0
190841,-57.1428571428571,4,2,1,80,0,0
190980,-57.1428571428571,4,2,1,5,0,0
191050,-57.1428571428571,4,2,1,80,0,0
191190,-57.1428571428571,4,2,1,5,0,0
191259,-57.1428571428571,4,2,1,80,0,0
191399,-57.1428571428571,4,2,1,5,0,0
191469,-57.1428571428571,4,2,1,80,0,0
191608,-57.1428571428571,4,2,1,5,0,0
191678,-57.1428571428571,4,2,1,80,0,0
191817,-57.1428571428571,4,2,1,5,0,0
191887,-57.1428571428571,4,3,1,80,0,0
192027,-57.1428571428571,4,3,1,5,0,0
192096,-114.285714285714,4,2,1,30,0,0
192794,-57.1428571428571,4,2,1,80,0,0
192934,-57.1428571428571,4,2,1,5,0,0

[Colours]
Combo1 : 192,192,192
Combo2 : 0,255,255
Combo3 : 128,255,255

[HitObjects]
503,29,97,6,0,B|403:37|403:37|398:34|398:34|299:42,1,202.500007724762,6|0,1:3|0:0,0:0:0:0:
278,71,376,6,0,P|301:88|319:111,1,58.4999973220826,2|0,0:2|0:0,0:0:0:0:
405,129,655,2,0,P|409:157|405:186,1,58.4999973220826,2|0,0:2|0:0,0:0:0:0:
453,259,934,2,0,P|436:281|413:299,1,58.4999973220826,2|0,0:2|0:0,0:0:0:0:
365,384,1213,2,0,P|347:360|324:342,1,58.4999973220826,2|0,0:2|0:0,0:0:0:0:
306,257,1492,2,0,P|277:252|248:256,1,58.4999973220826,2|0,0:2|0:0,0:0:0:0:
176,209,1771,2,0,P|152:226|134:249,1,58.4999973220826,2|0,0:2|0:0,0:0:0:0:
49,268,2050,2,0,P|44:296|48:325,1,58.4999973220826,2|0,0:2|0:0,0:0:0:0:
185,321,2329,6,0,P|188:350|185:379,1,58.4999973220826,2|0,0:2|0:0,0:0:0:0:
34,344,2608,2,0,P|23:317|20:289,1,58.4999973220826,2|0,0:2|0:0,0:0:0:0:
198,301,2887,2,0,P|209:328|213:357,1,58.4999973220826,2|0,0:2|0:0,0:0:0:0:
28,371,3166,2,0,P|10:348|0:321,1,58.4999973220826,2|0,0:2|0:0,0:0:0:0:
232,324,3445,2,0,P|222:297|204:274,1,58.4999973220826,2|0,0:2|0:0,0:0:0:0:
52,250,3724,2,0,P|74:231|91:207,1,58.4999973220826,2|0,0:2|0:0,0:0:0:0:
67,54,4003,2,0,P|91:69|119:78,1,58.4999973220826,2|0,0:2|0:0,0:0:0:0:
257,8,4283,2,0,P|249:36|250:65,1,58.4999973220826,2|0,0:2|1:0,0:0:0:0:
303,173,4492,1,0,1:0:0:0:
303,186,4562,6,0,B|403:194|403:194|408:191|408:191|502:200|502:200|506:130,1,270.000010299683,6|0,1:2|0:0,0:0:0:0:
303,199,4980,2,0,B|403:207|403:207|408:204|408:204|505:212,1,202.500007724762,6|0,1:2|0:0,0:0:0:0:
504,224,5259,5,0,1:2:0:0:
512,302,5399,1,2,1:2:0:0:
434,310,5538,1,0,1:2:0:0:
426,232,5678,1,2,1:2:0:0:
348,240,5817,1,0,1:2:0:0:
356,318,5957,1,2,1:2:0:0:
278,326,6096,1,0,1:2:0:0:
270,248,6236,1,2,1:2:0:0:
192,256,6376,1,0,1:2:0:0:
200,334,6515,1,2,1:2:0:0:
122,341,6655,1,0,1:2:0:0:
270,248,6794,6,0,B|140:237|140:237|128:241|128:241|1:230,1,270.000010299683,6|0,1:2|0:0,0:0:0:0:
269,236,7213,2,0,B|138:224|138:224|127:228|127:228|0:217,1,270.000010299683,6|2,1:2|0:2,0:0:0:0:
22,316,7631,6,2,P|62:295|85:258,1,90,2|0,3:2|0:0,0:0:0:0:
248,216,7910,2,2,P|203:209|162:226,1,90,2|0,3:2|0:0,0:0:0:0:
6,165,8190,2,2,P|37:195|81:206,1,90,2|0,3:2|0:0,0:0:0:0:
171,347,8469,2,2,P|163:303|134:269,1,90,2|0,3:2|0:0,0:0:0:0:
144,102,8748,2,2,P|124:141|127:186,1,90,2|0,3:2|0:0,0:0:0:0:
22,316,9027,5,4,1:3:0:0:
226,164,9166,1,4,1:3:0:0:
20,150,9306,5,0,3:0:0:0:
42,151,9376,1,0,3:0:0:0:
73,132,9445,5,8,0:3:0:0:
95,131,9515,1,8,0:3:0:0:
123,107,9585,5,8,0:3:0:0:
144,102,9655,1,8,0:3:0:0:
151,80,9724,5,0,3:0:0:0:
129,81,9794,1,0,3:0:0:0:
98,62,9864,5,4,0:3:0:0:
76,61,9934,1,4,0:3:0:0:
48,37,10003,5,0,3:0:0:0:
26,38,10073,1,0,3:0:0:0:
0,62,10143,5,0,1:2:0:0:
159,4,10283,1,0,3:3:0:0:
159,4,10422,5,8,0:3:0:0:
181,5,10492,1,8,0:3:0:0:
209,29,10562,5,8,0:3:0:0:
230,34,10631,1,8,0:3:0:0:
253,63,10701,6,0,P|229:99|236:143,1,90,0|2,3:0|0:3,0:0:0:0:
73,132,10980,2,0,P|114:147|133:186,1,90,0|2,3:0|0:3,0:0:0:0:
192,351,11259,5,6,1:2:0:0:
214,247,11399,1,0,3:0:0:0:
236,143,11538,1,0,3:0:0:0:
293,317,11678,5,6,1:2:0:0:
314,213,11817,1,0,3:0:0:0:
336,109,11957,1,0,3:0:0:0:
394,284,12096,5,6,1:2:0:0:
416,180,12236,1,0,3:0:0:0:
438,76,12376,1,8,0:3:0:0:
410,83,12445,1,8,0:3:0:0:
384,92,12515,1,4,3:3:0:0:
360,101,12585,1,4,3:3:0:0:
336,109,12655,5,6,1:3:0:0:
314,213,13213,1,12,0:3:0:0:
88,13,13492,5,6,3:2:0:0:
258,39,13631,1,2,0:2:0:0:
19,64,13771,1,2,1:2:0:0:
173,26,13910,1,2,1:2:0:0:
161,57,13980,1,0,1:0:0:0:
139,82,14050,1,0,3:0:0:0:
7,148,14190,1,2,1:2:0:0:
219,117,14329,1,2,1:3:0:0:
6,148,14469,5,0,1:0:0:0:
29,144,14538,1,0,1:0:0:0:
51,144,14608,1,8,0:3:0:0:
73,149,14678,1,8,0:3:0:0:
94,157,14748,1,6,0:3:0:0:
113,169,14817,1,4,0:3:0:0:
130,184,14887,5,6,1:2:0:0:
139,82,15027,1,2,3:2:0:0:
6,148,15166,2,0,B|16:282,1,135.000005149842,8|4,0:3|0:3,0:0:0:0:
178,384,15445,1,2,1:2:0:0:
180,350,15515,1,0,1:2:0:0:
183,315,15585,1,0,1:2:0:0:
186,283,15655,1,0,1:2:0:0:
188,249,15724,5,6,3:2:0:0:
93,335,15864,1,2,3:2:0:0:
271,384,16003,1,2,1:2:0:0:
194,181,16143,1,2,1:2:0:0:
191,214,16213,1,0,1:2:0:0:
188,249,16283,2,0,L|322:237,1,135.000005149842,2|0,3:2|1:0,0:0:0:0:
512,221,16562,1,2,3:3:0:0:
350,334,16701,5,2,1:2:0:0:
371,326,16771,1,0,1:0:0:0:
389,313,16841,1,8,0:3:0:0:
405,297,16910,1,4,0:3:0:0:
416,278,16980,1,0,3:0:0:0:
423,256,17050,1,0,3:0:0:0:
424,234,17120,5,2,1:2:0:0:
304,82,17259,1,2,1:2:0:0:
322,236,17399,1,2,3:2:0:0:
310,223,17469,1,0,3:3:0:0:
302,209,17538,1,0,3:0:0:0:
297,192,17608,1,0,3:0:0:0:
295,175,17678,2,0,B|358:157|358:157|397:100,1,135.000005149842,2|2,1:2|0:3,0:2:0:0:
512,221,17957,5,6,3:2:0:0:
295,176,18096,1,2,3:2:0:0:
486,129,18236,1,2,1:2:0:0:
493,313,18376,1,2,1:2:0:0:
462,301,18445,1,0,1:0:0:0:
437,279,18515,1,2,3:2:0:0:
376,132,18655,1,2,1:2:0:0:
355,325,18794,1,2,0:3:0:0:
304,82,18934,5,0,1:0:0:0:
281,82,19003,1,0,1:0:0:0:
259,88,19073,1,8,0:3:0:0:
240,99,19143,1,8,0:3:0:0:
223,114,19213,1,4,0:3:0:0:
211,133,19283,1,4,0:3:0:0:
203,154,19352,5,6,1:2:0:0:
185,22,19492,1,8,0:3:0:0:
295,175,19631,2,0,B|256:231|256:231|192:248,1,135.000005149842,4|4,0:3|0:3,0:2:0:0:
106,63,19910,1,2,1:2:0:0:
108,97,19980,1,0,1:2:0:0:
111,132,20050,1,0,1:2:0:0:
114,164,20120,1,0,1:2:0:0:
116,198,20190,5,6,1:2:0:0:
27,104,20329,1,2,3:2:0:0:
203,154,20469,1,2,1:2:0:0:
29,242,20608,1,2,1:2:0:0:
27,276,20678,1,0,1:2:0:0:
24,311,20748,1,2,1:2:0:0:
116,198,20887,1,2,1:2:0:0:
77,384,21027,1,2,1:2:0:0:
258,324,21166,5,2,3:3:0:0:
258,324,21445,1,2,3:3:0:0:
258,324,21724,1,2,3:3:0:0:
258,324,22003,1,2,3:3:0:0:
512,0,22283,6,0,B|501:117|501:117|504:122|504:122|494:241,1,243.000000926971,4|2,3:1|0:2,0:0:0:0:
345,355,22701,2,0,B|399:329|399:329|460:334,1,121.500000463486,6|0,1:2|0:0,0:0:0:0:
504,124,22980,1,6,1:2:0:0:
393,298,23120,1,2,3:2:0:0:
377,121,23259,2,8,L|382:181,1,60.7500002317429,8|8,0:3|0:3,0:3:0:0:
489,301,23399,2,4,L|494:240,1,60.7500002317429,4|4,0:3|0:3,0:3:0:0:
441,44,23538,5,6,1:2:0:0:
309,252,23678,2,0,B|283:198|283:198|288:137,1,121.500000463486,2|0,3:2|1:0,0:0:0:0:
117,0,23957,1,2,3:3:0:0:
117,0,24236,1,2,3:3:0:0:
210,278,24515,6,0,B|108:287|108:287|103:284|103:284|0:293,1,207.000003948212,6|8,3:2|0:3,0:0:0:0:
8,307,24864,1,8,0:3:0:0:
12,322,24934,2,0,L|63:317,1,51.7500009870529
160,235,25073,1,8,0:3:0:0:
157,259,25143,1,8,0:3:0:0:
158,274,25213,2,0,L|209:277,1,51.7500009870529
320,205,25352,1,8,0:3:0:0:
312,231,25422,1,8,0:3:0:0:
310,252,25492,2,0,L|359:264,1,51.7500009870529
492,197,25631,1,8,0:3:0:0:
470,232,25701,1,8,0:3:0:0:
463,256,25771,6,0,L|509:277,1,51.7500009870529,2|0,3:2|0:0,0:0:0:0:
459,271,26050,2,0,L|505:292,1,51.7500009870529,2|0,3:2|0:0,0:0:0:0:
512,327,26469,6,0,B|415:335|415:335|410:332|410:332|310:340,1,202.500007724762,6|0,3:2|0:0,0:0:0:0:
288,320,26748,6,0,P|262:355|222:376,1,90,2|2,0:2|0:2,0:0:0:0:
79,368,27166,2,0,L|123:371,1,45,2|2,0:2|0:2,0:0:0:0:
146,174,27585,2,0,L|101:177,2,45,2|2|0,0:2|0:2|0:0,0:0:0:0:
0,306,28003,6,0,L|7:216,1,90,2|2,0:2|0:2,0:0:0:0:
100,175,28422,2,0,P|74:140|34:119,1,90,2|2,0:2|0:2,0:0:0:0:
98,0,28841,2,0,L|101:44,1,45,2|2,0:2|0:2,0:0:0:0:
193,134,29120,6,0,L|201:41,1,90,2|0,0:2|0:2,0:0:0:0:
299,22,29538,2,0,L|302:66,1,45,2|0,0:2|0:2,0:0:0:0:
272,255,30794,6,0,P|282:143|287:255,1,337.500012874604,2|0,0:2|0:0,0:0:0:0:
193,347,31213,6,0,B|300:356|300:356|306:352|306:352|416:362,1,225,6|0,3:2|3:0,0:0:0:0:
281,199,31631,1,2,1:2:0:0:
433,263,31771,1,0,3:0:0:0:
262,191,31910,1,2,1:2:0:0:
452,271,32050,1,0,3:0:0:0:
247,184,32190,1,2,1:2:0:0:
466,277,32329,1,0,3:0:0:0:
379,85,32469,5,2,1:2:0:0:
247,184,32608,1,0,3:0:0:0:
395,72,32748,1,2,1:2:0:0:
231,197,32887,1,0,3:0:0:0:
408,63,33027,1,2,1:2:0:0:
466,277,33166,1,2,3:2:0:0:
421,54,33306,1,2,1:2:0:0:
231,197,33445,6,0,B|337:187|337:187|343:182|343:182|453:173,1,225,6|0,3:2|3:0,0:0:0:0:
242,44,33864,1,2,1:2:0:0:
104,134,34003,1,0,3:0:0:0:
260,33,34143,1,2,1:2:0:0:
86,145,34283,1,0,3:0:0:0:
273,23,34422,1,2,1:2:0:0:
74,153,34562,1,0,3:0:0:0:
230,197,34701,5,8,0:3:0:0:
203,202,34771,1,8,0:3:0:0:
176,210,34841,1,0,3:0:0:0:
151,222,34910,1,0,3:0:0:0:
127,238,34980,5,4,0:3:0:0:
121,258,35050,1,4,0:3:0:0:
114,277,35120,1,0,3:0:0:0:
104,296,35190,1,0,3:0:0:0:
92,313,35259,5,0,1:0:0:0:
341,384,35399,1,2,3:3:0:0:
341,384,35678,6,0,B|332:277|332:277|336:271|336:271|326:161,1,225,6|0,3:2|3:0,0:0:0:0:
384,51,36096,5,8,0:3:0:0:
382,65,36166,1,8,0:3:0:0:
404,94,36236,5,4,0:3:0:0:
406,109,36306,1,4,0:3:0:0:
384,139,36376,5,8,0:3:0:0:
370,137,36445,1,8,0:3:0:0:
340,159,36515,5,0,3:3:0:0:
326,161,36585,1,0,3:3:0:0:
356,183,36655,5,8,0:3:0:0:
354,197,36724,1,8,0:3:0:0:
376,227,36794,5,4,0:3:0:0:
378,241,36864,1,4,0:3:0:0:
396,271,36934,5,8,0:3:0:0:
398,285,37003,1,8,0:3:0:0:
142,285,37213,5,8,0:3:0:0:
156,283,37283,1,8,0:3:0:0:
186,305,37352,5,4,0:3:0:0:
200,307,37422,1,4,0:3:0:0:
230,285,37492,5,8,0:3:0:0:
228,271,37562,1,8,0:3:0:0:
250,241,37631,5,0,3:3:0:0:
252,227,37701,1,0,3:3:0:0:
230,197,37771,5,8,0:3:0:0:
228,183,37841,1,8,0:3:0:0:
226,169,37910,1,8,0:3:0:0:
224,155,37980,1,8,0:3:0:0:
222,141,38050,5,6,3:2:0:0:
206,29,38190,1,2,0:2:0:0:
121,130,38329,1,2,1:2:0:0:
122,125,38399,1,0,1:3:0:0:
122,118,38469,1,0,1:3:0:0:
123,111,38538,1,0,1:3:0:0:
125,103,38608,1,2,1:2:0:0:
76,20,38748,1,2,1:2:0:0:
125,103,38887,1,2,1:2:0:0:
34,171,39027,1,2,3:2:0:0:
138,227,39166,5,2,1:2:0:0:
133,226,39236,1,0,1:3:0:0:
126,226,39306,1,0,1:3:0:0:
119,225,39376,1,0,1:3:0:0:
111,223,39445,1,2,1:2:0:0:
26,276,39585,1,2,3:2:0:0:
230,197,39724,1,2,1:2:0:0:
103,328,39864,1,2,3:2:0:0:
230,197,40003,1,2,1:2:0:0:
180,380,40143,6,0,B|287:371|287:371|293:375|293:375|401:351,1,225,6|0,3:2|3:0,0:0:0:0:
230,197,40562,1,2,1:2:0:0:
384,252,40701,1,0,3:0:0:0:
210,189,40841,1,2,1:2:0:0:
403,259,40980,1,0,3:0:0:0:
194,183,41120,1,2,1:2:0:0:
418,264,41259,1,0,3:0:0:0:
230,197,41399,5,2,1:2:0:0:
285,43,41538,1,0,3:0:0:0:
222,217,41678,1,2,1:2:0:0:
292,24,41817,1,0,3:0:0:0:
216,233,41957,1,2,1:2:0:0:
73,62,42096,1,2,3:2:0:0:
216,233,42236,1,2,1:2:0:0:
292,24,42376,6,0,B|301:131|301:131|297:137|297:137|319:247,1,225,6|0,3:2|3:0,0:0:0:0:
475,74,42794,1,2,1:2:0:0:
420,228,42934,1,0,3:0:0:0:
483,54,43073,1,2,1:2:0:0:
413,247,43213,1,0,3:0:0:0:
489,38,43352,1,2,1:2:0:0:
408,262,43492,1,0,3:0:0:0:
215,233,43631,5,8,0:3:0:0:
217,260,43701,1,8,0:3:0:0:
226,287,43771,1,8,0:3:0:0:
243,309,43841,1,8,0:3:0:0:
266,325,43910,1,4,0:3:0:0:
293,334,43980,1,4,0:3:0:0:
321,335,44050,1,4,0:3:0:0:
408,262,44190,1,12,0:3:0:0:
184,384,44329,1,4,0:3:0:0:
184,384,44608,5,6,3:2:0:0:
421,9,49073,6,0,B|311:19|311:19|305:15|305:15|198:24,1,225,6|0,3:2|3:0,0:0:0:0:
0,11,49492,2,0,B|55:16|55:16|101:49,1,112.5,2|0,1:2|3:0,0:0:0:0:
224,157,49771,1,4,0:3:0:0:
112,148,49910,1,8,0:3:0:0:
0,138,50050,1,0,1:0:0:0:
44,378,50190,6,0,B|34:268|34:268|38:262|38:262|29:155,1,225,6|0,3:2|3:0,0:0:0:0:
225,285,50608,2,0,B|169:279|169:279|123:246,1,112.5,2|0,1:2|3:0,0:0:0:0:
0,138,50887,1,4,0:3:0:0:
112,148,51027,1,8,0:3:0:0:
225,285,51166,1,2,1:2:0:0:
259,283,51236,1,0,1:2:0:0:
294,280,51306,1,0,1:2:0:0:
326,277,51376,1,0,1:2:0:0:
360,275,51445,5,6,1:2:0:0:
399,179,53120,5,4,1:3:0:0:
112,204,53259,1,4,1:3:0:0:
512,384,53538,6,0,B|501:267|501:267|504:262|504:262|494:143,1,243.000000926971,4|2,3:1|0:2,0:0:0:0:
345,29,53957,2,0,B|399:55|399:55|460:50,1,121.500000463486,6|0,1:2|0:0,0:0:0:0:
504,260,54236,1,6,1:2:0:0:
393,86,54376,1,2,3:2:0:0:
377,263,54515,2,8,L|382:203,1,60.7500002317429,8|8,0:3|0:3,0:3:0:0:
489,83,54655,2,4,L|494:144,1,60.7500002317429,4|4,0:3|0:3,0:3:0:0:
441,340,54794,5,6,1:2:0:0:
309,132,54934,2,0,B|283:186|283:186|288:247,1,121.500000463486,2|0,3:2|1:0,0:0:0:0:
117,384,55213,1,2,3:3:0:0:
117,384,55492,1,2,3:3:0:0:
210,106,55771,6,0,B|108:97|108:97|103:100|103:100|0:91,1,207.000003948212,6|2,3:2|0:2,0:0:0:0:
8,77,56120,1,2,0:2:0:0:
12,62,56190,2,2,L|63:67,1,51.7500009870529,2|0,0:2|0:2,0:2:0:0:
160,149,56329,1,2,0:2:0:0:
157,125,56399,1,2,0:2:0:0:
158,110,56469,2,2,L|209:107,1,51.7500009870529,2|0,0:2|0:2,0:2:0:0:
320,179,56608,1,2,0:2:0:0:
312,153,56678,1,2,0:2:0:0:
310,132,56748,2,2,L|359:120,1,51.7500009870529,2|0,0:2|0:2,0:2:0:0:
492,187,56887,1,2,0:2:0:0:
470,152,56957,1,2,0:2:0:0:
463,128,57027,6,0,L|509:107,1,51.7500009870529,2|0,3:2|0:0,0:0:0:0:
459,113,57306,2,0,L|505:92,1,51.7500009870529,2|0,3:2|0:2,0:0:0:0:
506,91,58003,6,0,B|375:102|375:102|369:107|369:107|237:118,1,270.000010299683,6|0,3:2|3:2,0:0:0:0:
48,0,58422,2,0,B|115:6|115:6|169:45,1,135.000005149842,0|8,1:2|0:3,0:0:0:0:
150,72,58631,1,8,0:3:0:0:
140,104,58701,1,4,0:3:0:0:
141,138,58771,1,4,0:3:0:0:
153,169,58841,1,0,1:0:0:0:
290,202,58980,1,4,0:3:0:0:
54,272,59120,6,0,B|185:283|185:283|191:288|191:288|323:299,1,270.000010299683,6|0,3:2|3:2,0:0:0:0:
512,181,59538,2,0,B|444:187|444:187|390:226,1,135.000005149842,0|8,1:2|0:3,0:0:0:0:
409,253,59748,1,8,0:3:0:0:
419,285,59817,1,4,0:3:0:0:
418,319,59887,1,4,0:3:0:0:
406,350,59957,1,0,1:0:0:0:
270,383,60096,1,4,0:3:0:0:
389,226,60236,6,0,B|258:237|258:237|252:242|252:242|120:253,1,270.000010299683,6|0,3:2|3:2,0:0:0:0:
0,63,60655,1,8,0:3:0:0:
31,63,60724,1,8,0:3:0:0:
63,52,60794,1,4,0:3:0:0:
91,32,60864,1,4,0:3:0:0:
109,4,60934,5,2,1:2:0:0:
105,48,61003,1,0,1:0:0:0:
101,93,61073,1,0,1:0:0:0:
97,138,61143,1,0,1:0:0:0:
93,183,61213,1,0,1:0:0:0:
89,228,61283,1,0,1:0:0:0:
85,272,61352,5,2,3:3:0:0:
85,272,61631,1,2,3:3:0:0:
85,272,61910,1,2,3:3:0:0:
85,272,62190,1,2,3:3:0:0:
377,384,62469,6,0,B|366:253|366:253|361:247|361:247|350:116,1,270.000010299683,6|0,3:2|3:2,0:0:0:0:
512,0,62887,1,0,1:0:0:0:
338,15,63027,1,2,0:3:0:0:
443,157,63166,1,2,3:2:0:0:
256,75,63306,1,2,0:3:0:0:
432,56,63445,1,2,1:2:0:0:
267,176,63585,1,2,0:3:0:0:
454,257,63724,5,2,3:2:0:0:
267,176,63864,1,2,0:3:0:0:
372,318,64003,1,2,1:2:0:0:
443,157,64143,2,0,L|308:144,1,135.000005149842,2|0,0:3|3:0,0:0:0:0:
38,145,64422,2,0,L|174:135,1,135.000005149842,2|0,0:3|1:0,0:0:0:0:
320,248,64701,1,2,0:3:0:0:
30,246,64841,5,6,3:2:0:0:
285,347,64980,1,2,1:3:0:0:
118,288,65120,1,2,3:2:0:0:
134,289,65190,1,0,0:0:0:0:
151,290,65259,1,2,1:3:0:0:
372,318,65399,1,2,3:2:0:0:
199,377,65538,1,2,1:3:0:0:
240,209,65678,1,2,3:2:0:0:
239,225,65748,1,0,0:0:0:0:
238,242,65817,1,2,1:3:0:0:
468,384,65957,6,0,L|456:249,1,135.000005149842,6|8,3:2|0:3,0:0:0:0:
455,233,66166,1,4,0:3:0:0:
454,216,66236,1,2,1:3:0:0:
512,1,66376,1,2,3:3:0:0:
512,1,66655,1,2,3:3:0:0:
0,384,66934,6,0,B|11:253|11:253|16:247|16:247|27:115,1,270.000010299683,6|0,3:2|3:2,0:0:0:0:
107,0,67352,2,0,B|113:67|113:67|152:121,1,135.000005149842,0|8,1:2|0:3,0:0:0:0:
179,102,67562,1,8,0:3:0:0:
211,92,67631,1,4,0:3:0:0:
245,93,67701,1,4,0:3:0:0:
276,105,67771,1,0,1:0:0:0:
399,266,67910,1,4,0:3:0:0:
397,231,67980,1,4,0:3:0:0:
385,200,68050,6,0,B|253:210|253:210|247:215|247:215|115:226,1,270.000010299683,6|0,3:2|3:2,0:0:0:0:
0,350,68469,2,0,B|67:355|67:355|126:326,1,135.000005149842,0|8,1:2|0:3,0:0:0:0:
320,204,68748,2,0,B|253:210|253:210|199:249,1,135.000005149842,8|8,0:3|0:3,0:0:0:0:
218,276,68957,1,8,0:3:0:0:
228,308,69027,1,4,0:3:0:0:
227,342,69096,1,4,0:3:0:0:
215,372,69166,6,0,B|346:361|346:361|352:356|352:356|484:345,1,270.000010299683,6|0,3:2|3:2,0:0:0:0:
453,141,69585,1,8,0:3:0:0:
453,172,69655,1,8,0:3:0:0:
464,204,69724,1,4,0:3:0:0:
484,232,69794,1,4,0:3:0:0:
512,250,69864,5,2,1:2:0:0:
468,246,69934,1,0,1:0:0:0:
423,242,70003,1,0,1:0:0:0:
378,238,70073,1,0,1:0:0:0:
333,234,70143,1,0,1:0:0:0:
288,230,70213,1,0,1:0:0:0:
244,226,70283,5,2,3:3:0:0:
244,226,70562,1,2,3:3:0:0:
244,226,70841,1,2,3:3:0:0:
244,226,71120,1,2,3:3:0:0:
0,0,71399,6,0,B|11:130|11:130|16:137|16:137|27:269,1,270.000010299683,6|0,3:2|3:2,0:0:0:0:
156,384,71817,1,0,1:0:0:0:
0,364,71957,1,2,0:3:0:0:
200,304,72096,1,2,3:2:0:0:
0,173,72236,1,2,3:3:0:0:
244,226,72376,1,2,1:2:0:0:
91,325,72515,1,2,0:3:0:0:
77,124,72655,5,2,3:2:0:0:
45,248,72794,1,2,0:3:0:0:
154,75,72934,1,2,1:2:0:0:
244,226,73073,2,0,L|255:91,1,135.000005149842,2|0,0:3|3:0,0:0:0:0:
424,0,73352,2,0,L|435:134,2,135.000005149842,2|0|2,0:3|1:0|0:3,0:0:0:0:
512,196,73771,5,6,3:2:0:0:
339,148,73910,1,2,3:3:0:0:
478,289,74050,1,2,3:2:0:0:
339,148,74190,1,2,3:3:0:0:
393,357,74329,1,8,0:3:0:0:
512,196,74469,1,6,3:3:0:0:
339,148,74608,1,2,1:2:0:0:
304,369,74748,1,2,3:3:0:0:
478,289,74887,5,14,0:3:0:0:
211,334,75027,1,8,0:3:0:0:
393,357,75166,1,0,1:3:0:0:
147,257,75306,1,2,3:3:0:0:
147,257,75585,1,2,3:3:0:0:
495,99,75864,6,0,B|364:110|364:110|358:115|358:115|226:126,1,270.000010299683,6|0,3:2|3:2,0:0:0:0:
0,0,76283,1,2,1:2:0:0:
140,77,76422,1,0,3:0:0:0:
3,159,76562,5,4,1:3:0:0:
169,279,76701,1,4,1:3:0:0:
3,159,76841,1,4,1:3:0:0:
0,357,76980,6,0,B|131:368|131:368|137:373|137:373|269:384,1,270.000010299683,6|0,3:2|3:2,0:0:0:0:
494,259,77399,1,2,1:2:0:0:
355,335,77538,1,0,3:0:0:0:
342,173,77678,1,8,0:3:0:0:
364,147,77748,1,8,0:3:0:0:
394,130,77817,1,4,0:3:0:0:
426,123,77887,1,4,0:3:0:0:
459,128,77957,1,4,0:3:0:0:
490,144,78027,1,4,0:3:0:0:
512,167,78096,6,0,B|381:155|381:155|374:150|374:150|242:139,1,270.000010299683,6|0,3:2|3:2,0:0:0:0:
1,280,78515,1,2,1:2:0:0:
157,190,78655,1,0,3:0:0:0:
4,121,78794,5,4,1:3:0:0:
244,140,78934,1,4,1:3:0:0:
4,121,79073,1,4,1:3:0:0:
246,0,79213,6,0,B|257:131|257:131|262:137|262:137|273:269,1,270.000010299683,6|0,3:2|3:2,0:0:0:0:
456,353,79631,1,8,0:3:0:0:
423,353,79701,1,8,0:3:0:0:
393,337,79771,1,8,0:3:0:0:
374,310,79841,1,8,0:3:0:0:
371,277,79910,5,4,0:3:0:0:
404,273,79980,1,4,0:3:0:0:
431,254,80050,1,4,0:3:0:0:
447,224,80120,1,4,0:3:0:0:
447,191,80190,1,2,1:3:0:0:
447,191,80469,5,4,1:3:0:0:
90,97,80655,1,4,3:3:0:0:
352,356,80841,1,4,1:3:0:0:
255,0,81027,1,4,3:3:0:0:
161,357,81213,1,4,1:3:0:0:
420,95,81399,1,4,3:3:0:0:
65,193,81585,1,4,1:3:0:0:
421,286,81771,1,4,3:3:0:0:
159,27,81957,1,4,1:3:0:0:
256,382,82143,1,4,3:3:0:0:
350,26,82329,1,4,1:3:0:0:
91,288,82515,1,4,3:3:0:0:
445,191,82701,6,0,B|380:253|380:253|383:258|383:258|358:333|358:333|359:339|359:339|358:332|358:332|308:270|308:270|310:266|310:266|229:235|229:235|226:231|226:231|225:235|225:235|161:291|161:291|163:296|163:296|139:369|139:369|139:373|139:373|138:368|138:368|89:308|89:308|90:303|90:303|20:274,1,697.5,6|0,0:0|0:2,0:0:0:0:
23,250,84934,6,0,P|46:226|59:195,1,67.5000025749208,6|0,3:2|0:0,0:0:0:0:
128,104,85213,2,0,P|141:135|165:159,2,67.5000025749208,2|0|0,0:2|0:0|0:0,0:0:0:0:
246,97,85631,2,0,P|272:118|305:127,2,67.5000025749208,2|0|0,0:2|0:0|0:0,0:0:0:0:
344,33,86050,6,0,P|377:37|410:29,2,67.5000025749208,2|0|0,0:2|0:0|0:0,0:0:0:0:
341,181,86469,2,0,P|328:149|304:126,2,67.5000025749208,2|0|0,0:2|0:0|0:0,0:0:0:0:
471,110,86887,2,0,P|450:136|441:168,1,67.5000025749208,2|0,0:2|0:2,0:0:0:0:
156,18,89120,1,12,0:3:0:0:
172,384,89399,5,6,3:2:0:0:
2,358,89538,1,2,0:2:0:0:
241,333,89678,1,2,1:2:0:0:
87,371,89817,1,2,1:2:0:0:
99,340,89887,1,0,1:0:0:0:
121,315,89957,1,2,3:2:0:0:
253,249,90096,1,2,1:2:0:0:
41,279,90236,1,2,1:3:0:0:
176,213,90376,5,2,1:2:0:0:
153,217,90445,1,0,1:0:0:0:
131,217,90515,1,8,0:3:0:0:
109,212,90585,1,8,0:3:0:0:
88,204,90655,1,6,0:3:0:0:
69,192,90724,1,4,0:3:0:0:
52,177,90794,5,6,1:2:0:0:
41,279,90934,1,4,0:3:0:0:
52,177,91073,2,0,B|62:43,1,135.000005149842,8|4,0:3|0:3,0:0:0:0:
235,29,91352,1,2,1:2:0:0:
237,63,91422,1,0,1:2:0:0:
240,98,91492,1,0,1:2:0:0:
243,130,91562,1,0,1:2:0:0:
245,164,91631,5,6,3:2:0:0:
153,37,91771,1,2,3:2:0:0:
327,156,91910,1,2,1:3:0:0:
153,37,92050,1,2,1:3:0:0:
176,213,92190,1,2,3:3:0:0:
318,66,92329,1,2,1:2:0:0:
253,249,92469,1,2,3:3:0:0:
327,156,92608,5,2,1:2:0:0:
323,178,92678,1,0,1:0:0:0:
325,200,92748,1,8,0:3:0:0:
331,222,92817,1,4,0:3:0:0:
342,241,92887,1,0,3:0:0:0:
358,258,92957,1,0,3:0:0:0:
376,270,93027,5,2,1:2:0:0:
327,156,93166,1,2,1:2:0:0:
478,173,93306,1,2,3:2:0:0:
465,181,93376,1,0,3:3:0:0:
448,185,93445,1,0,3:0:0:0:
430,186,93515,1,0,3:0:0:0:
413,185,93585,2,0,B|411:118|411:118|366:68,1,135.000005149842,2|2,1:2|0:3,0:2:0:0:
512,90,93864,5,6,3:2:0:0:
327,156,94003,1,2,3:2:0:0:
512,262,94143,1,2,1:3:0:0:
342,241,94283,1,2,1:2:0:0:
358,258,94352,1,0,1:0:0:0:
376,270,94422,1,2,3:2:0:0:
478,173,94562,1,2,1:3:0:0:
448,334,94701,1,2,3:3:0:0:
342,241,94841,5,2,1:2:0:0:
319,236,94910,1,0,1:0:0:0:
297,238,94980,1,8,0:3:0:0:
275,244,95050,1,4,0:3:0:0:
256,255,95120,1,0,3:0:0:0:
240,271,95190,1,0,3:0:0:0:
227,289,95259,5,2,1:2:0:0:
239,155,95399,1,4,3:3:0:0:
226,289,95538,2,0,B|176:333|176:333|109:335,1,135.000005149842,4|4,0:3|0:3,0:2:0:0:
8,173,95817,1,2,1:2:0:0:
42,171,95887,1,0,1:2:0:0:
77,168,95957,1,0,1:2:0:0:
109,165,96027,1,0,1:2:0:0:
143,163,96096,5,6,1:2:0:0:
49,252,96236,1,2,3:2:0:0:
99,76,96376,1,2,1:2:0:0:
187,250,96515,1,2,1:2:0:0:
221,252,96585,1,0,1:2:0:0:
256,255,96655,1,2,1:2:0:0:
143,163,96794,1,2,1:2:0:0:
329,202,96934,1,2,1:2:0:0:
269,21,97073,5,2,3:3:0:0:
269,21,97352,1,0,3:0:0:0:
256,15,97562,1,0,3:0:0:0:
249,0,97771,1,2,1:2:0:0:
512,373,98190,6,0,B|395:362|395:362|390:365|390:365|271:355,1,243.000000926971,4|10,3:1|0:3,0:0:0:0:
204,280,98538,1,4,0:3:0:0:
194,281,98608,2,0,L|130:286,1,60.7500002317429,0|0,1:2|0:0,0:0:0:0:
28,384,98748,5,8,0:3:0:0:
28,373,98817,1,8,0:3:0:0:
29,363,98887,1,4,0:3:0:0:
30,353,98957,1,4,0:3:0:0:
31,343,99027,1,4,0:3:0:0:
31,333,99096,1,4,0:3:0:0:
32,323,99166,2,0,L|37:259,1,60.7500002317429,0|0,1:2|0:0,0:0:0:0:
114,197,99306,5,8,0:3:0:0:
114,186,99376,1,8,0:3:0:0:
113,176,99445,2,4,L|108:115,3,60.7500002317429,4|4|4|4,0:3|0:3|0:3|0:3,0:3:0:0:
60,43,99724,2,0,L|-1:48,1,60.7500002317429,0|0,1:0|0:0,0:0:0:0:
216,0,99864,5,8,0:3:0:0:
216,11,99934,1,8,0:3:0:0:
215,21,100003,1,4,0:3:0:0:
214,31,100073,1,4,0:3:0:0:
213,41,100143,1,4,0:3:0:0:
213,51,100213,1,4,0:3:0:0:
212,61,100283,2,0,L|207:121,1,60.7500002317429,0|0,1:0|0:0,0:0:0:0:
268,202,100422,5,8,0:3:0:0:
279,202,100492,1,8,0:3:0:0:
289,201,100562,2,4,L|350:196,3,60.7500002317429,4|4|4|4,0:3|0:3|0:3|0:3,0:3:0:0:
422,148,100841,2,0,L|417:87,1,60.7500002317429,0|0,1:0|0:0,0:0:0:0:
430,229,100980,5,8,0:3:0:0:
429,239,101050,1,8,0:3:0:0:
431,250,101120,1,4,0:3:0:0:
432,260,101190,1,4,0:3:0:0:
433,270,101259,2,0,L|438:330,1,60.7500002317429,4|4,0:3|0:3,0:3:0:0:
332,384,101399,2,0,L|337:323,1,60.7500002317429,0|0,1:0|0:0,0:0:0:0:
243,293,101538,5,8,0:3:0:0:
232,293,101608,1,8,0:3:0:0:
222,294,101678,2,4,L|161:299,1,60.7500002317429,6|4,0:3|0:3,0:3:0:0:
87,195,101817,2,4,L|148:200,1,60.7500002317429,6|4,0:3|0:3,0:3:0:0:
289,160,101957,2,4,L|229:144,1,60.7500002317429,2|0,1:3|0:3,0:3:0:0:
138,27,102096,2,4,L|193:52,1,60.7500002317429,6|4,0:3|0:3,0:3:0:0:
365,5,102236,5,2,1:2:0:0:
349,41,102306,1,0,1:0:0:0:
359,79,102376,1,0,1:0:0:0:
392,102,102445,1,0,1:0:0:0:
432,99,102515,1,0,1:0:0:0:
460,72,102585,1,0,1:0:0:0:
465,32,102655,6,0,B|476:149|476:149|473:154|473:154|483:273,1,243.000000926971,6|0,3:2|0:3,0:0:0:0:
358,366,103073,6,0,L|363:305,1,60.7500002317429,2|0,3:3|1:0,0:0:0:0:
377,141,103213,2,0,L|371:201,1,60.7500002317429,0|0,3:0|1:0,0:0:0:0:
275,358,103352,6,0,L|280:297,1,60.7500002317429,2|0,3:3|1:0,0:0:0:0:
294,133,103492,2,0,L|288:193,1,60.7500002317429,0|0,3:0|1:0,0:0:0:0:
192,350,103631,6,0,L|197:289,1,60.7500002317429,2|0,3:3|1:0,0:0:0:0:
211,125,103771,2,0,L|205:185,1,60.7500002317429,0|0,3:0|1:0,0:0:0:0:
109,342,103910,6,0,L|114:281,1,60.7500002317429,2|0,3:3|1:0,0:0:0:0:
128,117,104050,2,0,L|122:177,1,60.7500002317429,0|0,3:0|1:0,0:0:0:0:
26,334,104190,6,0,L|31:273,1,60.7500002317429,2|0,3:3|1:0,0:0:0:0:
45,109,104329,2,0,L|39:169,1,60.7500002317429,0|0,3:0|1:0,0:0:0:0:
130,300,104469,5,2,1:2:0:0:
146,264,104538,1,0,1:0:0:0:
136,226,104608,1,0,1:0:0:0:
103,203,104678,1,0,1:0:0:0:
63,206,104748,1,0,1:0:0:0:
35,233,104817,1,0,1:0:0:0:
30,273,104887,6,0,B|19:156|19:156|22:151|22:151|12:32,1,243.000000926971,6|0,3:2|3:3,0:0:0:0:
26,29,105236,1,0,3:0:0:0:
41,28,105306,1,2,1:2:0:0:
158,114,105445,1,0,3:0:0:0:
143,112,105515,1,0,3:0:0:0:
128,111,105585,1,2,1:2:0:0:
246,0,105724,1,0,3:0:0:0:
248,15,105794,1,0,3:0:0:0:
249,30,105864,6,0,L|254:90,1,60.7500002317429,0|0,1:0|1:0,1:0:0:0:
233,188,106003,2,0,L|238:248,1,60.7500002317429,0|0,1:0|1:0,1:0:0:0:
217,346,106143,5,2,0:2:0:0:
217,345,106422,2,0,P|261:343|302:361,1,90,2|2,0:2|0:2,0:0:0:0:
416,42,107120,6,0,B|405:174|405:174|400:179|400:179|389:311|389:311|408:337|403:375,1,337.500012874604,6|0,3:2|0:2,0:0:0:0:
302,361,107538,2,0,B|170:350|170:350|165:345|165:345|102:339,1,202.500007724762,6|2,3:2|0:2,0:0:0:0:
96,339,107817,1,2,0:2:0:0:
90,339,107887,1,2,0:2:0:0:
84,339,107957,1,2,0:2:0:0:
79,338,108027,1,2,0:2:0:0:
73,338,108096,1,2,0:2:0:0:
67,337,108166,1,2,0:2:0:0:
55,308,108236,6,0,B|252:324|252:324|257:329|257:329|389:340,1,337.500012874604,6|2,3:2|0:2,0:0:0:0:
372,240,108655,2,0,B|242:230|242:230|237:225|237:225|172:219,1,202.500007724762,6|2,3:2|0:2,0:0:0:0:
172,213,108934,1,2,0:2:0:0:
172,207,109003,1,2,0:2:0:0:
172,201,109073,1,2,0:2:0:0:
171,196,109143,1,2,0:2:0:0:
171,190,109213,1,2,0:2:0:0:
170,184,109283,1,2,0:2:0:0:
166,151,109352,6,0,B|298:162|298:162|302:167|302:167|435:178|435:178|427:109,1,337.500012874604,6|0,3:2|0:2,0:0:0:0:
393,93,109771,2,0,B|405:224|405:224|401:230|401:230|406:293,1,202.500007724762,6|2,3:2|0:2,0:0:0:0:
408,300,110050,1,2,0:2:0:0:
409,306,110120,1,2,0:2:0:0:
410,312,110190,1,2,0:2:0:0:
409,317,110259,1,2,0:2:0:0:
410,323,110329,1,2,0:2:0:0:
411,329,110399,1,2,0:2:0:0:
410,334,110469,1,2,0:2:0:0:
411,340,110538,1,2,0:2:0:0:
412,346,110608,5,6,1:3:0:0:
277,334,110748,1,2,3:2:0:0:
143,322,110887,1,0,3:0:0:0:
412,322,111027,5,6,1:3:0:0:
142,345,111166,1,0,3:0:0:0:
406,368,111306,5,6,1:3:0:0:
147,298,111445,1,0,3:0:0:0:
369,238,111585,5,4,3:2:0:0:
330,260,111655,1,0,3:0:0:0:
287,251,111724,1,0,3:0:0:0:
261,216,111794,1,0,3:0:0:0:
264,172,111864,1,0,3:0:0:0:
296,142,111934,1,0,3:0:0:0:
340,140,112003,1,6,3:2:0:0:
340,140,112283,6,2,P|307:132|278:116,1,67.5,2|6,0:1|0:2,0:1:0:0:
278,70,112771,1,0,3:0:0:0:
249,37,112841,1,0,3:0:0:0:
205,32,112910,1,0,3:0:0:0:
169,57,112980,1,0,3:0:0:0:
159,100,113050,1,0,3:0:0:0:
179,139,113120,1,6,3:2:0:0:
179,139,113399,6,2,P|145:147|116:163,1,67.5,2|6,0:1|0:2,0:1:0:0:
141,198,113887,1,0,3:0:0:0:
135,241,113957,1,0,3:0:0:0:
102,272,114027,1,0,3:0:0:0:
58,272,114096,1,0,3:0:0:0:
26,243,114166,1,0,3:0:0:0:
19,199,114236,1,6,3:2:0:0:
19,199,114515,6,2,P|184:329|390:374,1,425.2500016222,2|0,0:1|0:2,0:1:0:0:
414,374,115073,5,6,1:3:0:0:
402,239,115213,1,2,3:2:0:0:
390,105,115352,1,0,3:0:0:0:
390,374,115492,5,6,1:3:0:0:
413,104,115631,1,0,3:0:0:0:
436,368,115771,5,6,1:3:0:0:
366,109,115910,1,0,3:0:0:0:
291,364,116050,5,6,0:2:0:0:
331,25,120655,5,6,3:2:0:0:
303,122,120794,1,0,3:0:0:0:
331,25,120934,2,2,P|375:31|416:15,1,90,2|0,1:2|0:0,0:0:0:0:
488,87,121213,2,2,P|459:122|454:165,1,90,2|0,1:2|0:0,0:0:0:0:
355,191,121492,2,2,P|338:149|303:122,1,90,2|0,1:2|0:0,0:0:0:0:
211,77,121771,5,2,3:2:0:0:
248,207,121910,1,0,3:0:0:0:
211,77,122050,2,2,P|194:119|159:146,1,90,2|0,1:2|0:0,0:0:0:0:
47,178,122329,2,2,P|81:207|96:248,1,90,2|0,1:2|0:0,0:0:0:0:
92,365,122608,2,2,P|130:341|174:339,1,90,2|0,1:2|0:0,0:0:0:0:
294,287,122887,5,2,3:2:0:0:
266,384,123027,1,0,3:0:0:0:
294,287,123166,2,2,P|338:293|379:277,1,90,2|0,1:2|0:0,0:0:0:0:
445,172,123445,2,2,P|401:178|360:162,1,90,2|0,1:2|0:0,0:0:0:0:
294,57,123724,2,2,P|338:63|379:47,1,90,2|0,1:2|0:0,0:0:0:0:
445,172,124003,5,2,3:2:0:0:
473,6,124143,1,0,3:0:0:0:
445,171,124283,2,2,P|461:130|496:103,1,90,2|0,1:2|0:0,0:0:0:0:
295,87,124562,2,2,P|323:123|328:167,1,90,2|0,1:2|0:0,0:0:0:0:
512,248,124841,5,6,1:2:0:0:
200,116,124980,2,0,B|189:247|189:247|184:253|184:253|176:347,1,233.999989288331,6|8,3:2|3:3,0:0:0:0:
155,346,125329,1,8,0:3:0:0:
135,344,125399,1,8,0:3:0:0:
116,338,125469,1,8,0:3:0:0:
97,330,125538,1,0,3:0:0:0:
80,319,125608,1,0,3:0:0:0:
65,306,125678,1,4,0:3:0:0:
51,291,125748,1,4,0:3:0:0:
40,274,125817,1,0,3:0:0:0:
31,256,125887,1,0,3:0:0:0:
25,237,125957,1,6,1:2:0:0:
218,90,126096,6,0,B|180:234|180:234|174:239|174:239|150:331,1,251.999992309571,6|8,3:2|3:3,0:0:0:0:
129,326,126445,1,8,0:3:0:0:
110,320,126515,1,8,0:3:0:0:
92,311,126585,1,8,0:3:0:0:
75,300,126655,1,0,3:0:0:0:
60,286,126724,1,0,3:0:0:0:
48,271,126794,1,4,0:3:0:0:
36,253,126864,1,4,0:3:0:0:
29,235,126934,1,0,3:0:0:0:
23,215,127003,1,0,3:0:0:0:
20,196,127073,1,6,1:2:0:0:
244,68,127213,6,0,B|174:220|174:220|167:224|167:224|127:310,1,270.000010299683,6|8,3:2|3:3,0:0:0:0:
108,302,127562,1,8,0:3:0:0:
90,293,127631,1,8,0:3:0:0:
74,281,127701,1,8,0:3:0:0:
59,267,127771,1,0,3:0:0:0:
47,251,127841,1,0,3:0:0:0:
37,233,127910,1,4,0:3:0:0:
29,214,127980,1,4,0:3:0:0:
24,195,128050,1,0,3:0:0:0:
22,175,128120,1,0,3:0:0:0:
23,155,128190,1,6,1:2:0:0:
275,53,128329,6,0,B|170:206|170:206|163:208|163:208|109:286,1,288,6|8,3:2|3:3,0:0:0:0:
91,274,128678,1,8,0:3:0:0:
75,263,128748,1,8,0:3:0:0:
61,248,128817,1,8,0:3:0:0:
49,232,128887,1,0,3:0:0:0:
40,213,128957,1,0,3:0:0:0:
33,195,129027,1,4,0:3:0:0:
28,175,129096,1,4,0:3:0:0:
27,155,129166,1,0,3:0:0:0:
29,134,129236,1,0,3:0:0:0:
33,115,129306,1,6,1:2:0:0:
33,115,129585,6,0,P|76:103|117:85,1,90,2|2,0:2|0:2,0:0:0:0:
117,85,130143,1,0,0:0:0:0:
221,81,130283,2,0,P|209:125|205:170,1,90,2|2,0:2|0:2,0:0:0:0:
203,297,130701,5,0,0:0:0:0:
99,301,130841,2,0,P|110:258|114:213,1,90,2|2,0:2|0:2,0:0:0:0:
221,81,131259,2,0,P|264:92|309:96,1,90,2|2,0:2|0:2,0:0:0:0:
147,235,131817,6,0,L|248:227,1,101.250003862381,6|0,3:2|0:2,0:2:0:0:
331,277,131992,6,0,L|234:251,1,101.250003862381,6|0,3:2|0:2,0:2:0:0:
173,175,132166,6,0,L|256:234,1,101.250003862381,6|0,3:2|0:2,0:2:0:0:
287,326,132341,6,0,L|229:244,1,101.250003862381,6|0,3:2|0:2,0:2:0:0:
232,146,132515,6,0,L|259:244,1,101.250003862381,6|0,3:2|0:2,0:2:0:0:
223,335,132690,6,0,L|232:235,1,101.250003862381,6|0,3:2|0:2,0:2:0:0:
296,162,132864,6,0,L|254:254,1,101.250003862381,6|0,3:2|0:2,0:2:0:0:
167,300,133038,6,0,L|239:229,1,101.250003862381,6|0,3:2|0:2,0:2:0:0:
335,215,133213,6,0,L|244:258,1,101.250003862381,6|0,3:2|0:2,0:2:0:0:
216,276,133910,6,0,B|205:145|205:145|200:139|200:139|189:7,1,270.000010299683,6|0,3:2|3:2,0:0:0:0:
459,0,134329,2,0,B|453:67|453:67|413:121,1,135.000005149842,0|8,1:2|0:3,0:0:0:0:
387,101,134538,1,8,0:3:0:0:
355,91,134608,1,4,0:3:0:0:
321,92,134678,1,4,0:3:0:0:
290,104,134748,1,0,1:0:0:0:
209,201,134887,1,4,0:3:0:0:
477,228,135027,6,0,B|346:217|346:217|340:212|340:212|208:201,1,270.000010299683,6|0,3:2|3:2,0:0:0:0:
41,98,135445,2,0,B|47:165|47:165|86:219,1,135.000005149842,0|8,1:2|0:3,0:0:0:0:
118,231,135655,1,8,0:3:0:0:
139,256,135724,1,8,0:3:0:0:
146,289,135794,1,8,0:3:0:0:
136,321,135864,1,4,0:3:0:0:
113,345,135934,1,4,0:3:0:0:
81,354,136003,1,4,0:3:0:0:
48,348,136073,1,4,0:3:0:0:
23,327,136143,6,0,B|154:316|154:316|160:311|160:311|292:300,1,270.000010299683,6|0,3:2|3:2,0:0:0:0:
490,325,136562,1,8,0:3:0:0:
459,325,136631,1,8,0:3:0:0:
427,336,136701,1,4,0:3:0:0:
399,356,136771,1,4,0:3:0:0:
382,384,136841,5,2,1:2:0:0:
385,340,136910,1,0,1:0:0:0:
389,295,136980,1,0,1:0:0:0:
393,250,137050,1,0,1:0:0:0:
398,205,137120,1,0,1:0:0:0:
401,160,137190,1,0,1:0:0:0:
405,116,137259,5,2,3:3:0:0:
405,116,137538,1,2,3:3:0:0:
405,116,137817,1,2,3:3:0:0:
405,116,138096,1,2,3:3:0:0:
168,0,138376,6,0,B|179:131|179:131|184:137|184:137|195:269,1,270.000010299683,6|0,3:2|3:2,0:0:0:0:
33,384,138794,1,0,1:0:0:0:
204,368,138934,1,2,0:3:0:0:
20,286,139073,1,2,3:2:0:0:
183,166,139213,1,2,0:3:0:0:
9,185,139352,1,2,1:2:0:0:
194,267,139492,1,2,0:3:0:0:
90,125,139631,5,0,3:0:0:0:
112,327,139771,1,2,0:3:0:0:
172,65,139910,1,2,1:2:0:0:
194,267,140050,2,0,L|328:278,1,135.000005149842,2|0,0:3|3:0,0:0:0:0:
512,355,140329,2,0,L|377:366,1,135.000005149842,2|0,0:3|1:0,0:0:0:0:
204,368,140608,1,2,0:3:0:0:
377,366,140748,5,0,3:0:0:0:
194,267,140887,1,0,1:0:0:0:
367,265,141027,1,2,3:2:0:0:
351,266,141096,1,0,0:0:0:0:
334,267,141166,1,2,1:3:0:0:
161,265,141306,1,0,3:0:0:0:
344,166,141445,1,0,1:0:0:0:
171,164,141585,1,2,3:2:0:0:
187,165,141655,1,0,0:0:0:0:
204,166,141724,1,2,1:3:0:0:
411,62,141864,6,0,L|276:74,1,135.000005149842,6|8,3:2|0:3,0:0:0:0:
260,75,142073,1,4,0:3:0:0:
243,76,142143,1,2,1:3:0:0:
28,18,142283,1,2,3:3:0:0:
28,18,142562,1,2,3:3:0:0:
512,384,142841,6,0,B|381:373|381:373|375:368|375:368|243:357,1,270.000010299683,6|0,3:2|3:2,0:0:0:0:
128,277,143259,2,0,B|195:271|195:271|249:232,1,135.000005149842,0|8,1:2|0:3,0:0:0:0:
230,205,143469,1,8,0:3:0:0:
220,173,143538,1,4,0:3:0:0:
221,139,143608,1,4,0:3:0:0:
233,108,143678,1,0,1:0:0:0:
400,38,143817,1,4,0:3:0:0:
398,73,143887,1,4,0:3:0:0:
386,104,143957,6,0,B|254:94|254:94|248:89|248:89|116:78,1,270.000010299683,6|0,3:2|3:2,0:0:0:0:
0,169,144376,2,0,B|67:164|67:164|126:193,1,135.000005149842,0|8,1:2|0:3,0:0:0:0:
280,268,144655,1,8,0:3:0:0:
247,261,144724,1,8,0:3:0:0:
214,272,144794,1,4,0:3:0:0:
190,295,144864,1,4,0:3:0:0:
181,327,144934,1,4,0:3:0:0:
188,359,145003,1,4,0:3:0:0:
209,384,145073,6,0,B|219:253|219:253|223:247|223:247|235:115,1,270.000010299683,6|0,3:2|3:2,0:0:0:0:
433,60,145492,1,8,0:3:0:0:
401,59,145562,1,8,0:3:0:0:
369,48,145631,1,4,0:3:0:0:
341,28,145701,1,4,0:3:0:0:
322,0,145771,5,2,1:2:0:0:
327,44,145841,1,0,1:0:0:0:
331,90,145910,1,0,1:0:0:0:
335,135,145980,1,0,1:0:0:0:
339,180,146050,1,0,1:0:0:0:
343,225,146120,1,0,1:0:0:0:
347,269,146190,5,2,3:3:0:0:
347,269,146469,1,2,3:3:0:0:
347,269,146748,1,2,3:3:0:0:
347,269,147027,1,2,3:3:0:0:
0,384,147306,6,0,B|11:254|11:254|16:247|16:247|27:115,1,270.000010299683,6|0,3:2|3:2,0:0:0:0:
207,40,147724,1,0,1:0:0:0:
39,18,147864,1,2,0:3:0:0:
194,138,148003,1,2,3:2:0:0:
26,116,148143,1,2,0:3:0:0:
207,40,148283,1,2,1:2:0:0:
104,176,148422,1,2,0:3:0:0:
291,151,148562,5,2,3:2:0:0:
117,79,148701,1,2,0:3:0:0:
231,228,148841,1,2,1:2:0:0:
304,53,148980,2,0,L|316:187,1,135.000005149842,2|0,0:3|3:0,0:0:0:0:
383,384,149259,2,0,L|395:249,1,135.000005149842,2|0,0:3|1:0,0:0:0:0:
451,42,149538,1,2,0:3:0:0:
494,236,149678,5,8,3:3:0:0:
316,187,149817,1,6,3:3:0:0:
481,137,149957,1,0,1:0:0:0:
316,187,150096,1,2,3:3:0:0:
507,335,150236,1,8,3:3:0:0:
481,137,150376,1,6,3:3:0:0:
507,335,150515,1,8,1:3:0:0:
256,267,150655,1,2,3:3:0:0:
376,107,150794,5,8,0:3:0:0:
358,384,150934,1,4,0:3:0:0:
481,137,151073,1,0,0:0:0:0:
358,384,151213,5,2,3:3:0:0:
358,384,151492,1,2,3:3:0:0:
36,24,151771,6,0,B|25:154|25:154|20:160|20:160|9:293,1,270.000010299683,6|0,2:2|2:2,2:0:0:0:
258,382,152190,1,2,1:2:0:0:
58,378,152329,1,0,2:0:0:0:
60,202,152469,5,4,1:3:0:0:
158,380,152608,1,4,1:3:0:0:
60,202,152748,1,4,1:3:0:0:
258,382,152887,6,0,B|247:251|247:251|242:245|242:245|231:113,1,270.000010299683,6|0,2:2|2:2,2:0:0:0:
480,24,153306,1,2,1:2:0:0:
280,28,153445,1,0,2:0:0:0:
328,148,153585,1,8,0:3:0:0:
350,122,153655,1,8,0:3:0:0:
380,105,153724,1,4,0:3:0:0:
412,98,153794,1,4,0:3:0:0:
445,103,153864,1,4,0:3:0:0:
476,119,153934,1,4,0:3:0:0:
498,142,154003,6,0,B|367:130|367:130|360:125|360:125|228:114,1,270.000010299683,6|0,3:2|3:2,0:0:0:0:
140,364,154422,1,2,1:2:0:0:
144,164,154562,1,0,2:0:0:0:
405,217,154701,5,4,1:3:0:0:
142,264,154841,1,4,1:3:0:0:
405,217,154980,1,4,1:3:0:0:
269,0,155120,6,0,B|258:131|258:131|253:137|253:137|242:269,1,270.000010299683,6|0,3:2|3:2,0:0:0:0:
59,353,155538,1,8,0:3:0:0:
92,353,155608,1,8,0:3:0:0:
122,337,155678,1,8,0:3:0:0:
141,310,155748,1,8,0:3:0:0:
144,277,155817,5,4,0:3:0:0:
111,273,155887,1,4,0:3:0:0:
84,254,155957,1,4,0:3:0:0:
68,224,156027,1,4,0:3:0:0:
68,191,156096,1,2,1:3:0:0:
90,192,156515,5,2,3:3:0:0:
112,186,156934,1,2,3:3:0:0:
131,174,157352,1,2,3:3:0:0:
145,157,157771,1,2,3:3:0:0:
153,136,158190,1,2,3:3:0:0:
332,0,158329,5,8,0:3:0:0:
339,28,158399,1,8,0:3:0:0:
358,57,158469,1,0,1:3:0:0:
385,79,158538,1,0,1:3:0:0:
416,88,158608,6,0,B|330:95|330:95|327:91|327:91|256:139|256:139|251:138|251:138|314:191|314:191|319:190|319:190|349:270|349:270|354:271|354:271|270:279|270:279|267:275|267:275|195:323|195:323|190:321|190:321|254:375|254:375|281:373,1,652.5,6|0,3:2|0:0,0:0:0:0:
296,384,160701,6,0,L|363:378,2,67.5000025749208
445,324,161120,2,0,L|512:329,1,67.5000025749208,2|0,0:3|0:0,0:0:0:0:
512,229,161399,2,0,L|445:224,1,67.5000025749208,2|0,0:3|0:0,0:0:0:0:
445,124,161678,2,0,L|512:129,1,67.5000025749208,2|0,0:3|0:0,0:0:0:0:
512,29,161957,6,0,L|444:23,1,67.5000025749208,2|0,0:3|0:0,0:0:0:0:
343,24,162236,2,0,L|348:91,1,67.5000025749208,2|0,0:3|0:0,0:0:0:0:
348,193,162515,1,2,0:3:0:0:
248,91,162655,1,0,3:0:0:0:
247,192,162794,1,2,0:3:0:0:
147,90,162934,6,0,L|152:157,2,67.5000025749208,0|0|0,3:3|0:0|0:0,0:0:0:0:
63,199,163352,2,0,L|57:266,1,67.5000025749208,2|0,0:3|0:0,0:0:0:0:
145,373,163631,2,0,L|150:305,1,67.5000025749208,2|0,0:3|0:0,0:0:0:0:
255,215,163910,2,0,L|249:282,1,67.5000025749208,2|0,0:3|0:0,0:0:0:0:
280,379,164190,6,0,L|347:384,1,67.5000025749208,2|0,0:3|0:0,0:0:0:0:
444,353,164469,2,0,L|449:285,1,67.5000025749208,2|0,0:3|0:0,0:0:0:0:
418,189,164748,2,0,L|350:183,1,67.5000025749208,2|0,0:3|0:0,0:0:0:0:
358,291,165027,1,2,0:3:0:0:
358,291,165096,1,2,0:3:0:0:
358,291,165166,6,0,P|338:252|332:210,1,85.4999977169037,2|0,3:3|0:0,0:0:0:0:
345,102,165445,1,2,0:2:0:0:
231,214,165585,2,0,P|233:171|248:131,1,85.4999977169037,2|0,0:2|0:0,0:0:0:0:
315,3,165864,1,2,0:2:0:0:
159,83,166003,2,0,P|182:47|215:20,1,85.4999977169037,2|0,3:3|0:0,0:0:0:0:
438,63,166283,6,0,P|395:91|344:101,1,103.500001974106,2|2,3:3|0:2,0:0:0:0:
58,72,166701,1,0,0:0:0:0:
0,153,166841,2,0,P|33:191|79:215,1,103.500001974106,2|2,0:2|0:2,0:0:0:0:
273,174,167120,2,0,P|185:218|187:316,1,207.000003948212,2|0,0:2|0:2,0:0:0:0:
436,201,169073,1,0,3:0:0:0:
430,264,169143,1,0,3:0:0:0:
423,327,169213,2,2,P|396:325|368:329,1,56.25,6|0,1:2|0:2,0:1:0:0:
352,358,169631,6,0,B|221:369|221:369|214:366|214:366|16:384,1,337.500012874604,6|0,3:2|0:2,0:0:0:0:
0,285,170050,2,0,L|133:272,1,135.000005149842,6|0,3:2|3:0,0:0:0:0:
149,271,170259,1,0,3:0:0:0:
165,268,170329,6,2,P|208:252|241:223,1,90,2|0,3:3|0:0,0:1:0:0:
240,237,170957,5,8,0:3:0:0:
241,254,171027,2,0,L|291:257,1,51.7500009870529
431,164,171166,1,8,0:3:0:0:
435,187,171236,1,8,0:3:0:0:
436,201,171306,2,0,L|386:208,1,51.7500009870529
287,82,171445,1,8,0:3:0:0:
275,106,171515,1,8,0:3:0:0:
269,127,171585,2,0,L|319:130,1,51.7500009870529
512,93,171724,2,0,L|417:48,1,103.500001974106,0|8,0:0|0:3,0:0:0:0:
392,38,171934,1,4,0:3:0:0:
368,27,172003,5,0,1:0:0:0:
512,258,172143,1,2,3:3:0:0:
512,258,172422,1,2,3:3:0:0:
512,258,172701,6,0,B|484:251|484:251|471:258|471:258|447:253,1,67.5000025749208,4|0,3:3|3:2,0:0:0:0:
287,80,172841,2,0,B|294:107|294:107|307:115|307:115|315:138,1,67.5000025749208,4|0,3:3|3:2,0:0:0:0:
245,363,172980,2,0,B|265:342|265:342|265:327|265:327|281:309,1,67.5000025749208,4|0,3:3|3:2,0:0:0:0:
348,234,173120,5,2,0:2:0:0:
348,234,173352,1,2,0:2:0:0:
348,234,173585,1,2,0:2:0:0:
16,197,173957,6,0,L|0:376,1,180,6|12,1:2|0:3,0:0:0:0:
424,371,175352,5,6,3:2:0:0:
254,345,175492,1,2,0:2:0:0:
493,320,175631,1,2,1:2:0:0:
339,358,175771,1,2,1:2:0:0:
351,327,175841,1,0,1:0:0:0:
373,302,175910,1,0,3:0:0:0:
505,236,176050,1,2,1:2:0:0:
339,358,176190,1,2,1:3:0:0:
506,236,176329,5,0,1:0:0:0:
483,240,176399,1,0,1:0:0:0:
461,240,176469,1,8,0:3:0:0:
439,235,176538,1,8,0:3:0:0:
418,227,176608,1,6,0:3:0:0:
399,215,176678,1,4,0:3:0:0:
382,200,176748,5,6,1:2:0:0:
373,302,176887,1,2,3:2:0:0:
506,236,177027,2,0,B|496:102,1,135.000005149842,8|4,0:3|0:3,0:0:0:0:
334,0,177306,1,2,1:2:0:0:
332,34,177376,1,0,1:2:0:0:
329,69,177445,1,0,1:2:0:0:
326,101,177515,1,0,1:2:0:0:
324,135,177585,5,6,3:2:0:0:
241,0,177724,1,2,2:2:0:0:
419,49,177864,1,2,2:2:0:0:
318,203,178003,1,2,1:2:0:0:
321,170,178073,1,0,1:2:0:0:
324,135,178143,2,0,L|190:147,1,135.000005149842,2|0,3:2|1:0,0:0:0:0:
0,163,178422,1,2,3:3:0:0:
162,50,178562,5,2,1:2:0:0:
141,58,178631,1,0,1:0:0:0:
123,71,178701,1,8,0:3:0:0:
107,87,178771,1,4,0:3:0:0:
96,106,178841,1,0,3:0:0:0:
89,128,178910,1,0,3:0:0:0:
88,150,178980,5,2,1:2:0:0:
208,302,179120,1,2,1:2:0:0:
189,147,179259,1,2,3:2:0:0:
201,160,179329,1,0,3:3:0:0:
209,174,179399,1,0,3:0:0:0:
214,191,179469,1,0,3:0:0:0:
216,208,179538,2,0,B|153:226|153:226|114:283,1,135.000005149842,2|2,1:2|0:3,0:2:0:0:
0,163,179817,5,6,3:2:0:0:
217,208,179957,1,2,3:2:0:0:
26,255,180096,1,2,1:2:0:0:
19,71,180236,1,2,1:2:0:0:
50,83,180306,1,0,1:0:0:0:
75,105,180376,1,2,3:2:0:0:
217,208,180515,1,2,1:2:0:0:
26,255,180655,1,2,0:3:0:0:
208,302,180794,5,0,1:0:0:0:
231,302,180864,1,0,1:0:0:0:
253,296,180934,1,8,0:3:0:0:
272,285,181003,1,8,0:3:0:0:
289,270,181073,1,4,0:3:0:0:
301,251,181143,1,4,0:3:0:0:
309,230,181213,5,6,1:2:0:0:
327,362,181352,1,8,0:3:0:0:
217,209,181492,2,0,B|256:153|256:153|320:136,1,135.000005149842,4|4,0:3|0:3,0:2:0:0:
406,321,181771,1,2,1:2:0:0:
404,287,181841,1,0,1:2:0:0:
401,252,181910,1,0,1:2:0:0:
398,220,181980,1,0,1:2:0:0:
396,186,182050,5,6,1:2:0:0:
408,2,182190,1,2,3:2:0:0:
320,135,182329,1,2,1:2:0:0:
493,188,182469,1,0,3:0:0:0:
489,164,182538,1,0,3:0:0:0:
478,145,182608,1,2,3:3:0:0:
309,230,182748,1,2,1:2:0:0:
418,49,182887,5,0,3:0:0:0:
413,74,182957,1,0,3:0:0:0:
402,94,183027,1,2,3:3:0:0:
224,4,183166,1,2,1:2:0:0:
338,187,183306,5,0,3:0:0:0:
333,158,183376,1,0,3:0:0:0:
320,135,183445,1,2,3:3:0:0:
117,237,183585,1,2,1:2:0:0:
245,26,183724,5,0,3:0:0:0:
249,56,183794,1,0,3:0:0:0:
244,84,183864,1,2,3:3:0:0:
0,55,184003,1,2,1:2:0:0:
320,135,184143,5,6,3:2:0:0:
320,135,184562,1,2,0:3:0:0:
320,135,185120,1,2,0:3:0:0:
109,185,185399,5,6,1:2:0:0:
0,106,185538,2,0,B|54:80|54:80|115:85,1,121.500000463486,2|0,3:2|3:0,0:0:0:0:
317,53,185817,2,0,B|263:27|263:27|202:32,1,121.500000463486,2|0,1:2|3:0,0:0:0:0:
0,0,186096,1,2,1:2:0:0:
0,0,186376,6,0,B|11:117|11:117|8:122|8:122|18:241,1,243.000000926971,4|2,3:1|0:2,0:0:0:0:
167,355,186794,2,0,B|113:329|113:329|52:334,1,121.500000463486,6|0,1:2|0:0,0:0:0:0:
8,124,187073,1,6,1:2:0:0:
119,298,187213,1,2,3:2:0:0:
135,121,187352,2,8,L|130:181,1,60.7500002317429,8|8,0:3|0:3,0:3:0:0:
23,301,187492,2,4,L|18:240,1,60.7500002317429,4|4,0:3|0:3,0:3:0:0:
71,44,187631,5,6,1:2:0:0:
203,252,187771,2,0,B|229:198|229:198|224:137,1,121.500000463486,2|0,3:2|1:0,0:0:0:0:
395,0,188050,1,2,3:3:0:0:
395,0,188329,1,2,3:3:0:0:
318,384,188608,6,0,B|329:267|329:267|326:262|326:262|336:143,1,243.000000926971,4|2,3:1|0:2,0:0:0:0:
424,0,189027,2,0,L|434:121,1,121.500000463486,4|0,1:3|3:0,0:0:0:0:
512,317,189306,2,0,L|501:195,1,121.500000463486,4|0,1:3|3:0,0:0:0:0:
336,143,189585,2,0,L|325:264,1,121.500000463486,4|0,1:3|3:0,0:0:0:0:
322,294,189794,1,0,3:0:0:0:
319,324,189864,1,4,1:3:0:0:
223,136,190003,1,2,3:3:0:0:
223,136,190283,1,2,3:3:0:0:
223,136,190562,1,2,3:3:0:0:
223,136,190841,6,0,B|216:211|216:211|218:215|218:215|174:278,1,157.500001502037,6|0,3:2|0:2,0:0:0:0:
42,262,191050,2,0,B|49:187|49:187|47:183|47:183|91:120,1,157.500001502037,6|0,3:2|0:2,0:0:0:0:
232,246,191259,2,0,B|163:277|163:277|161:281|161:281|84:274,1,157.500001502037,6|0,3:2|0:2,0:0:0:0:
33,152,191469,2,0,B|101:120|101:120|103:116|103:116|180:123,1,157.500001502037,6|0,3:2|0:2,0:0:0:0:
142,309,191678,2,0,B|80:265|80:265|76:265|76:265|43:195,1,157.500001502037,6|0,3:2|0:2,0:0:0:0:
123,89,191887,2,0,B|184:132|184:132|189:132|189:132|221:202,1,157.500001502037,6|0,3:2|0:2,0:0:0:0:
142,309,192096,5,2,0:2:0:0:
142,309,192376,1,2,0:2:0:0:
142,340,192794,6,0,B|217:346|217:346|220:349|220:349|296:355,1,157.500001502037,6|0,3:3|0:2,0:0:0:0:
