osu file format v14

[General]
AudioFilename: audio.mp3
AudioLeadIn: 0
PreviewTime: 57027
Countdown: 0
SampleSet: Soft
StackLeniency: 0.6
Mode: 0
LetterboxInBreaks: 1
WidescreenStoryboard: 1

[Editor]
Bookmarks: 13494,21169,22285,26750,31215,35681,40143,40146,44610,49076,51448,53541,58006,80471,84936,89401,98192,102657,107122,116053,120657,124983,129587,131820,133913,156378,160704,169634,175355,184146,190843
DistanceSpacing: 1
BeatDivisor: 4
GridSize: 32
TimelineZoom: 2.35

[Metadata]
Title:Tenohira de odoru
TitleUnicode:掌で踊る
Artist:sokoninaru
ArtistUnicode:そこに鳴る
Creator:Smokeman
Version:Celektus' Novice
Source:
Tags:ゼロ zero KOGA RECORDS j-pop j-rock japanese metal alternative indie rock math-rock celektus knightc0re knightcore
BeatmapID:2060872
BeatmapSetID:902587

[Difficulty]
HPDrainRate:3
CircleSize:2
OverallDifficulty:3
ApproachRate:4.8
SliderMultiplier:1.00000000596046
SliderTickRate:1

[Events]
//Background and Video events
0,0,"TenohiraBG.jpg",0,0
//Break Periods
2,306,3236
2,26957,29887
2,44817,47748
2,116259,119329
2,129515,130492
2,160910,163841
//Storyboard Layer 0 (Background)
//Storyboard Layer 1 (Fail)
//Storyboard Layer 2 (Pass)
//Storyboard Layer 3 (Foreground)
//Storyboard Layer 4 (Overlay)
//Storyboard Sound Samples

[TimingPoints]
97,279.06976744186,4,2,1,60,1,0
236,-100,4,2,2,30,0,0
4562,-100,4,2,1,60,0,0
5259,-100,4,2,1,40,0,0
6794,-100,4,2,1,60,0,0
7492,-100,4,2,1,50,0,0
9027,-100,4,2,1,60,0,0
13492,-100,4,2,1,70,0,0
25771,-100,4,2,1,40,0,0
26469,-100,4,2,1,60,0,0
26748,-100,4,2,1,20,0,0
30794,-100,4,2,1,50,0,0
31213,-100,4,2,1,60,0,0
53538,-100,4,2,1,70,0,0
55771,-100,4,2,1,60,0,0
57027,-100,4,2,1,40,0,0
58003,-100,4,2,1,80,0,1
61352,-100,4,2,1,80,0,0
62469,-100,4,2,1,80,0,1
66376,-100,4,2,1,80,0,0
66934,-100,4,2,1,80,0,1
70283,-100,4,2,1,80,0,0
71399,-100,4,2,1,80,0,1
75306,-100,4,2,1,80,0,0
75864,-100,4,2,1,80,0,1
80190,-100,4,2,1,80,0,0
80469,-100,4,2,1,80,0,1
82701,-100,4,2,1,50,0,1
84934,-100,4,2,1,40,0,0
89120,-100,4,2,1,60,0,0
89399,-100,4,2,1,70,0,0
98190,-100,4,2,1,60,0,0
106422,-100,4,2,1,40,0,0
107120,-100,4,2,1,70,0,0
107538,-100,4,2,1,70,0,0
107817,-100,4,2,1,70,0,0
108655,-100,4,2,1,70,0,0
109771,-100,4,2,1,70,0,0
110050,-100,4,2,1,70,0,0
120655,-100,4,2,1,40,0,0
124841,-100,4,2,1,60,0,0
129585,-100,4,2,1,30,0,0
131817,-100,4,2,1,70,0,0
131992,-100,4,2,1,70,0,0
132166,-100,4,2,1,70,0,0
132341,-100,4,2,1,70,0,0
132515,-100,4,2,1,70,0,0
132690,-100,4,2,1,70,0,0
132864,-100,4,2,1,70,0,0
133038,-100,4,2,1,70,0,0
133213,-100,4,2,1,70,0,0
133910,-100,4,2,1,80,0,1
137259,-100,4,2,1,80,0,0
138376,-100,4,2,1,80,0,1
142283,-100,4,2,1,80,0,0
142841,-100,4,2,1,80,0,1
146190,-100,4,2,1,80,0,0
147306,-100,4,2,1,80,0,1
151213,-100,4,2,1,80,0,0
151771,-100,4,2,1,80,0,1
160701,-100,4,2,1,50,0,0
169073,-100,4,2,1,70,0,0
172701,-100,4,2,1,100,0,0
173120,-100,4,2,1,20,0,0
173352,-100,4,2,1,20,0,0
173585,-100,4,2,1,20,0,0
173957,-100,4,2,1,80,0,0
174027,-100,4,2,2,30,0,0
175073,-100,4,2,1,60,0,0
175352,-100,4,2,1,70,0,0
184143,-100,4,2,1,40,0,0
185399,-100,4,2,1,50,0,0
186376,-100,4,2,1,70,0,0
189027,-100,4,2,1,50,0,0
190003,-100,4,2,1,70,0,0
190841,-100,4,2,1,80,0,0
191050,-100,4,2,1,80,0,0
191259,-100,4,2,1,80,0,0
191469,-100,4,2,1,80,0,0
191678,-100,4,2,1,80,0,0
191887,-100,4,3,1,80,0,0
192096,-100,4,2,1,30,0,0
192794,-100,4,2,1,80,0,0

[Colours]
Combo1 : 192,192,192
Combo2 : 0,255,255
Combo3 : 128,255,255

[HitObjects]
512,226,97,5,6,1:3:0:0:
104,261,4562,5,6,1:2:0:0:
74,121,4980,5,6,1:2:0:0:
27,32,5259,2,0,B|54:29|74:15|74:15|130:23|158:60|158:60|217:62|254:33|254:33|309:42|338:82|338:82|394:90|432:58|432:58|475:82|500:130,1,550.000003278253,0|6,1:2|1:2,3:0:0:0:
498,279,7213,5,6,1:2:0:0:
506,378,7492,2,0,B|455:373|455:373|380:310|380:310|281:290|281:290|207:221|207:221|109:211|109:211|35:136,1,550.000003278253,2|4,0:2|1:3,0:0:0:0:
51,91,9166,6,0,P|221:106|355:0,1,350.000002086161,4|0,1:3|1:2,0:3:0:0:
450,31,10422,2,0,P|447:80|458:129,2,100.000000596046,8|0|0,0:3|3:0|3:0,0:0:0:0:
355,0,11259,5,6,1:2:0:0:
358,150,11678,1,6,1:2:0:0:
361,300,12096,1,6,1:2:0:0:
292,372,12376,2,0,P|249:349|192:334,1,100.000000596046,8|6,0:3|1:3,0:0:0:0:
1,312,13213,1,12,0:3:0:0:
0,212,13492,6,0,L|99:203,1,100.000000596046,6|2,3:2|1:2,0:0:0:0:
127,107,14050,1,0,3:0:0:0:
271,66,14469,2,0,L|420:78,1,150.000000894069,0|6,1:0|1:2,3:0:0:0:
422,177,15166,1,8,0:3:0:0:
510,225,15445,1,2,1:2:0:0:
504,324,15724,6,0,L|404:332,1,100.000000596046,6|2,3:2|1:2,0:0:0:0:
316,379,16282,1,2,3:2:0:0:
165,382,16701,2,0,L|177:232,1,150.000000894069,2|2,1:2|1:2,3:0:0:0:
276,228,17398,1,2,3:2:0:0:
329,143,17677,1,2,1:2:0:0:
276,59,17957,6,0,L|177:68,1,100.000000596046,6|2,3:2|1:2,0:0:0:0:
80,40,18515,1,2,3:2:0:0:
76,190,18934,2,0,L|64:340,1,150.000000894069,0|6,1:0|1:2,3:0:0:0:
158,370,19631,1,4,0:3:0:0:
252,338,19910,1,2,1:2:0:0:
345,374,20190,6,0,L|444:365,1,100.000000596046,6|2,1:2|1:2,0:0:0:0:
499,281,20748,2,0,B|487:231|487:231|505:186|505:186|491:137,1,150.000000894069,2|2,1:2|3:3,3:0:0:0:
408,82,21445,2,0,P|451:45|497:38,2,100.000000596046,2|2|2,3:3|3:3|3:3,0:0:0:0:
397,181,22283,6,0,P|332:146|309:76,1,150.000000894069,4|6,3:1|1:2,0:0:0:0:
218,35,22980,2,0,P|180:66|131:76,1,100.000000596046,6|8,1:2|0:3,0:0:0:0:
34,52,23538,1,6,1:2:0:0:
0,198,23957,2,0,L|99:206,1,100.000000596046,2|2,3:3|3:3,0:0:0:0:
71,302,24515,6,0,B|179:311|179:311|236:289|231:343|288:321|288:321|345:298|340:353|397:330|397:330|454:308|449:362|506:340|506:340,1,450.000002682207,6|2,3:2|3:2,0:0:0:0:
504,340,26469,1,6,3:2:0:0:
492,240,26748,5,2,0:2:0:0:
512,186,31213,5,6,3:2:0:0:
372,132,31631,2,0,L|380:32,1,100.000000596046,2|2,1:2|1:2,0:0:0:0:
280,23,32190,2,0,L|271:122,1,100.000000596046,2|2,1:2|1:2,0:0:0:0:
170,114,32748,2,0,L|178:14,2,100.000000596046,2|2|2,1:2|1:2|1:2,0:0:0:0:
123,132,33445,5,6,3:2:0:0:
101,272,33864,2,0,L|1:280,2,100.000000596046,2|2|2,1:2|1:2|1:2,0:0:0:0:
189,319,34701,2,0,P|291:376|386:306,1,250.000001490115,8|2,0:3|0:3,3:0:0:0:
469,364,35678,6,0,P|358:25|100:271,1,850.000005066391,6|6,3:2|3:2,3:0:0:0:
270,375,38608,5,2,1:2:0:0:
391,286,39027,1,2,3:2:0:0:
450,147,39445,2,0,P|478:189|498:235,2,100.000000596046,2|2|2,1:2|1:2|1:2,0:0:0:0:
407,120,40143,5,6,3:2:0:0:
253,113,40561,2,0,L|243:13,1,100.000000596046,2|2,1:2|1:2,0:0:0:0:
144,21,41120,2,0,L|152:120,1,100.000000596046,2|2,1:2|1:2,0:0:0:0:
51,130,41678,2,0,L|41:30,2,100.000000596046,2|2|2,1:2|1:2|1:2,0:0:0:0:
19,169,42376,5,6,3:2:0:0:
122,277,42795,2,0,L|114:377,2,100.000000596046,0|0|2,1:0|1:0|1:2,0:0:0:0:
217,245,43631,2,0,P|293:335|407:306,1,250.000001490115,8|4,0:3|0:3,3:0:0:0:
411,206,44608,5,6,3:2:0:0:
256,192,49073,6,0,P|290:258|345:308,1,150.000000894069,6|2,3:2|1:2,0:0:0:0:
441,337,49771,1,4,0:3:0:0:
503,200,50190,2,0,P|468:133|413:83,1,150.000000894069,6|2,3:2|1:2,0:0:0:0:
318,55,50888,1,4,0:3:0:0:
228,97,51166,2,0,P|184:74|139:92,1,100.000000596046,2|6,1:2|1:2,3:0:0:0:
0,86,53120,5,4,1:3:0:0:
115,181,53538,6,0,P|180:146|203:76,1,150.000000894069,4|6,3:1|1:2,0:0:0:0:
294,35,54235,2,0,P|332:66|381:76,1,100.000000596046,6|8,1:2|0:3,0:0:0:0:
478,52,54793,1,6,1:2:0:0:
512,198,55212,2,0,L|413:206,1,100.000000596046,2|2,3:3|3:3,0:0:0:0:
441,302,55771,6,0,B|333:311|333:311|276:289|281:343|224:321|224:321|167:298|172:353|115:330|115:330|58:308|63:362|6:340|6:340,1,450.000002682207,6|2,3:2|3:2,0:0:0:0:
113,80,58003,6,0,P|56:38|1:81,2,150.000000894069,6|0|0,3:2|1:2|1:0,3:0:0:0:
143,176,59120,2,0,P|101:232|144:287,2,150.000000894069,6|0|0,3:2|1:2|1:0,3:0:0:0:
239,146,60236,2,0,P|295:187|350:144,2,150.000000894069,6|0|0,3:2|1:3|1:0,3:0:0:0:
209,50,61352,6,0,L|309:41,1,100.000000596046,2|2,3:3|3:3,0:0:0:0:
406,59,61910,2,0,L|506:50,1,100.000000596046,2|2,3:3|3:3,0:0:0:0:
498,150,62469,6,0,P|441:197|404:262,1,150.000000894069,6|0,3:2|1:0,0:0:0:0:
422,362,63166,1,2,3:2:0:0:
324,380,63445,1,2,1:2:0:0:
305,282,63724,2,0,P|260:303|231:343,1,100.000000596046,2|2,3:2|1:2,0:0:0:0:
136,376,64283,1,0,3:0:0:0:
38,358,64562,1,0,1:0:0:0:
48,258,64841,6,0,B|147:249|147:249|217:177|217:177|317:169|317:169|387:98,1,400.000002384184,6|6,3:2|3:2,3:0:0:0:
260,17,66376,1,2,3:3:0:0:
161,31,66655,1,2,3:3:0:0:
103,112,66934,6,0,P|33:103|6:168,2,150.000000894069,6|0|0,3:2|1:2|1:0,3:0:0:0:
128,208,68050,2,0,P|197:199|224:264,2,150.000000894069,6|0|8,3:2|1:2|0:3,3:0:0:0:
103,304,69166,2,0,P|33:295|6:360,2,150.000000894069,6|0|0,3:2|1:3|1:0,3:0:0:0:
186,360,70283,6,0,L|286:369,1,100.000000596046,2|2,3:3|3:3,0:0:0:0:
383,351,70841,2,0,L|483:360,1,100.000000596046,2|2,3:3|3:3,0:0:0:0:
499,260,71399,6,0,P|426:240|359:204,1,150.000000894069,6|0,3:2|1:0,0:0:0:0:
285,139,72096,1,2,3:2:0:0:
242,48,72376,1,2,1:2:0:0:
152,93,72655,2,0,P|106:69|54:63,1,100.000000596046,2|2,3:2|1:2,0:0:0:0:
2,146,73213,1,0,3:0:0:0:
1,245,73492,1,0,1:0:0:0:
0,344,73771,6,0,B|99:352|99:352|180:293|180:293|280:303|280:303|363:374,1,400.000002384184,6|14,3:2|0:3,3:0:0:0:
494,309,75306,1,2,3:3:0:0:
478,210,75585,1,2,3:3:0:0:
379,226,75864,6,0,P|366:153|345:73,1,150.000000894069,6|2,3:2|1:2,0:0:0:0:
269,16,76562,1,4,1:3:0:0:
120,33,76980,6,0,P|106:106|85:186,1,150.000000894069,6|2,3:2|1:2,0:0:0:0:
9,243,77678,2,0,P|22:310|96:322,1,150.000000894069,8|6,0:3|3:2,3:0:0:0:
186,204,78515,5,2,1:2:0:0:
285,197,78794,2,0,B|280:248|280:248|248:284|248:284|244:334,1,150.000000894069,4|6,1:3|3:2,3:0:0:0:
389,373,79631,2,0,P|436:370|466:331,2,100.000000596046,8|4|2,0:3|0:3|1:3,0:0:0:0:
382,272,80469,6,0,B|387:205|387:205|424:149|424:149|370:110|370:110|341:49|341:49|280:75|280:75|212:70|212:70|205:135|205:135|167:190|167:190|219:228|219:228|247:289|247:289|188:317|188:317|121:311|121:311,1,800.000004768368,4|6,1:3|0:0,0:0:0:0:
121,311,84934,5,6,3:2:0:0:
25,281,85213,2,0,P|7:208|0:133,1,150.000000894069,2|2,0:2|0:2,0:0:0:0:
140,79,86050,2,0,P|157:151|164:226,2,150.000000894069,2|2|2,0:2|0:2|0:2,0:0:0:0:
509,103,89120,1,12,0:3:0:0:
510,203,89399,6,0,L|411:212,1,100.000000596046,6|2,3:2|1:2,0:0:0:0:
383,308,89957,1,2,3:2:0:0:
239,349,90376,2,0,L|90:337,1,150.000000894069,2|6,1:2|1:2,3:0:0:0:
88,238,91073,1,8,0:3:0:0:
0,190,91352,1,2,1:2:0:0:
6,91,91631,6,0,L|106:83,1,100.000000596046,6|2,3:2|1:3,0:0:0:0:
194,36,92189,1,2,3:3:0:0:
345,33,92608,2,0,L|333:183,1,150.000000894069,2|2,1:2|1:2,3:0:0:0:
234,187,93305,1,2,3:2:0:0:
181,272,93584,1,2,1:2:0:0:
234,356,93864,6,0,L|333:347,1,100.000000596046,6|2,3:2|1:3,0:0:0:0:
430,375,94422,1,2,3:2:0:0:
434,225,94841,2,0,L|446:75,1,150.000000894069,2|2,1:2|1:2,3:0:0:0:
352,45,95538,1,4,0:3:0:0:
258,77,95817,1,2,1:2:0:0:
165,41,96097,6,0,L|66:50,1,100.000000596046,6|2,1:2|1:2,0:0:0:0:
11,134,96655,2,0,B|23:184|23:184|5:229|5:229|19:278,1,150.000000894069,2|2,1:2|3:3,3:0:0:0:
117,290,97352,2,0,L|110:364,2,75.0000004470345,0|0|2,3:0|3:0|1:2,0:0:0:0:
117,138,98190,6,0,B|111:194|183:227|220:179|220:179|171:246|252:325|316:274|316:274|361:339|465:292|435:211|435:211|511:189|497:76|412:75|412:75|412:-8|303:-24|277:53|277:53|160:99|194:1|86:43|86:43,1,1150.00000685453,4|0,3:1|1:0,1:0:0:0:
20,117,101678,2,0,B|9:165|9:165|33:211|33:211|18:258|18:258|35:305|35:305|91:289|142:315|162:356,1,350.000002086161,6|6,0:3|3:2,3:0:0:0:
310,379,103073,6,0,B|313:351|324:329|324:329|349:318|361:295|361:295|355:269|366:247|366:247|391:236|403:213|403:213|396:187|408:165|408:165|432:154|444:131|444:131|438:105|449:82|449:82|474:72|486:49|486:49,1,400.000002384184,2|2,3:3|3:3,3:0:0:0:
398,0,104469,2,0,P|332:20|350:90,1,150.000000894069,2|6,1:2|3:2,3:0:0:0:
478,158,105306,5,2,1:2:0:0:
495,256,105585,1,2,1:2:0:0:
446,343,105864,2,0,P|397:336|359:370,1,100.000000596046,0|2,1:0|0:2,0:0:0:0:
360,366,107120,5,6,3:2:0:0:
210,354,107538,1,6,3:2:0:0:
112,376,107817,2,0,B|91:342|126:339|105:305|105:305|84:271|120:268|99:234,1,150.000000894069,2|6,0:2|3:2,0:0:0:0:
3,118,108655,1,6,3:2:0:0:
33,22,108934,2,0,B|72:20|57:53|97:52|97:52|137:50|122:83|162:82,1,150.000000894069,2|6,0:2|3:2,0:0:0:0:
310,56,109771,1,6,3:2:0:0:
379,130,110050,2,0,B|362:160|343:134|326:165|326:165|309:196|291:171|274:202|274:202|257:232|238:206|221:238|221:238,1,200.000001192092,2|6,0:2|1:3,0:0:0:0:
283,375,111027,1,6,1:3:0:0:
382,376,111306,1,6,1:3:0:0:
421,283,111585,6,0,P|482:248|465:180,1,150.000000894069,4|6,3:2|3:2,3:0:0:0:
379,130,112283,1,2,0:1:0:0:
254,213,112701,2,0,P|315:248|298:316,1,150.000000894069,6|6,0:2|3:2,3:0:0:0:
212,366,113399,1,2,0:1:0:0:
87,283,113817,2,0,P|148:248|131:180,1,150.000000894069,6|6,0:2|3:2,3:0:0:0:
45,128,114515,2,0,P|114:58|205:17,1,200.000001192092,2|6,0:1|1:3,0:0:0:0:
352,48,115492,1,6,1:3:0:0:
444,9,115771,1,6,1:3:0:0:
511,83,116050,5,6,0:2:0:0:
237,30,120655,6,0,B|329:70|329:70|421:31|421:31|512:71|512:71,1,300.000001788138,6|2,3:2|1:2,3:0:0:0:
511,171,121771,2,0,B|420:130|420:130|328:169|328:169|237:129|237:129,1,300.000001788138,2|2,3:2|1:2,3:0:0:0:
237,229,122887,2,0,B|329:269|329:269|421:230|421:230|512:270|512:270,1,300.000001788138,2|2,3:2|1:2,3:0:0:0:
512,370,124003,2,0,B|421:329|421:329|329:368|329:368|238:328|238:328,1,300.000001788138,2|6,3:2|1:2,3:0:0:0:
190,310,124980,6,0,P|56:329|144:227,1,350.000002086161,6|6,3:2|1:2,3:0:0:0:
167,183,126096,2,0,P|107:61|230:114,1,350.000002086161,6|6,3:2|1:2,3:0:0:0:
281,122,127213,2,0,P|377:28|364:161,1,350.000002086161,6|6,3:2|1:2,3:0:0:0:
374,211,128329,2,0,P|492:273|361:303,1,350.000002086161,6|6,3:2|1:2,3:0:0:0:
68,288,131817,6,0,B|130:294|130:294|145:355|145:355|207:361|207:361|233:304|233:304|294:309|294:309|320:252|320:252|383:257|383:257|398:318|398:318,1,500.00000298023,6|6,3:2|3:2,1:0:0:0:
399,319,133910,6,0,P|456:361|511:318,2,150.000000894069,6|0|0,3:2|1:2|1:0,3:0:0:0:
369,223,135027,2,0,P|411:167|368:112,2,150.000000894069,6|0|4,3:2|1:2|0:3,3:0:0:0:
273,253,136143,2,0,P|217:212|162:255,2,150.000000894069,6|0|0,3:2|1:3|1:0,3:0:0:0:
303,349,137259,6,0,L|203:358,1,100.000000596046,2|2,3:3|3:3,0:0:0:0:
106,340,137817,2,0,L|6:349,1,100.000000596046,2|2,3:3|3:3,0:0:0:0:
14,249,138376,6,0,P|71:202|108:137,1,150.000000894069,6|0,3:2|1:0,0:0:0:0:
90,37,139073,1,2,3:2:0:0:
188,19,139352,1,2,1:2:0:0:
207,117,139631,2,0,P|252:96|281:56,1,100.000000596046,0|2,3:0|1:2,0:0:0:0:
376,23,140190,1,0,3:0:0:0:
474,41,140469,1,0,1:0:0:0:
464,141,140748,6,0,B|365:150|365:150|295:222|295:222|195:230|195:230|125:301,1,400.000002384184,0|6,3:0|3:2,3:0:0:0:
252,382,142283,1,2,3:3:0:0:
351,368,142562,1,2,3:3:0:0:
409,287,142841,6,0,P|479:296|506:231,2,150.000000894069,6|0|0,3:2|1:2|1:0,3:0:0:0:
384,191,143957,2,0,P|315:200|288:135,2,150.000000894069,6|0|4,3:2|1:2|0:3,3:0:0:0:
409,95,145073,2,0,P|479:104|506:39,2,150.000000894069,6|0|0,3:2|1:3|1:0,3:0:0:0:
326,39,146190,6,0,L|226:30,1,100.000000596046,2|2,3:3|3:3,0:0:0:0:
129,48,146748,2,0,L|29:39,1,100.000000596046,2|2,3:3|3:3,0:0:0:0:
13,139,147306,6,0,P|86:159|153:195,1,150.000000894069,6|0,3:2|1:0,0:0:0:0:
227,260,148003,1,2,3:2:0:0:
270,351,148283,1,2,1:2:0:0:
360,306,148562,2,0,P|406:330|458:336,1,100.000000596046,2|2,3:2|1:2,0:0:0:0:
510,253,149120,1,0,3:0:0:0:
511,154,149399,1,0,1:0:0:0:
512,55,149678,6,0,B|413:47|413:47|332:106|332:106|232:96|232:96|156:31,1,400.000002384184,8|8,3:3|0:3,3:0:0:0:
18,90,151213,1,2,3:3:0:0:
34,189,151492,1,2,3:3:0:0:
133,173,151771,6,0,P|146:246|167:326,1,150.000000894069,6|2,3:2|1:2,0:0:0:0:
243,382,152469,1,4,1:3:0:0:
392,366,152887,6,0,P|406:293|427:213,1,150.000000894069,6|2,3:2|1:2,0:0:0:0:
503,156,153585,2,0,P|490:89|416:77,1,150.000000894069,8|6,0:3|3:2,3:0:0:0:
326,195,154422,5,2,1:2:0:0:
227,202,154701,2,0,B|232:151|232:151|264:115|264:115|268:65,1,150.000000894069,4|6,1:3|3:2,3:0:0:0:
123,26,155538,2,0,P|76:29|46:68,2,100.000000596046,8|4|2,0:3|0:3|1:3,0:0:0:0:
268,64,156515,5,2,3:3:0:0:
418,76,156934,1,2,3:3:0:0:
482,211,157352,1,2,3:3:0:0:
396,334,157771,1,2,3:3:0:0:
246,321,158190,2,0,P|197:371|134:339,1,150.000000894069,2|6,3:3|3:2,3:0:0:0:
0,12,160701,1,6,0:2:0:0:
324,173,165166,6,0,P|179:213|30:221,1,300.000001788138,2|2,3:3|3:3,0:0:0:0:
0,316,166283,2,0,P|193:362|392:350,1,400.000002384184,2|0,3:3|0:2,0:0:0:0:
425,49,169073,2,0,L|429:0,1,50.000000298023,0|6,3:0|1:2,0:0:0:0:
280,21,169631,5,6,3:2:0:0:
128,15,170050,2,0,P|103:56|56:66,1,100.000000596046,6|2,3:2|3:3,0:0:0:0:
54,65,170887,6,0,B|68:124|110:89|124:148|124:148|138:208|180:172|194:232|194:232|209:291|250:256|276:321|273:370|273:370|326:378,1,450.000002682207,8|2,0:3|3:3,0:0:0:0:
423,353,172422,1,2,3:3:0:0:
487,276,172701,2,0,B|449:240|484:224|446:188,1,100.000000596046,4|4,3:3|3:3,0:0:0:0:
155,380,173957,5,6,1:2:0:0:
0,78,175073,1,12,0:3:0:0:
76,13,175352,6,0,L|175:22,1,100.000000596046,6|2,3:2|1:2,0:0:0:0:
203,118,175910,1,2,3:2:0:0:
353,114,176329,2,0,L|365:263,1,150.000000894069,0|6,1:0|1:2,3:0:0:0:
372,363,177026,1,8,0:3:0:0:
273,380,177305,1,2,1:2:0:0:
193,319,177585,6,0,L|93:311,1,100.000000596046,6|2,3:2|1:2,0:0:0:0:
7,259,178143,1,2,3:2:0:0:
5,110,178561,2,0,L|155:98,1,150.000000894069,2|2,1:2|1:2,3:0:0:0:
199,8,179258,1,2,3:2:0:0:
298,19,179537,1,2,1:2:0:0:
396,36,179817,6,0,L|387:135,1,100.000000596046,6|2,3:2|1:2,0:0:0:0:
465,197,180375,1,2,3:2:0:0:
510,340,180794,2,0,L|360:352,1,150.000000894069,0|6,1:0|1:2,3:0:0:0:
267,314,181491,1,4,0:3:0:0:
179,362,181770,1,2,1:2:0:0:
93,310,182050,6,0,L|102:211,1,100.000000596046,6|2,1:2|1:2,0:0:0:0:
85,111,182608,2,0,L|181:88,1,100.000000596046,2|0,3:3|3:0,0:0:0:0:
271,41,183166,2,0,L|321:126,1,100.000000596046,2|2,1:2|3:3,0:0:0:0:
395,196,183724,2,0,L|329:270,1,100.000000596046,0|2,3:0|1:2,0:0:0:0:
337,320,184143,5,6,3:2:0:0:
0,371,185399,2,0,B|36:339|36:339|27:238,1,150.000000894069,6|0,1:2|1:3,0:0:0:0:
18,137,186096,1,2,1:2:0:0:
115,159,186376,6,0,P|180:124|203:54,1,150.000000894069,4|6,3:1|1:2,0:0:0:0:
294,13,187073,2,0,P|332:44|381:54,1,100.000000596046,6|8,1:2|0:3,0:0:0:0:
478,30,187631,1,6,1:2:0:0:
512,176,188050,2,0,L|413:184,1,100.000000596046,2|2,3:3|3:3,0:0:0:0:
416,283,188608,5,4,3:1:0:0:
288,361,189027,1,4,1:3:0:0:
200,314,189306,1,4,1:3:0:0:
115,366,189585,1,4,1:3:0:0:
27,319,189864,2,0,L|24:260,1,50.000000298023,4|4,1:3|1:3,0:0:0:0:
23,169,190283,1,2,3:3:0:0:
108,116,190562,1,2,3:3:0:0:
115,28,190841,6,0,B|189:21|189:21|196:96|196:96|270:89|270:89|277:164|277:164|352:157|352:157|358:233|358:233,1,450.000002682207,6|2,3:2|0:2,3:0:0:0:
368,332,192376,1,2,0:2:0:0:
510,378,192794,5,6,3:3:0:0:
