osu file format v14

[General]
AudioFilename: audio.mp3
AudioLeadIn: 0
PreviewTime: 57027
Countdown: 0
SampleSet: Soft
StackLeniency: 0.2
Mode: 0
LetterboxInBreaks: 1
WidescreenStoryboard: 1

[Editor]
Bookmarks: 13494,21169,22285,26750,31215,35681,40146,44610,49076,51448,53541,58006,72236,80471,84936,89401,98192,102657,107122,115422,116053,120657,124983,129587,131820,133913,156378,160704,166003,169634,175355,184146,190843
DistanceSpacing: 1.2
BeatDivisor: 4
GridSize: 32
TimelineZoom: 2.949999

[Metadata]
Title:Tenohira de odoru
TitleUnicode:掌で踊る
Artist:sokoninaru
ArtistUnicode:そこに鳴る
Creator:Smokeman
Version:Advanced
Source:
Tags:ゼロ zero KOGA RECORDS j-pop j-rock japanese metal alternative indie rock math-rock celektus knightc0re knightcore
BeatmapID:2064388
BeatmapSetID:902587

[Difficulty]
HPDrainRate:4
CircleSize:3.1
OverallDifficulty:5
ApproachRate:6.5
SliderMultiplier:1.15
SliderTickRate:1

[Events]
//Background and Video events
0,0,"TenohiraBG.jpg",0,0
//Break Periods
2,26948,29819
2,44808,48098
2,89399,96377
2,116250,119680
2,129506,130842
//Storyboard Layer 0 (Background)
//Storyboard Layer 1 (Fail)
//Storyboard Layer 2 (Pass)
//Storyboard Layer 3 (Foreground)
//Storyboard Layer 4 (Overlay)
//Storyboard Sound Samples

[TimingPoints]
97,279.06976744186,4,2,1,60,1,0
97,-100,4,2,1,60,0,0
306,-100,4,2,1,5,0,0
376,-90.9090909090909,4,2,1,30,0,0
4422,-83.3333333333333,4,2,1,30,0,0
4562,-100,4,2,1,60,0,0
5190,-100,4,2,1,5,0,0
5259,-83.3333333333333,4,2,1,40,0,0
6794,-100,4,2,1,60,0,0
7492,-83.3333333333333,4,2,1,50,0,0
9027,-100,4,2,1,60,0,0
11259,-95.2380952380952,4,2,1,60,0,0
11469,-95.2380952380952,4,2,1,40,0,0
11538,-95.2380952380952,4,2,1,60,0,0
11608,-95.2380952380952,4,2,1,40,0,0
11678,-90.9090909090909,4,2,1,60,0,0
11887,-90.9090909090909,4,2,1,40,0,0
11957,-90.9090909090909,4,2,1,60,0,0
12027,-90.9090909090909,4,2,1,40,0,0
12096,-86.9565217391304,4,2,1,60,0,0
12306,-86.9565217391304,4,2,1,40,0,0
12376,-86.9565217391304,4,2,1,60,0,0
12445,-86.9565217391304,4,2,1,40,0,0
12515,-83.3333333333333,4,2,1,60,0,0
12655,-100,4,2,1,60,0,0
13213,-100,4,2,1,60,0,0
13492,-76.9230769230769,4,2,1,70,0,0
13910,-90.9090909090909,4,2,1,70,0,0
17957,-76.9230769230769,4,2,1,70,0,0
18376,-90.9090909090909,4,2,1,70,0,0
21166,-100,4,2,1,70,0,0
22283,-100,4,2,1,70,0,0
22701,-100,4,2,1,70,0,0
22980,-86.9565217391304,4,2,1,70,0,0
23259,-76.9230769230769,4,2,1,70,0,0
23538,-100,4,2,1,70,0,0
23957,-100,4,2,1,70,0,0
24515,-100,4,2,1,70,0,0
25701,-100,4,2,1,5,0,0
25771,-100,4,2,1,40,0,0
26469,-100,4,2,1,60,0,0
26678,-100,4,2,1,5,0,0
26748,-100,4,2,1,20,0,0
30794,-100,4,2,1,50,0,0
31143,-100,4,2,1,5,0,0
31213,-100,4,2,1,60,0,0
31631,-100,4,2,1,60,0,0
35678,-117.647058823529,4,2,1,60,0,0
40143,-100,4,2,1,60,0,0
44608,-142.857142857143,4,2,1,60,0,0
49073,-100,4,2,1,60,0,0
51445,-125,4,2,1,60,0,0
53538,-100,4,2,1,70,0,0
55213,-100,4,2,1,70,0,0
55771,-83.3333333333333,4,2,1,60,0,0
56957,-100,4,2,1,5,0,0
57027,-100,4,2,1,40,0,0
57236,-100,4,2,1,5,0,0
57306,-100,4,2,1,40,0,0
58003,-83.3333333333333,4,2,1,80,0,1
61352,-100,4,2,1,80,0,0
62469,-90.9090909090909,4,2,1,80,0,1
66376,-100,4,2,1,80,0,0
66934,-83.3333333333333,4,2,1,80,0,1
70283,-100,4,2,1,80,0,0
71399,-90.9090909090909,4,2,1,80,0,1
75306,-100,4,2,1,80,0,0
75864,-83.3333333333333,4,2,1,80,0,1
76143,-83.3333333333333,4,2,1,80,0,1
76980,-83.3333333333333,4,2,1,80,0,1
77399,-83.3333333333333,4,2,1,80,0,1
78096,-83.3333333333333,4,2,1,80,0,1
78515,-83.3333333333333,4,2,1,80,0,1
80190,-100,4,2,1,80,0,0
80469,-100,4,2,1,80,0,1
82701,-100,4,2,1,50,0,1
82841,-100,4,2,1,50,0,0
84864,-100,4,2,1,5,0,1
84934,-100,4,2,1,40,0,0
87027,-333.333333333333,4,2,1,30,0,0
87096,-333.333333333333,4,2,2,5,0,0
89120,-100,4,2,1,60,0,0
89399,-76.9230769230769,4,2,1,70,0,0
89817,-90.9090909090909,4,2,1,70,0,0
93864,-76.9230769230769,4,2,1,70,0,0
94283,-90.9090909090909,4,2,1,70,0,0
98190,-111.111111111111,4,2,1,60,0,0
98469,-111.111111111111,4,2,1,60,0,0
101678,-90.9090909090909,4,2,1,60,0,0
101957,-80,4,2,1,60,0,0
102236,-71.4285714285714,4,2,1,60,0,0
102655,-83.3333333333333,4,2,1,60,0,0
103143,-66.6666666666667,4,2,1,60,0,0
105027,-76.9230769230769,4,2,1,60,0,0
106422,-100,4,2,1,40,0,0
107120,-90.9090909090909,4,2,1,70,0,0
107469,-90.9090909090909,4,2,1,5,0,0
107538,-90.9090909090909,4,2,1,70,0,0
107748,-90.9090909090909,4,2,1,5,0,0
107817,-100,4,2,1,70,0,0
108236,-90.9090909090909,4,2,1,70,0,0
108585,-90.9090909090909,4,2,1,5,0,0
108655,-90.9090909090909,4,2,1,70,0,0
108864,-90.9090909090909,4,2,1,5,0,0
108934,-100,4,2,1,70,0,0
109352,-90.9090909090909,4,2,1,70,0,0
109701,-90.9090909090909,4,2,1,5,0,0
109771,-90.9090909090909,4,2,1,70,0,0
109980,-90.9090909090909,4,2,1,5,0,0
110050,-100,4,2,1,70,0,0
110608,-90.9090909090909,4,2,1,70,0,0
111306,-90.9090909090909,4,2,1,70,0,0
111585,-100,4,2,1,70,0,0
112213,-100,4,2,1,5,0,0
112283,-200,4,2,1,70,0,0
112701,-100,4,2,1,70,0,0
113329,-100,4,2,1,5,0,0
113399,-200,4,2,1,70,0,0
113817,-100,4,2,1,70,0,0
114515,-66.6666666666667,4,2,1,70,0,0
115003,-100,4,2,1,70,0,0
115073,-90.9090909090909,4,2,1,70,0,0
115492,-90.9090909090909,4,2,1,70,0,0
115771,-90.9090909090909,4,2,1,70,0,0
116050,-100,4,2,1,70,0,0
120655,-166.666666666667,4,2,1,40,0,0
124841,-100,4,2,1,60,0,0
126096,-100,4,2,1,60,0,0
127213,-90.9090909090909,4,2,1,60,0,0
128329,-76.9230769230769,4,2,1,60,0,0
129585,-100,4,2,1,30,0,0
131817,-100,4,2,1,70,0,0
131922,-100,4,2,1,5,0,0
131992,-100,4,2,1,70,0,0
132096,-100,4,2,1,5,0,0
132166,-100,4,2,1,70,0,0
132271,-100,4,2,1,5,0,0
132341,-100,4,2,1,70,0,0
132445,-100,4,2,1,5,0,0
132515,-100,4,2,1,70,0,0
132620,-100,4,2,1,5,0,0
132690,-100,4,2,1,70,0,0
132794,-100,4,2,1,5,0,0
132864,-100,4,2,1,70,0,0
132969,-100,4,2,1,5,0,0
133038,-100,4,2,1,70,0,0
133143,-100,4,2,1,5,0,0
133213,-100,4,2,1,70,0,0
133422,-100,4,2,1,5,0,0
133910,-83.3333333333333,4,2,1,80,0,1
137259,-100,4,2,1,80,0,0
138376,-90.9090909090909,4,2,1,80,0,1
142283,-100,4,2,1,80,0,0
142841,-83.3333333333333,4,2,1,80,0,1
146190,-100,4,2,1,80,0,0
147306,-90.9090909090909,4,2,1,80,0,1
151213,-100,4,2,1,80,0,0
151771,-83.3333333333333,4,2,1,80,0,1
152050,-83.3333333333333,4,2,1,80,0,1
152887,-83.3333333333333,4,2,1,80,0,1
153166,-83.3333333333333,4,2,1,80,0,1
154003,-83.3333333333333,4,2,1,80,0,1
154283,-83.3333333333333,4,2,1,80,0,1
156376,-142.857142857143,4,2,1,50,0,1
156515,-142.857142857143,4,2,1,80,0,1
156655,-142.857142857143,4,2,1,5,0,1
156794,-142.857142857143,4,2,1,50,0,1
156934,-142.857142857143,4,2,1,80,0,1
157073,-142.857142857143,4,2,1,5,0,1
157213,-142.857142857143,4,2,1,50,0,1
157352,-142.857142857143,4,2,1,80,0,1
157492,-142.857142857143,4,2,1,5,0,1
157631,-142.857142857143,4,2,1,50,0,1
157771,-142.857142857143,4,2,1,80,0,1
157910,-142.857142857143,4,2,1,5,0,1
158050,-142.857142857143,4,2,1,50,0,1
158190,-76.9230769230769,4,2,1,80,0,1
158329,-76.9230769230769,4,2,1,5,0,1
158399,-71.4285714285714,4,2,1,50,0,1
158608,-100,4,2,1,80,0,1
160631,-100,4,2,1,5,0,1
160701,-125,4,2,1,50,0,0
165166,-111.111111111111,4,2,1,50,0,0
166283,-100,4,2,1,50,0,0
167399,-333.333333333333,4,2,1,50,0,0
169073,-100,4,2,1,70,0,0
169631,-90.9090909090909,4,2,1,70,0,0
169980,-90.9090909090909,4,2,1,5,0,0
170050,-90.9090909090909,4,2,1,70,0,0
170329,-222.222222222222,4,2,1,70,0,0
170887,-76.9230769230769,4,2,1,70,0,0
172003,-83.3333333333333,4,2,1,70,0,0
172701,-100,4,2,1,100,0,0
173120,-100,4,2,1,20,0,0
173259,-100,4,2,1,5,0,0
173352,-100,4,2,1,20,0,0
173492,-100,4,2,1,5,0,0
173585,-100,4,2,1,20,0,0
173957,-100,4,2,1,80,0,0
174027,-100,4,2,2,30,0,0
175073,-100,4,2,1,60,0,0
175283,-100,4,2,1,5,0,0
175352,-76.9230769230769,4,2,1,70,0,0
175771,-90.9090909090909,4,2,1,70,0,0
179817,-76.9230769230769,4,2,1,70,0,0
180236,-90.9090909090909,4,2,1,70,0,0
182329,-83.3333333333333,4,2,1,70,0,0
182608,-83.3333333333333,4,2,1,70,0,0
182748,-76.9230769230769,4,2,1,70,0,0
183027,-76.9230769230769,4,2,1,70,0,0
183166,-71.4285714285714,4,2,1,70,0,0
183445,-71.4285714285714,4,2,1,70,0,0
183585,-66.6666666666667,4,2,1,70,0,0
183864,-66.6666666666667,4,2,1,70,0,0
184003,-62.5,4,2,1,70,0,0
184143,-90.9090909090909,4,2,1,40,0,0
185399,-100,4,2,1,50,0,0
185817,-100,4,2,1,50,0,0
186376,-100,4,2,1,70,0,0
186794,-100,4,2,1,70,0,0
187073,-86.9565217391304,4,2,1,70,0,0
187352,-76.9230769230769,4,2,1,70,0,0
187631,-100,4,2,1,70,0,0
188050,-100,4,2,1,70,0,0
188608,-100,4,2,1,70,0,0
189027,-100,4,2,1,50,0,0
189864,-100,4,2,1,50,0,0
190283,-100,4,2,1,70,0,0
190841,-100,4,2,1,80,0,0
190980,-100,4,2,1,5,0,0
191050,-100,4,2,1,80,0,0
191190,-100,4,2,1,5,0,0
191259,-100,4,2,1,80,0,0
191399,-100,4,2,1,5,0,0
191469,-100,4,2,1,80,0,0
191608,-100,4,2,1,5,0,0
191678,-100,4,2,1,80,0,0
191817,-100,4,2,1,5,0,0
191887,-100,4,3,1,80,0,0
192027,-100,4,3,1,5,0,0
192096,-100,4,2,1,30,0,0
192794,-100,4,2,1,80,0,0
192864,-100,4,2,1,5,0,0

[Colours]
Combo1 : 192,192,192
Combo2 : 0,255,255
Combo3 : 128,255,255

[HitObjects]
249,166,97,37,6,1:3:0:0:
103,122,376,6,0,B|125:77|190:75|145:94|181:94|219:126|111:53|214:-6|302:25|174:100|225:102|346:139|224:20|156:-51|516:17|197:50|343:54|394:95|258:-1|403:-4|457:34|469:44,2,379.500011581421,2|2|0,0:0|0:0|0:0,0:0:0:0:
300,152,2329,2,0,B|249:134|249:185|252:228|223:126|213:107|172:298|217:132|170:33|199:375|174:265|144:152|141:172|159:329|133:195|122:147|120:184|118:310|115:344|105:168|100:271|93:368|71:183|67:282|56:238|56:321|65:420|41:240|25:344|29:372,2,379.500011581421,2|2|0,0:2|0:0|0:0,0:0:0:0:
458,211,4422,6,0,L|394:238,1,68.9999978942872,0|6,1:0|1:2,0:0:0:0:
231,302,4980,1,6,1:2:0:0:
101,350,5259,6,0,L|17:326,2,68.9999978942872,0|2|0,1:2|1:2|1:2,0:0:0:0:
231,302,5817,2,0,L|243:217,2,68.9999978942872,0|2|0,1:2|1:2|1:2,0:0:0:0:
357,358,6376,2,0,L|430:345,2,68.9999978942872,0|2|0,1:2|1:2|1:2,0:0:0:0:
303,377,6794,5,6,1:2:0:0:
136,334,7212,1,6,1:2:0:0:
5,294,7492,6,0,P|-8:271|13:167,1,137.999995788574,2|0,0:2|0:0,0:0:0:0:
61,118,7910,2,0,P|48:69|3:43,2,103.499996841431,2|0|0,3:2|0:0|0:0,0:0:0:0:
109,168,8469,2,0,P|165:157|212:191,2,103.499996841431,2|0|0,3:2|0:0|0:0,0:0:0:0:
85,220,9027,6,0,L|97:283,1,57.5,4|4,1:3|1:3,0:0:0:0:
208,339,9445,5,8,0:3:0:0:
256,308,9585,1,8,0:3:0:0:
367,334,9864,1,4,0:3:0:0:
473,291,10143,2,0,L|503:178,1,115,0|8,1:2|0:3,0:0:0:0:
420,109,10701,5,0,3:0:0:0:
364,93,10841,2,0,B|344:135|344:135|372:201,1,115,2|2,0:3|0:3,0:0:0:0:
333,250,11259,2,0,B|312:231|296:218|252:231|228:192,1,120.749996315003,6|0,1:2|3:0,0:0:0:0:
216,255,11678,2,0,B|196:251|180:218|192:176|137:155,1,126.500003860474,6|0,1:2|3:0,0:0:0:0:
106,212,12096,2,0,B|82:172|89:149|109:120|73:84,1,132.250002522469,6|8,1:2|0:3,0:0:0:0:
23,91,12515,1,4,3:3:0:0:
0,26,12655,1,6,1:3:0:0:
256,0,13213,5,12,0:3:0:0:
375,51,13492,2,0,B|403:97|413:155|362:203,1,149.499993156433,6|2,3:2|1:2,0:0:0:0:
335,240,13910,2,0,P|394:232|418:240,1,63.2500019302369,2|0,1:2|3:0,0:0:0:0:
487,321,14329,5,2,1:3:0:0:
438,362,14469,2,0,L|242:328,1,189.750005790711,0|6,1:0|1:2,0:0:0:0:
134,377,15166,1,8,0:3:0:0:
27,308,15445,2,0,L|11:281,2,31.6250009651184,2|0|0,1:2|1:2|1:2,0:0:0:0:
90,302,15724,5,6,3:2:0:0:
208,256,16003,1,2,1:2:0:0:
327,213,16283,2,0,P|340:164|340:139,2,63.2500019302369,2|0|2,3:2|1:0|3:3,0:0:0:0:
362,265,16701,6,0,B|426:269|472:220|472:220|470:179|433:149,1,189.750005790711,2|2,1:2|1:2,0:0:0:0:
334,33,17399,2,0,L|353:162,1,126.500003860474,2|2,3:2|1:2,0:0:0:0:
223,232,17957,6,0,B|251:278|261:336|210:384,1,149.499993156433,6|2,3:2|1:2,0:0:0:0:
158,375,18376,2,0,L|77:356,1,63.2500019302369,2|2,1:2|3:2,0:0:0:0:
0,278,18794,5,2,0:3:0:0:
33,224,18934,2,0,L|220:197,1,189.750005790711,0|6,1:0|1:2,0:0:0:0:
341,236,19631,1,4,0:3:0:0:
463,203,19910,2,0,L|513:184,2,31.6250009651184,2|0|0,1:2|1:2|1:2,0:0:0:0:
448,265,20190,5,6,1:2:0:0:
377,160,20469,1,2,1:2:0:0:
308,60,20748,2,0,P|317:17|336:-9,2,63.2500019302369,2|2|2,1:2|1:2|1:2,0:0:0:0:
266,99,21166,5,2,3:3:0:0:
153,124,21445,1,2,3:3:0:0:
89,219,21724,5,2,3:3:0:0:
202,194,22003,1,2,3:3:0:0:
333,242,22283,6,0,L|456:217,1,115,4|2,3:1|0:2,0:0:0:0:
480,173,22701,2,0,L|403:152,1,57.5,6|0,1:2|0:0,0:0:0:0:
389,101,22980,2,0,L|339:171,1,66.1250012612343,6|0,1:2|0:0,0:0:0:0:
280,180,23259,2,0,L|206:128,1,74.7499965782167,8|4,0:3|0:3,0:0:0:0:
161,130,23538,1,6,1:2:0:0:
143,147,23678,1,2,3:2:0:0:
47,85,23957,5,2,3:3:0:0:
154,42,24236,1,2,3:3:0:0:
261,0,24515,1,6,3:2:0:0:
256,192,24655,12,2,25771,3:2:0:0:
305,319,26469,5,6,3:2:0:0:
305,319,26748,1,2,0:2:0:0:
0,368,30794,6,0,B|7:319|74:295|131:292|159:332,1,172.5,2|6,0:2|3:2,0:0:0:0:
239,377,31492,1,0,3:0:0:0:
290,352,31631,6,0,P|317:288|307:226,1,115,2|2,1:2|1:2,0:0:0:0:
419,199,32190,6,0,P|384:146|322:111,1,115,2|2,1:2|1:2,0:0:0:0:
362,6,32748,6,0,P|298:5|234:37,1,115,2|2,1:2|1:2,0:0:0:0:
154,166,33445,2,0,P|83:140|23:132,1,115,6|0,3:2|3:0,0:0:0:0:
56,190,33864,6,0,P|18:240|20:295,1,115,2|2,1:2|1:2,0:0:0:0:
133,298,34422,6,0,P|154:357|201:385,1,115,2|8,1:2|0:3,0:0:0:0:
265,292,34980,6,0,P|326:306|375:282,1,115,4|0,0:3|1:0,0:0:0:0:
403,237,35399,1,2,3:3:0:0:
379,142,35678,5,6,3:2:0:0:
502,220,36096,2,0,L|515:180,12,24.4375004661083,8|8|4|4|8|8|0|0|8|8|4|4|8,0:3|0:3|0:3|0:3|0:3|0:3|3:3|3:3|0:3|0:3|0:3|0:3|0:3,0:0:0:0:
413,261,37213,2,0,L|400:221,10,24.4375004661083,8|8|4|4|8|8|0|0|8|8|8,0:3|0:3|0:3|0:3|0:3|0:3|3:3|3:3|0:3|0:3|0:3,0:0:0:0:
393,306,38050,1,6,3:2:0:0:
353,334,38190,6,0,P|324:307|253:298,1,97.7500018644333,2|0,0:2|1:3,0:0:0:0:
233,328,38608,2,0,P|215:293|151:260,1,97.7500018644333,2|2,1:2|1:2,0:0:0:0:
123,284,39027,2,0,P|100:293|62:302,2,48.8750009322167,2|2|0,3:2|1:2|1:3,0:0:0:0:
129,235,39445,2,0,P|124:205|90:125,1,97.7500018644333,2|2,1:2|1:2,0:0:0:0:
196,66,40003,2,0,L|188:126,1,48.8750009322167,2|6,1:2|3:2,0:0:0:0:
307,40,40422,1,0,3:0:0:0:
344,84,40562,6,0,P|319:135|309:192,1,115,2|2,1:2|1:2,0:0:0:0:
208,248,41120,6,0,P|236:297|276:338,1,115,2|2,1:2|1:2,0:0:0:0:
384,379,41678,6,0,P|410:353|435:260,1,115,2|2,1:2|1:2,0:0:0:0:
479,113,42376,2,0,P|423:124|347:130,1,115,6|0,3:2|3:0,0:0:0:0:
369,187,42794,6,0,P|307:152|246:142,1,115,2|2,1:2|1:2,0:0:0:0:
212,245,43352,6,0,P|178:262|100:278,2,115,2|8|4,1:2|0:3|0:3,0:0:0:0:
264,143,44190,1,12,0:3:0:0:
281,88,44329,1,4,0:3:0:0:
162,35,44608,5,6,3:2:0:0:
442,267,49073,6,0,L|250:244,1,172.5,6|2,3:2|1:2,0:0:0:0:
196,331,49771,2,0,L|95:270,1,115,4|0,0:3|1:0,0:0:0:0:
40,263,50190,5,6,3:2:0:0:
2,94,50608,2,0,L|135:110,1,115,2|4,1:2|0:3,0:0:0:0:
216,163,51166,2,0,B|222:139|222:139|203:112,2,57.5,2|0|6,1:2|1:2|1:2,0:0:0:0:
329,347,53120,2,0,L|384:333,1,46,4|4,1:3|1:3,0:0:0:0:
237,323,53538,5,4,3:1:0:0:
126,354,53817,5,2,0:2:0:0:
73,329,53957,2,0,P|48:289|37:256,1,57.5,6|0,1:2|0:0,0:0:0:0:
73,230,54236,2,0,P|74:182|66:149,2,57.5,6|2|8,1:2|3:2|0:3,0:0:0:0:
184,256,54794,2,0,P|211:220|220:188,1,57.5,6|2,1:2|3:2,0:0:0:0:
258,101,55213,1,2,3:3:0:0:
366,138,55492,1,2,3:3:0:0:
481,183,55771,6,0,B|526:207|577:308|512:373|457:361|418:345|362:240|312:230|267:265|392:364|347:363|296:357|252:351|239:288|206:279|168:270|106:340,1,551.999983154297,6|0,3:2|0:0,0:0:0:0:
96,269,57027,2,0,L|97:392,1,115,2|2,3:2|3:2,0:0:0:0:
37,96,58003,6,0,B|76:61|155:40|222:61|269:100,1,206.999993682861,6|0,3:2|1:2,0:0:0:0:
353,143,58701,1,4,0:3:0:0:
371,76,58841,1,0,1:0:0:0:
454,186,59120,2,0,B|439:241|389:281|302:317|272:256|285:225,1,206.999993682861,6|0,3:2|1:2,0:0:0:0:
175,191,59817,1,4,0:3:0:0:
140,251,59957,2,0,L|159:339,1,68.9999978942872,0|4,1:0|0:3,0:0:0:0:
111,373,60236,5,6,3:2:0:0:
17,156,60934,2,0,L|71:173,4,34.4999989471436,2|0|0|0|0,1:2|1:0|1:0|1:0|1:0,0:0:0:0:
30,211,61352,5,2,3:3:0:0:
144,222,61631,5,2,3:3:0:0:
257,237,61910,5,2,3:3:0:0:
371,253,62190,5,2,3:3:0:0:
462,165,62469,6,0,B|499:209|476:264|458:244|448:322|502:357,1,189.750005790711,6|0,3:2|1:0,0:0:0:0:
361,365,63166,1,2,3:2:0:0:
239,330,63445,1,2,1:2:0:0:
115,302,63724,2,0,L|49:317,2,63.2500019302369,2|2|2,3:2|0:3|1:2,0:0:0:0:
128,240,64143,2,0,L|69:214,1,63.2500019302369,2|0,0:3|3:0,0:0:0:0:
95,156,64422,2,0,L|153:131,1,63.2500019302369,2|0,0:3|1:0,0:0:0:0:
284,116,64841,6,0,L|263:18,2,94.8750028953553,6|0|2,3:2|0:0|1:3,0:0:0:0:
340,144,65399,2,0,L|367:36,2,94.8750028953553,2|0|2,3:2|0:0|1:3,0:0:0:0:
394,176,65957,1,6,3:2:0:0:
468,278,66236,1,2,1:3:0:0:
359,316,66515,2,0,L|377:378,1,57.5,0|2,0:0|3:3,0:0:0:0:
239,342,66934,6,0,B|227:318|193:253|93:283|55:306,1,206.999993682861,6|0,3:2|1:2,0:0:0:0:
8,175,67631,1,4,0:3:0:0:
75,188,67771,1,0,1:0:0:0:
171,279,68050,2,0,B|183:243|227:199|297:206|350:228,1,206.999993682861,6|0,3:2|1:2,0:0:0:0:
443,131,68748,1,8,0:3:0:0:
451,199,68887,2,0,L|485:274,1,68.9999978942872,8|4,0:3|0:3,0:0:0:0:
512,322,69166,6,0,B|495:301|436:236|336:209,1,206.999993682861,6|8,3:2|0:3,0:0:0:0:
233,123,69864,2,0,L|217:62,4,34.4999989471436,2|0|0|0|0,1:2|1:0|1:0|1:0|1:0,0:0:0:0:
189,161,70283,5,2,3:3:0:0:
154,270,70562,5,2,3:3:0:0:
56,330,70841,5,2,3:3:0:0:
23,219,71121,5,2,3:3:0:0:
135,275,71399,6,0,B|143:284|206:358|224:296|271:322|305:381,1,189.750005790711,6|0,3:2|1:0,0:0:0:0:
357,351,71957,2,0,P|368:305|368:265,1,63.2500019302369,2|2,0:3|3:2,0:0:0:0:
485,237,72376,2,0,P|458:205|440:168,1,63.2500019302369,2|2,1:2|0:3,0:0:0:0:
388,164,72655,2,0,P|374:123|373:79,2,63.2500019302369,2|2|2,3:2|0:3|1:2,0:0:0:0:
274,219,73073,2,0,L|288:84,1,126.500003860474,2|2,0:3|0:3,0:0:0:0:
154,168,73631,5,2,0:3:0:0:
117,220,73771,2,0,P|75:219|50:228,2,63.2500019302369,6|2|2,3:2|3:3|3:2,0:0:0:0:
84,342,74329,2,0,P|46:320|16:285,2,63.2500019302369,8|6|2,0:3|3:3|1:2,0:0:0:0:
208,319,74887,1,14,0:3:0:0:
332,296,75166,1,0,1:3:0:0:
456,273,75445,2,0,L|474:208,1,57.5,0|2,0:0|3:3,0:0:0:0:
430,85,75864,6,0,P|364:52|228:56,1,206.999993682861,6|2,3:2|1:2,0:0:0:0:
197,187,76562,2,0,L|217:269,2,68.9999978942872,4|4|4,1:3|1:3|1:3,0:0:0:0:
157,130,76980,6,0,P|66:141|-14:226,1,206.999993682861,6|2,3:2|1:2,0:0:0:0:
59,339,77678,2,0,L|26:392,3,34.4999989471436,8|8|4|4,0:3|0:3|0:3|0:3,0:0:0:0:
144,361,78096,6,0,P|221:312|348:323,1,206.999993682861,6|2,3:2|1:2,0:0:0:0:
464,271,78794,1,4,1:3:0:0:
398,248,78934,2,0,L|362:184,1,68.9999978942872,4|4,1:3|1:3,0:0:0:0:
300,213,79213,6,0,P|269:145|274:13,1,206.999993682861,6|8,3:2|0:3,0:0:0:0:
462,370,80469,6,0,L|358:328,1,76.6666666666667,4|4,1:3|3:3,0:0:0:0:
384,313,80841,6,0,L|280:290,1,76.6666666666667,4|4,1:3|3:3,0:0:0:0:
281,264,81213,6,0,L|179:224,1,76.6666666666667,4|4,1:3|3:3,0:0:0:0:
207,205,81585,6,0,L|98:181,1,76.6666666666667,4|4,1:3|3:3,0:0:0:0:
107,157,81957,6,0,L|4:116,1,76.6666666666667,4|4,1:3|3:3,0:0:0:0:
0,128,82329,6,0,L|66:86,1,76.6666666666667,4|4,1:3|3:3,0:0:0:0:
144,67,82700,5,6,0:0:0:0:
189,288,84934,6,0,B|168:353|85:369|21:384|3:311|-19:212|-32:153|246:9|414:-80|485:157|500:215|477:226|356:295|326:259|300:225|326:157|414:202,1,805,6|2,3:2|0:2,0:0:0:0:
303,344,89120,1,12,0:3:0:0:
457,211,97352,5,0,3:0:0:0:
494,298,97562,1,0,3:0:0:0:
406,334,97771,5,2,1:2:0:0:
256,384,98190,5,4,3:1:0:0:
111,329,98608,6,0,L|176:318,4,51.7499984207154,0|8|4|4|0,1:2|0:3|0:3|0:3|1:2,0:0:0:0:
27,268,99445,1,4,0:3:0:0:
109,205,99724,2,0,L|175:222,4,51.7499984207154,0|8|4|4|0,1:0|0:3|0:3|0:3|1:0,0:0:0:0:
97,101,100562,1,4,0:3:0:0:
197,77,100841,2,0,L|225:120,4,51.7499984207154,0|8|4|4|0,1:0|0:3|0:3|0:3|1:0,0:0:0:0:
312,24,101678,6,0,B|309:58|309:58|297:103,2,63.2500019302369,6|6|2,0:3|0:3|1:3,0:0:0:0:
436,125,102236,2,0,P|449:151|468:177,4,40.2499987716675,2|0|0|0|0,1:2|1:0|1:0|1:0|1:0,0:0:0:0:
490,81,102655,2,0,L|285:145,1,206.999993682861,6|2,3:2|3:3,0:0:0:0:
280,148,103143,6,0,L|227:321,1,172.500006580353,0|0,1:0|1:0,0:0:0:0:
63,257,103701,2,0,L|240:217,1,172.500006580353,0|0,1:0|1:0,0:0:0:0:
421,257,104259,2,0,L|314:220,1,86.2500032901765,0|0,1:0|1:0,0:0:0:0:
279,281,104538,2,0,L|305:341,3,43.1250016450883,0|0|0|0,1:0|1:0|1:0|1:0,0:0:0:0:
231,220,104887,6,0,L|39:186,1,172.500006580353,6|0,3:2|3:3,0:0:0:0:
29,118,105306,2,0,L|127:100,1,74.7499965782167,2|0,1:2|3:0,0:0:0:0:
166,56,105585,2,0,L|263:40,1,74.7499965782167,2|0,1:2|3:0,0:0:0:0:
313,74,105864,2,0,L|382:85,3,37.3749982891084,0|0|0|0,1:0|1:0|1:0|1:0,0:0:0:0:
175,198,107120,6,0,P|122:163|60:156,1,126.500003860474,6|0,3:2|0:0,0:0:0:0:
13,198,107538,2,0,P|11:238|24:277,1,63.2500019302369,6|0,3:2|0:0,0:0:0:0:
283,302,108236,6,0,P|335:267|397:260,1,126.500003860474,6|0,3:2|0:0,0:0:0:0:
460,254,108655,2,0,P|444:291|443:332,1,63.2500019302369,6|0,3:2|0:0,0:0:0:0:
193,364,109352,6,0,P|142:327|114:271,1,126.500003860474,6|0,3:2|0:0,0:0:0:0:
172,245,109771,2,0,P|153:281|123:309,1,63.2500019302369,6|0,3:2|0:0,0:0:0:0:
9,34,110608,6,0,L|79:55,1,63.2500019302369,6|2,1:3|3:2,0:0:0:0:
196,41,111027,2,0,L|182:123,1,63.2500019302369,6|0,1:3|3:0,0:0:0:0:
215,159,111306,2,0,L|268:116,1,63.2500019302369,6|0,1:3|3:0,0:0:0:0:
320,133,111585,6,0,L|363:142,4,28.75,4|0|0|0|0,3:2|3:0|3:0|3:0|3:0,0:0:0:0:
399,93,112003,2,0,L|371:222,1,115,6|2,3:2|0:1,0:0:0:0:
236,308,112701,6,0,L|191:317,4,28.75,6|0|0|0|0,0:2|3:0|3:0|3:0|3:0,0:0:0:0:
281,343,113120,2,0,L|161:316,1,115,6|2,3:2|0:1,0:0:0:0:
29,217,113817,6,0,L|38:253,4,28.75,6|0|0|0|0,0:2|3:0|3:0|3:0|3:0,0:0:0:0:
69,258,114236,2,0,L|89:179,1,57.5,6|0,3:2|0:0,0:0:0:0:
113,121,114515,6,0,B|156:90|203:105|215:122|192:141|255:154|316:166|365:120|346:56|332:52,1,258.75000987053,2|0,0:1|0:0,0:0:0:0:
368,30,115073,6,0,L|390:117,1,63.2500019302369,6|2,1:3|3:2,0:0:0:0:
489,161,115492,2,0,L|435:127,1,63.2500019302369,6|0,1:3|3:0,0:0:0:0:
391,172,115771,2,0,L|444:235,1,63.2500019302369,6|0,1:3|3:0,0:0:0:0:
438,277,116050,1,6,0:2:0:0:
456,359,120655,6,0,B|428:312|351:286|325:314,1,137.999995788574,6|2,3:2|1:2,0:0:0:0:
205,344,121771,2,0,B|174:357|114:337|86:290,1,137.999995788574,2|2,3:2|1:2,0:0:0:0:
40,161,122887,6,0,B|41:109|92:37|119:58,1,137.999995788574,2|2,3:2|1:2,0:0:0:0:
236,112,124003,2,0,B|292:115|367:67|336:39,1,137.999995788574,2|2,3:2|1:2,0:0:0:0:
427,124,124841,6,0,L|398:204,1,57.5,6|6,1:2|3:2,0:0:0:0:
331,264,125259,2,0,L|322:296,5,28.75,8|8|8|8|0|0,3:3|0:3|0:3|0:3|3:0|3:0,0:0:0:0:
294,297,125678,2,0,L|290:346,3,28.75,4|4|0|0,0:3|0:3|3:0|0:0,0:0:0:0:
275,348,125957,6,0,L|197:334,1,57.5,6|6,1:2|3:2,0:0:0:0:
103,325,126376,2,0,L|85:301,5,28.75,8|0|8|0|0|0,3:3|0:0|0:3|0:0|3:0|3:0,0:0:0:0:
60,287,126794,2,0,L|55:258,3,28.75,4|4|0|0,0:3|0:3|3:0|3:0,0:0:0:0:
55,229,127073,6,0,L|102:166,1,57.5,6|6,1:2|3:2,0:0:0:0:
146,69,127492,2,0,L|200:77,5,31.6250009651184,8|8|8|8|0|0,3:3|0:3|0:3|0:3|3:0|3:0,0:0:0:0:
203,91,127910,2,0,L|256:75,3,31.6250009651184,4|4|0|0,0:3|0:3|3:0|3:0,0:0:0:0:
262,67,128190,6,0,L|337:76,1,63.2500019302369,6|6,1:2|3:2,0:0:0:0:
437,172,128608,2,0,L|428:208,5,37.3749982891084,8|8|8|8|0|0,3:3|0:3|0:3|0:3|3:0|3:0,0:0:0:0:
396,228,129027,2,0,L|344:277,3,37.3749982891084,4|4|0|0,0:3|0:3|3:0|0:0,0:0:0:0:
356,289,129306,5,6,1:2:0:0:
59,248,131817,6,0,L|133:271,1,71.875,6|6,3:2|3:2,0:0:0:0:
150,314,132166,6,0,L|223:274,1,71.875,6|6,3:2|3:2,0:0:0:0:
266,296,132515,6,0,L|288:220,1,71.875,6|6,3:2|3:2,0:0:0:0:
344,190,132864,6,0,L|318:121,1,71.875,6|6,3:2|3:2,0:0:0:0:
338,52,133213,5,6,3:2:0:0:
7,94,133910,6,0,B|79:114|117:57|150:34|219:32,1,206.999993682861,6|0,3:2|1:2,0:0:0:0:
338,52,134608,1,4,0:3:0:0:
403,74,134748,1,0,1:0:0:0:
441,206,135027,2,0,B|407:168|291:112|242:137,1,206.999993682861,6|0,3:2|1:2,0:0:0:0:
156,229,135724,1,8,0:3:0:0:
216,263,135864,2,0,L|291:248,1,68.9999978942872,4|4,0:3|0:3,0:0:0:0:
350,268,136143,5,6,3:2:0:0:
11,335,136841,2,0,L|20:284,4,34.4999989471436,2|0|0|0|0,1:2|1:0|1:0|1:0|1:0,0:0:0:0:
63,358,137259,5,2,3:3:0:0:
105,251,137538,5,2,3:3:0:0:
92,136,137817,5,2,3:3:0:0:
29,38,138097,5,2,3:3:0:0:
169,0,138376,6,0,B|130:36|133:100|148:85|162:71|139:169|85:170,1,189.750005790711,6|0,3:2|1:0,0:0:0:0:
49,281,139073,1,2,3:2:0:0:
170,244,139352,1,2,1:2:0:0:
295,229,139631,2,0,L|386:237,2,63.2500019302369,0|2|2,3:0|0:3|1:2,0:0:0:0:
272,169,140050,2,0,L|346:124,1,63.2500019302369,2|0,0:3|3:0,0:0:0:0:
344,75,140329,2,0,L|420:108,1,63.2500019302369,2|0,0:3|1:0,0:0:0:0:
474,204,140748,6,0,L|507:111,2,94.8750028953553,0|0|2,3:0|0:0|1:3,0:0:0:0:
440,257,141306,2,0,L|464:348,2,94.8750028953553,0|0|2,3:0|0:0|1:3,0:0:0:0:
377,249,141864,2,0,P|342:257|302:283,2,63.2500019302369,6|8|2,3:2|0:3|1:3,0:0:0:0:
351,197,142283,1,2,3:3:0:0:
300,351,142562,1,2,3:3:0:0:
164,379,142841,6,0,B|120:354|68:339|68:339|44:285|12:252,1,206.999993682861,6|0,3:2|1:2,0:0:0:0:
103,149,143538,1,4,0:3:0:0:
100,218,143678,1,0,1:0:0:0:
209,301,143957,2,0,P|281:219|308:116,1,206.999993682861,6|0,3:2|1:2,0:0:0:0:
202,36,144655,1,8,0:3:0:0:
228,99,144794,2,0,L|208:197,1,68.9999978942872,4|4,0:3|0:3,0:0:0:0:
245,228,145073,6,0,B|264:248|314:300|410:289|435:252,1,206.999993682861,6|8,3:2|0:3,0:0:0:0:
490,131,145771,2,0,L|444:147,4,34.4999989471436,2|0|0|0|0,1:2|1:0|1:0|1:0|1:0,0:0:0:0:
436,109,146190,5,2,3:3:0:0:
360,22,146469,5,2,3:3:0:0:
262,83,146748,5,2,3:3:0:0:
160,29,147027,5,2,3:3:0:0:
40,69,147306,6,0,B|38:81|7:168|7:168|7:178|-4:280,1,189.750005790711,6|0,3:2|1:0,0:0:0:0:
58,274,147864,2,0,P|109:274|141:285,1,63.2500019302369,2|2,0:3|3:2,0:0:0:0:
189,383,148283,2,0,P|203:343|226:309,1,63.2500019302369,2|2,1:2|0:3,0:0:0:0:
272,300,148562,5,2,3:2:0:0:
330,324,148701,2,0,P|361:331|410:321,1,63.2500019302369,2|2,0:3|1:2,0:0:0:0:
452,311,148980,1,2,0:3:0:0:
381,205,149259,1,2,0:3:0:0:
451,100,149538,5,2,0:3:0:0:
492,148,149678,2,0,P|473:185|468:235,1,63.2500019302369,8|6,3:3|3:3,0:0:0:0:
428,255,149957,2,0,P|386:258|339:278,1,63.2500019302369,0|2,1:0|3:3,0:0:0:0:
327,314,150236,2,0,P|308:275|273:238,1,63.2500019302369,8|6,3:3|3:3,0:0:0:0:
240,228,150515,2,0,P|200:239|165:260,1,63.2500019302369,8|2,1:3|3:3,0:0:0:0:
130,288,150794,1,8,0:3:0:0:
32,207,151073,1,0,0:0:0:0:
52,153,151213,2,0,P|74:109|91:91,1,57.5,2|0,3:3|0:0,0:0:0:0:
136,90,151492,2,0,P|152:66|164:40,1,57.5,2|0,3:3|0:0,0:0:0:0:
227,13,151771,6,0,P|191:92|121:190,1,206.999993682861,6|2,2:2|1:2,0:0:0:0:
164,320,152469,2,0,L|77:349,2,68.9999978942872,4|4|4,1:3|1:3|1:3,0:0:0:0:
225,350,152887,6,0,P|273:277|371:192,1,206.999993682861,6|2,2:2|1:2,0:0:0:0:
487,139,153585,2,0,L|539:118,4,34.4999989471436,8|8|4|4|4,0:3|0:3|0:3|0:3|0:3,0:0:0:0:
468,205,154003,6,0,P|390:162|273:134,1,206.999993682861,6|2,3:2|1:2,0:0:0:0:
181,235,154701,1,4,1:3:0:0:
119,202,154841,2,0,P|74:207|30:219,1,68.9999978942872,4|4,1:3|1:3,0:0:0:0:
0,166,155120,6,0,P|-19:86|82:21,1,206.999993682861,6|8,3:2|0:3,0:0:0:0:
205,47,155817,2,0,L|257:56,3,34.4999989471436,4|4|4|4,0:3|0:3|0:3|0:3,0:0:0:0:
265,31,156096,1,2,1:3:0:0:
371,155,156515,6,0,L|368:209,1,40.2499987716675,2|0,3:3|0:0,0:0:0:0:
289,180,156934,6,0,L|286:226,1,40.2499987716675,2|0,3:3|0:0,0:0:0:0:
209,239,157352,6,0,L|206:189,1,40.2499987716675,2|0,3:3|0:0,0:0:0:0:
127,214,157771,6,0,L|124:162,1,40.2499987716675,2|0,3:3|0:0,0:0:0:0:
13,274,158190,6,0,L|10:326,2,37.3749982891084,2|0|8,3:3|0:0|0:3,0:0:0:0:
34,243,158399,2,0,B|57:269|57:269|67:283,2,40.2499987716675,8|0|0,0:3|1:3|1:3,0:0:0:0:
40,214,158608,1,6,3:2:0:0:
512,192,160701,5,0,0:0:0:0:
381,236,161120,2,0,B|375:282|375:282|383:343,2,92,2|2|2,0:3|0:3|0:3,0:0:0:0:
343,152,161957,2,0,B|349:106|349:106|341:45,2,92,2|2|2,0:3|0:3|0:3,0:0:0:0:
297,191,162655,1,0,3:0:0:0:
182,224,162934,1,0,3:3:0:0:
78,314,163352,6,0,B|41:285|41:285|-15:262,2,92,2|2|2,0:3|0:3|0:3,0:0:0:0:
164,344,164189,2,0,B|205:322|205:322|265:309,2,92,2|2|2,0:3|0:3|0:3,0:0:0:0:
110,172,165166,6,0,P|101:195|100:237,2,51.7499984207154,2|0|2,3:3|0:0|0:2,0:0:0:0:
77,131,165585,2,0,P|121:98|154:47,1,103.499996841431,2|2,0:2|0:2,0:0:0:0:
199,48,166003,1,2,3:3:0:0:
308,84,166283,2,0,L|340:23,2,57.5,2|2|0,3:3|0:2|0:0,0:0:0:0:
336,133,166701,1,0,0:0:0:0:
393,125,166841,2,0,P|411:146|425:171,1,57.5,2|2,0:2|0:2,0:0:0:0:
394,356,167399,6,0,L|206:384,1,189.74999420929,0|0,0:2|0:0,0:0:0:0:
163,345,169073,6,0,L|207:353,2,28.75,0|0|6,3:0|3:0|1:2,0:0:0:0:
0,246,169631,6,0,P|52:186|61:117,1,126.500003860474,6|0,3:2|0:0,0:0:0:0:
105,95,170050,2,0,P|102:135|113:172,1,63.2500019302369,6|0,3:2|3:0,0:0:0:0:
140,187,170329,6,0,B|166:177|166:177|172:172|172:172|178:174|178:174|213:178,1,77.6249976310731,2|0,3:3|0:0,0:0:0:0:
270,236,170887,2,0,L|306:227,2,37.3749982891084,8|8|0,0:3|0:3|0:0,0:0:0:0:
254,313,171166,2,0,L|296:337,2,37.3749982891084,8|8|0,0:3|0:3|0:0,0:0:0:0:
175,308,171445,2,0,L|127:319,2,37.3749982891084,8|8|0,0:3|0:3|0:0,0:0:0:0:
184,233,171724,1,8,0:3:0:0:
205,96,172003,5,0,1:0:0:0:
263,133,172143,2,0,P|300:118|340:110,1,68.9999978942872,2|0,3:3|0:0,0:0:0:0:
395,93,172422,2,0,P|439:105|481:121,1,68.9999978942872,2|0,3:3|0:0,0:0:0:0:
509,178,172701,6,0,L|540:171,4,28.75,4|0|4|0|4,3:3|3:2|3:3|3:2|3:3,0:0:0:0:
468,346,173957,6,0,B|452:269|332:319|349:287|369:269|369:269|333:284|273:275|246:262|229:219|229:219|214:252|161:228|143:176|108:221,1,460,6|12,1:2|0:3,0:0:0:0:
159,381,175352,6,0,B|145:359|81:311|15:293,1,149.499993156433,6|2,3:2|1:2,0:0:0:0:
6,242,175771,2,0,P|31:199|43:160,1,63.2500019302369,2|0,1:2|3:0,0:0:0:0:
20,60,176190,5,2,1:3:0:0:
75,89,176329,2,0,P|120:65|266:41,1,189.750005790711,0|6,1:0|1:2,0:0:0:0:
346,128,177027,2,0,P|304:124|265:112,1,63.2500019302369,8|0,0:3|0:0,0:0:0:0:
233,158,177306,2,0,L|239:198,2,31.6250009651184,2|0|0,1:2|1:2|1:2,0:0:0:0:
231,221,177585,6,0,L|307:209,1,63.2500019302369,6|2,3:2|2:2,0:0:0:0:
346,245,177864,2,0,L|434:226,1,63.2500019302369,2|2,2:2|1:2,0:0:0:0:
458,270,178143,2,0,L|509:216,2,63.2500019302369,2|0|2,3:2|1:0|3:3,0:0:0:0:
429,324,178562,6,0,L|224:298,1,189.750005790711,2|2,1:2|1:2,0:0:0:0:
129,360,179259,5,2,3:2:0:0:
109,235,179538,5,2,1:2:0:0:
89,110,179817,6,0,B|129:67|221:61|250:67,1,149.499993156433,6|2,3:2|1:2,0:0:0:0:
283,34,180236,2,0,P|299:89|319:112,1,63.2500019302369,2|2,1:2|3:2,0:0:0:0:
397,177,180655,5,2,0:3:0:0:
456,156,180794,2,0,B|429:135|383:122|383:122|333:120|267:144,1,189.750005790711,0|6,1:0|1:2,0:0:0:0:
224,256,181492,2,0,P|261:239|302:236,1,63.2500019302369,4|0,0:3|0:0,0:0:0:0:
331,276,181771,2,0,L|385:290,2,31.6250009651184,2|0|0,1:2|0:0|1:2,0:0:0:0:
291,325,182050,6,0,L|203:344,1,63.2500019302369,6|2,1:2|3:2,0:0:0:0:
164,363,182329,6,0,L|102:227,1,137.999995788574,2|2,1:2|3:3,0:0:0:0:
35,260,182748,6,0,L|110:115,1,149.499993156433,2|2,1:2|3:3,0:0:0:0:
103,47,183166,6,0,L|229:154,1,160.99999508667,2|2,1:2|3:3,0:0:0:0:
191,230,183585,6,0,L|360:171,1,172.500006580353,2|2,1:2|3:3,0:0:0:0:
412,114,184003,6,0,L|525:164,1,92,2|6,1:2|3:2,0:0:0:0:
380,302,184562,5,2,0:3:0:0:
133,360,185120,5,2,0:3:0:0:
14,268,185399,2,0,L|86:281,1,57.5,6|2,1:2|3:2,0:0:0:0:
144,190,185817,2,0,L|157:263,1,57.5,2|0,1:2|3:0,0:0:0:0:
207,269,186096,2,0,L|239:195,1,57.5,2|0,1:2|0:0,0:0:0:0:
260,167,186376,5,4,3:1:0:0:
346,242,186655,1,2,0:2:0:0:
400,222,186794,2,0,P|411:194|421:143,1,57.5,6|0,1:2|0:0,0:0:0:0:
470,125,187073,2,0,P|441:93|397:70,1,66.1250012612343,6|0,1:2|0:0,0:0:0:0:
404,7,187352,2,0,P|351:18|315:51,1,74.7499965782167,8|4,0:3|0:3,0:0:0:0:
285,91,187631,1,6,1:2:0:0:
301,112,187771,1,2,3:2:0:0:
208,180,188050,5,2,3:3:0:0:
104,161,188329,1,2,3:0:0:0:
0,141,188608,1,4,3:1:0:0:
35,250,188887,5,2,0:2:0:0:
86,276,189027,2,0,L|159:290,1,57.5,4|0,1:3|3:0,0:0:0:0:
220,265,189306,2,0,L|293:279,1,57.5,4|0,1:3|3:0,0:0:0:0:
346,311,189585,2,0,L|289:299,1,57.5,4|0,1:3|3:0,0:0:0:0:
258,228,189864,1,4,1:3:0:0:
295,184,190003,1,2,3:3:0:0:
396,128,190283,5,2,3:3:0:0:
423,239,190562,1,2,3:3:0:0:
488,144,190841,5,6,3:2:0:0:
396,128,191050,1,6,3:2:0:0:
304,112,191259,1,6,3:2:0:0:
248,45,191469,5,6,3:2:0:0:
212,124,191678,1,6,3:2:0:0:
130,152,191887,1,6,3:2:0:0:
48,180,192794,5,6,3:3:0:0:
