osu file format v14

[General]
AudioFilename: audio.mp3
AudioLeadIn: 0
PreviewTime: 57651
Countdown: 0
SampleSet: Soft
StackLeniency: 0.2
Mode: 0
LetterboxInBreaks: 0
WidescreenStoryboard: 1

[Editor]
Bookmarks: 143464
DistanceSpacing: 1.8
BeatDivisor: 4
GridSize: 8
TimelineZoom: 2.2

[Metadata]
Title:Tenohira de odoru
TitleUnicode:掌で踊る
Artist:sokoninaru
ArtistUnicode:そこに鳴る
Creator:Snepif
Version:ItashaS13's Normal
Source:
Tags:silleth itashas13 ゼロ zero koga records j-pop j-rock japanese metal alternative indie rock math-rock tenohiradeodoru
BeatmapID:1645095
BeatmapSetID:773686

[Difficulty]
HPDrainRate:4
CircleSize:3
OverallDifficulty:4
ApproachRate:6
SliderMultiplier:1.8
SliderTickRate:1

[Events]
//Background and Video events
0,0,"bg.jpg",0,0
//Break Periods
2,297,3362
2,44808,47873
2,116250,119454
2,163134,164106
//Storyboard Layer 0 (Background)
//Storyboard Layer 1 (Fail)
//Storyboard Layer 2 (Pass)
//Storyboard Layer 3 (Foreground)
//Storyboard Layer 4 (Overlay)
//Storyboard Sound Samples

[TimingPoints]
97,279.06976744186,4,1,1,80,1,0
4562,-333.333333333333,4,1,1,80,0,0
4631,-333.333333333333,4,1,1,40,0,0
5259,-333.333333333333,4,2,1,80,0,0
6794,-333.333333333333,4,1,1,80,0,0
7771,-333.333333333333,4,1,1,30,0,0
7910,-333.333333333333,4,1,1,80,0,0
8050,-333.333333333333,4,1,1,30,0,0
8190,-333.333333333333,4,1,1,80,0,0
8329,-333.333333333333,4,1,1,30,0,0
8469,-333.333333333333,4,1,1,80,0,0
8608,-333.333333333333,4,1,1,30,0,0
8748,-333.333333333333,4,1,1,80,0,0
8887,-333.333333333333,4,1,1,30,0,0
9027,-333.333333333333,4,1,1,90,0,0
10841,-333.333333333333,4,2,1,80,0,0
10980,-333.333333333333,4,1,1,80,0,0
11120,-333.333333333333,4,2,1,80,0,0
11259,-333.333333333333,4,1,1,80,0,0
13213,-333.333333333333,4,1,1,80,0,0
13492,-333.333333333333,4,1,1,80,0,1
17817,-333.333333333333,4,2,0,80,0,1
17957,-333.333333333333,4,1,1,80,0,1
21236,-333.333333333333,4,1,1,30,0,1
21445,-333.333333333333,4,1,1,80,0,1
21515,-333.333333333333,4,1,1,30,0,1
21724,-333.333333333333,4,1,1,80,0,1
21794,-333.333333333333,4,1,1,30,0,1
22003,-333.333333333333,4,1,1,80,0,1
22073,-333.333333333333,4,1,1,30,0,1
22283,-333.333333333333,4,1,1,80,0,0
24655,-333.333333333333,4,2,3,65,0,0
25771,-333.333333333333,4,2,0,80,0,0
26050,-333.333333333333,4,2,0,40,0,0
26469,-333.333333333333,4,1,1,80,0,0
26887,-333.333333333333,4,2,0,40,0,0
27724,-333.333333333333,4,2,0,40,0,0
30794,-333.333333333333,4,2,0,80,0,0
31213,-333.333333333333,4,1,1,80,0,0
35678,-333.333333333333,4,1,1,65,0,0
38050,-333.333333333333,4,3,0,80,0,0
38120,-333.333333333333,4,2,1,80,0,0
39585,-333.333333333333,4,1,1,80,0,0
40143,-333.333333333333,4,1,1,80,0,0
45027,-333.333333333333,4,2,0,30,0,0
49073,-333.333333333333,4,1,1,80,0,0
51585,-333.333333333333,4,2,0,40,0,0
53120,-333.333333333333,4,1,1,80,0,0
56190,-333.333333333333,4,2,0,80,0,0
57027,-333.333333333333,4,2,1,80,0,0
57585,-333.333333333333,4,2,2,60,0,0
58003,-333.333333333333,4,1,1,80,0,1
61422,-333.333333333333,4,1,1,30,0,1
61631,-333.333333333333,4,1,1,80,0,1
61701,-333.333333333333,4,1,1,30,0,1
61910,-333.333333333333,4,1,1,80,0,1
61980,-333.333333333333,4,1,1,30,0,1
62190,-333.333333333333,4,1,1,80,0,1
62259,-333.333333333333,4,1,1,30,0,1
62469,-333.333333333333,4,1,1,80,0,0
66934,-333.333333333333,4,1,1,80,0,1
70352,-333.333333333333,4,1,1,30,0,1
70562,-333.333333333333,4,1,1,80,0,1
70631,-333.333333333333,4,1,1,30,0,1
70841,-333.333333333333,4,1,1,80,0,1
70910,-333.333333333333,4,1,1,30,0,1
71120,-333.333333333333,4,1,1,80,0,1
71190,-333.333333333333,4,1,1,30,0,1
71399,-333.333333333333,4,1,1,80,0,1
75445,-333.333333333333,4,1,1,30,0,1
75585,-333.333333333333,4,1,1,80,0,1
75724,-333.333333333333,4,1,1,30,0,1
75864,-333.333333333333,4,1,1,80,0,1
76562,-333.333333333333,4,1,2,80,0,1
77120,-333.333333333333,4,1,1,80,0,1
78794,-333.333333333333,4,1,2,80,0,1
79352,-333.333333333333,4,1,1,80,0,1
80469,-333.333333333333,4,1,1,90,0,1
80841,-333.333333333333,4,1,1,90,0,1
81027,-333.333333333333,4,1,1,90,0,1
81585,-333.333333333333,4,1,1,90,0,1
82143,-333.333333333333,4,1,1,90,0,1
82701,-333.333333333333,4,1,1,80,0,0
83259,-333.333333333333,4,1,1,40,0,0
84934,-333.333333333333,4,2,0,80,0,0
85003,-333.333333333333,4,2,1,40,0,0
87027,-333.333333333333,4,1,1,40,0,0
87166,-333.333333333333,4,1,1,5,0,0
89120,-333.333333333333,4,1,1,80,0,0
89399,-333.333333333333,4,1,1,80,0,1
93724,-333.333333333333,4,2,0,80,0,1
93864,-333.333333333333,4,1,1,80,0,1
97213,-333.333333333333,4,1,1,80,0,0
98608,-333.333333333333,4,1,1,65,0,0
99445,-333.333333333333,4,1,1,65,0,0
102655,-333.333333333333,4,1,1,80,0,0
106143,-333.333333333333,4,2,2,60,0,0
106422,-333.333333333333,4,2,0,60,0,0
107119,-333.333333333333,4,1,1,80,0,0
107817,-333.333333333333,4,2,1,80,0,0
108236,-333.333333333333,4,1,1,80,0,0
108933,-333.333333333333,4,2,1,80,0,0
109352,-333.333333333333,4,1,1,80,0,0
110050,-333.333333333333,4,2,1,80,0,0
110608,-333.333333333333,4,1,1,80,0,0
112283,-333.333333333333,4,2,0,80,0,0
112701,-333.333333333333,4,1,1,80,0,0
113399,-333.333333333333,4,2,0,80,0,0
113817,-333.333333333333,4,1,1,80,0,0
114515,-333.333333333333,4,2,0,80,0,0
114934,-333.333333333333,4,1,1,80,0,0
116119,-333.333333333333,4,2,0,45,0,0
120655,-333.333333333333,4,1,1,80,0,0
120933,-333.333333333333,4,2,1,80,0,0
121771,-333.333333333333,4,1,1,80,0,0
122050,-333.333333333333,4,2,1,80,0,0
122887,-333.333333333333,4,1,1,80,0,0
123166,-333.333333333333,4,2,1,80,0,0
124003,-333.333333333333,4,1,1,80,0,0
124282,-333.333333333333,4,2,1,80,0,0
124980,-333.333333333333,4,1,1,50,0,0
126096,-333.333333333333,4,1,1,65,0,0
127212,-333.333333333333,4,1,1,80,0,0
128329,-333.333333333333,4,1,1,90,0,0
129585,-333.333333333333,4,2,0,30,0,0
131817,-333.333333333333,4,1,1,90,0,0
133910,-333.333333333333,4,1,1,80,0,1
137259,-333.333333333333,4,1,1,80,0,0
137329,-333.333333333333,4,1,1,30,0,0
137538,-333.333333333333,4,1,1,80,0,0
137608,-333.333333333333,4,1,1,30,0,0
137817,-333.333333333333,4,1,1,80,0,0
137887,-333.333333333333,4,1,1,30,0,0
138096,-333.333333333333,4,1,1,80,0,0
138166,-333.333333333333,4,1,1,30,0,0
138375,-333.333333333333,4,1,1,80,0,0
142422,-333.333333333333,4,1,1,30,0,0
142561,-333.333333333333,4,1,1,80,0,0
142701,-333.333333333333,4,1,1,30,0,0
142841,-333.333333333333,4,1,1,80,0,1
146259,-333.333333333333,4,1,1,30,0,1
146468,-333.333333333333,4,1,1,80,0,1
146538,-333.333333333333,4,1,1,30,0,1
146747,-333.333333333333,4,1,1,80,0,1
146817,-333.333333333333,4,1,1,30,0,1
147026,-333.333333333333,4,1,1,80,0,1
147096,-333.333333333333,4,1,1,30,0,1
147305,-333.333333333333,4,1,1,80,0,1
148561,-333.333333333333,4,1,1,80,0,1
152468,-333.333333333333,4,1,2,80,0,1
152887,-333.333333333333,4,1,1,80,0,1
154701,-333.333333333333,4,1,2,80,0,1
155119,-333.333333333333,4,1,1,80,0,1
156376,-333.333333333333,4,1,1,80,0,0
156585,-333.333333333333,4,1,1,30,0,0
156933,-333.333333333333,4,1,1,80,0,0
157003,-333.333333333333,4,1,1,30,0,0
157352,-333.333333333333,4,1,1,80,0,0
157422,-333.333333333333,4,1,1,30,0,0
157771,-333.333333333333,4,1,1,80,0,0
157840,-333.333333333333,4,1,1,30,0,0
158189,-333.333333333333,4,1,1,80,0,0
158259,-333.333333333333,4,1,1,30,0,0
158329,-333.333333333333,4,1,1,80,0,0
158887,-333.333333333333,4,1,1,50,0,0
160701,-333.333333333333,4,2,1,70,0,0
160771,-333.333333333333,4,2,1,40,0,0
162654,-333.333333333333,4,1,1,80,0,0
163212,-333.333333333333,4,2,0,50,0,0
165166,-333.333333333333,4,1,1,80,0,0
165305,-333.333333333333,4,2,0,60,0,0
166003,-333.333333333333,4,1,1,80,0,0
166422,-333.333333333333,4,2,0,80,0,0
167398,-333.333333333333,4,2,2,80,0,0
167537,-333.333333333333,4,2,2,30,0,0
169072,-333.333333333333,4,1,1,80,0,0
169630,-333.333333333333,4,1,1,80,0,0
170327,-333.333333333333,4,2,0,80,0,0
170887,-333.333333333333,4,2,3,65,0,0
172002,-333.333333333333,4,1,1,80,0,0
172699,-333.333333333333,4,1,1,90,0,0
173120,-333.333333333333,4,2,0,30,0,0
173955,-333.333333333333,4,1,1,80,0,0
174024,-333.333333333333,4,1,1,10,0,0
175071,-333.333333333333,4,1,1,80,0,0
175352,-333.333333333333,4,1,1,80,0,1
179675,-333.333333333333,4,2,0,80,0,1
179815,-333.333333333333,4,1,1,80,0,1
184143,-333.333333333333,4,1,1,80,0,0
184562,-333.333333333333,4,2,0,80,0,0
185396,-333.333333333333,4,1,1,80,0,0
192094,-333.333333333333,4,2,0,60,0,0
192791,-333.333333333333,4,1,1,80,0,0
192931,-333.333333333333,4,1,1,30,0,0

[Colours]
Combo1 : 138,138,244
Combo2 : 250,78,78
Combo3 : 206,128,240
Combo4 : 254,201,129

[HitObjects]
256,193,97,5,8,0:0:0:0:
367,127,4562,6,0,L|388:211,1,80.9999975280763,2|2,0:0|0:0,0:0:0:0:
337,301,5259,2,0,L|248:313,3,80.9999975280763,8|8|8|8,0:0|0:0|0:0|0:0,0:0:0:0:
152,280,6794,6,0,L|142:194,1,80.9999975280763,2|2,0:0|0:0,0:0:0:0:
211,130,7492,2,0,L|204:73,1,53.9999983520508,2|2,0:0|0:0,0:0:0:0:
177,35,7910,2,0,L|96:45,2,80.9999975280763,2|2|2,0:0|0:0|0:0,0:0:0:0:
274,28,9027,6,0,P|333:28|391:37,1,107.999996704102,8|2,0:0|0:0,0:0:0:0:
468,77,9864,1,2,0:0:0:0:
437,169,10143,2,0,P|377:168|320:160,1,107.999996704102,8|2,0:0|0:0,0:0:0:0:
236,133,10980,1,2,0:0:0:0:
138,138,11259,6,0,P|116:221|153:292,1,161.999995056153,8|2,0:0|0:0,0:0:0:0:
237,324,12376,2,0,L|317:335,1,80.9999975280763,2|0,0:0|0:0,0:0:0:0:
289,192,13213,1,2,0:0:0:0:
194,214,13492,6,8,P|172:179|172:134,1,80.9999975280763,6|8,0:0|0:0,0:0:0:0:
138,103,14050,2,0,L|74:100,2,53.9999983520508,2|2|2,0:0|0:0|0:0,0:0:0:0:
219,49,14887,1,8,0:0:0:0:
281,123,15166,2,0,P|301:124|344:112,1,53.9999983520508,2|8,0:0|0:0,0:0:0:0:
430,106,15724,6,0,P|428:141|444:167,1,53.9999983520508,6|8,0:0|0:0,0:0:0:0:
438,254,16283,2,0,L|422:307,2,53.9999983520508,2|2|2,0:0|0:0|0:0,0:0:0:0:
486,169,17120,1,8,0:0:0:0:
454,77,17399,2,0,P|426:69|400:75,1,53.9999983520508,2|8,0:0|0:0,0:0:0:0:
313,114,17957,6,0,P|276:144|239:145,1,80.9999975280763,6|8,0:0|0:0,0:0:0:0:
198,156,18515,2,0,L|192:216,2,53.9999983520508,2|2|2,0:0|0:0|0:0,0:0:0:0:
175,61,19352,1,8,0:0:0:0:
272,56,19631,2,0,P|295:74|311:115,1,53.9999983520508,2|8,0:0|0:0,0:0:0:0:
328,189,20190,6,0,P|358:184|397:202,1,53.9999983520508,6|8,0:0|0:0,0:0:0:0:
456,249,20748,2,0,L|449:306,1,53.9999983520508,8|8,0:0|0:0,0:0:0:0:
406,324,21166,2,0,L|345:334,1,53.9999983520508,2|2,0:0|0:0,0:0:0:0:
265,290,21724,2,0,L|204:300,1,53.9999983520508,2|2,0:0|0:0,0:0:0:0:
114,310,22283,1,6,0:0:0:0:
256,192,22422,12,6,24515,0:0:0:0:
147,188,25771,6,0,L|207:192,1,53.9999983520508
346,206,26469,1,8,0:0:0:0:
323,111,26748,1,6,0:0:0:0:
123,345,27724,5,0,0:0:0:0:
38,299,28003,2,0,P|17:273|8:218,2,80.9999975280763
123,252,29120,2,0,L|181:244,1,53.9999983520508
223,241,29538,2,0,L|242:328,1,80.9999975280763
286,103,30794,2,0,L|298:156,1,53.9999983520508,2|0,0:0|0:0,0:0:0:0:
335,170,31213,6,0,P|298:182|270:218,1,80.9999975280763,4|8,0:0|0:0,0:0:0:0:
349,255,31910,2,0,L|402:252,1,53.9999983520508,8|8,0:0|0:0,0:0:0:0:
439,161,32469,2,0,L|492:158,1,53.9999983520508,8|8,0:0|0:0,0:0:0:0:
446,72,33027,2,0,L|392:74,1,53.9999983520508,8|8,0:0|0:0,0:0:0:0:
344,80,33445,2,0,P|297:86|246:159,1,134.999995880127,6|8,0:0|0:0,0:0:0:0:
215,244,34422,1,8,0:0:0:0:
197,339,34701,2,0,B|250:361|250:361|306:348,1,107.999996704102,2|8,0:0|0:0,0:0:0:0:
426,277,35678,5,6,0:0:0:0:
256,192,35817,12,2,38050,0:0:0:0:
104,155,39724,6,0,L|88:219,1,53.9999983520508,8|8,0:0|0:0,0:0:0:0:
89,256,40143,6,0,P|134:248|172:273,1,80.9999975280763,6|8,0:0|0:0,0:0:0:0:
249,310,40841,2,0,L|254:251,1,53.9999983520508,8|8,0:0|0:0,0:0:0:0:
347,230,41399,2,0,L|342:289,1,53.9999983520508,8|8,0:0|0:0,0:0:0:0:
431,322,41957,2,0,L|436:263,1,53.9999983520508,8|8,0:0|0:0,0:0:0:0:
442,219,42376,6,0,P|470:200|472:100,1,134.999995880127,6|8,0:0|0:0,0:0:0:0:
401,45,43352,1,8,0:0:0:0:
348,126,43631,2,0,B|295:148|295:148|235:135,1,107.999996704102,2|2,0:0|0:0,0:0:0:0:
103,103,44608,1,6,0:0:0:0:
120,260,49073,6,0,L|208:271,1,80.9999975280763,6|8,0:0|0:0,0:0:0:0:
297,257,49771,2,0,P|307:211|307:195,1,53.9999983520508,2|8,0:0|0:0,0:0:0:0:
297,156,50190,2,0,P|281:124|281:68,1,80.9999975280763,6|8,0:0|0:0,0:0:0:0:
188,43,50887,2,0,L|166:103,1,53.9999983520508,2|8,0:0|0:0,0:0:0:0:
134,184,51445,1,2,0:0:0:0:
433,160,53120,6,0,L|426:206,1,26.9999991760254,8|8,0:0|0:0,0:0:0:0:
400,279,53538,6,0,L|304:289,1,80.9999975280763,6|12,0:0|0:0,0:0:0:0:
243,225,54236,2,0,P|218:206|178:200,1,53.9999983520508,12|12,0:0|0:0,0:0:0:0:
181,103,54794,2,0,P|209:90|235:59,1,53.9999983520508,12|2,0:0|0:0,0:0:0:0:
273,68,55213,2,0,L|343:76,1,53.9999983520508,6|6,0:0|0:0,0:0:0:0:
422,87,55771,1,6,0:0:0:0:
256,192,55910,12,10,57027,0:0:0:0:
441,261,58003,6,0,P|402:267|349:244,1,80.9999975280763,6|8,0:0|0:0,0:0:0:0:
310,172,58701,2,0,L|315:96,1,53.9999983520508,2|2,0:0|0:0,0:0:0:0:
275,88,59120,2,0,P|215:54|195:56,1,80.9999975280763,6|8,0:0|0:0,0:0:0:0:
118,97,59817,2,0,P|123:135|118:161,1,53.9999983520508,2|2,0:0|0:0,0:0:0:0:
97,193,60236,2,0,P|89:233|105:281,1,80.9999975280763,6|2,0:0|0:0,0:0:0:0:
190,304,60934,2,0,P|231:315|248:313,1,53.9999983520508,8|8,0:0|0:0,0:0:0:0:
289,304,61352,6,0,L|295:243,1,53.9999983520508,2|2,0:0|0:0,0:0:0:0:
378,201,61910,2,0,L|372:262,1,53.9999983520508,2|2,0:0|0:0,0:0:0:0:
361,351,62469,1,6,0:0:0:0:
243,264,62887,6,0,P|210:253|129:279,1,107.999996704102,8|8,0:0|0:0,0:0:0:0:
50,307,63724,2,0,L|50:210,1,80.9999975280763,2|2,0:0|0:0,0:0:0:0:
47,128,64422,1,0,0:0:0:0:
132,174,64701,2,0,L|223:183,1,80.9999975280763,2|2,0:0|0:0,0:0:0:0:
261,97,65399,2,0,L|314:102,1,53.9999983520508,2|2,0:0|0:0,0:0:0:0:
402,59,65957,2,0,L|411:147,1,80.9999975280763,8|2,0:0|0:0,0:0:0:0:
390,235,66655,1,2,0:0:0:0:
311,170,66934,6,0,P|276:163|211:181,1,80.9999975280763,6|8,0:0|0:0,0:0:0:0:
171,246,67631,2,0,L|172:310,1,53.9999983520508,2|2,0:0|0:0,0:0:0:0:
204,336,68050,2,0,P|245:346|285:330,1,80.9999975280763,6|8,0:0|0:0,0:0:0:0:
360,277,68748,2,0,L|349:205,1,53.9999983520508,2|2,0:0|0:0,0:0:0:0:
305,208,69166,6,0,P|289:176|289:128,1,80.9999975280763,6|2,0:0|0:0,0:0:0:0:
363,69,69864,2,0,P|395:77|411:93,1,53.9999983520508,8|8,0:0|0:0,0:0:0:0:
431,134,70283,2,0,L|367:150,1,53.9999983520508,2|2,0:0|0:0,0:0:0:0:
345,238,70841,2,0,L|411:222,1,53.9999983520508,2|2,0:0|0:0,0:0:0:0:
464,295,71399,6,0,P|405:317|390:340,1,80.9999975280763,6|8,0:0|0:0,0:0:0:0:
299,344,72096,2,0,L|240:338,1,53.9999983520508,2|8,0:0|0:0,0:0:0:0:
212,246,72655,2,0,P|227:216|205:139,1,107.999996704102,2|2,0:0|0:0,0:0:0:0:
140,79,73492,1,8,0:0:0:0:
234,54,73771,6,0,L|308:56,1,53.9999983520508,6|8,0:0|0:0,0:0:0:0:
346,133,74329,2,0,L|292:134,1,53.9999983520508,2|8,0:0|0:0,0:0:0:0:
238,215,74887,2,0,P|280:228|306:267,1,80.9999975280763,2|2,0:0|0:0,0:0:0:0:
345,340,75585,1,2,0:0:0:0:
395,257,75864,6,0,L|404:166,1,80.9999975280763,6|8,0:0|0:0,0:0:0:0:
499,192,76562,2,0,L|499:224,2,26.9999991760254,8|8|8,0:0|0:0|0:0,0:0:0:0:
489,144,76980,2,0,P|480:104|449:64,1,80.9999975280763,8|8,0:0|0:0,0:0:0:0:
360,81,77678,2,0,L|356:126,2,26.9999991760254,8|2|2,0:0|0:0|0:0,0:0:0:0:
314,65,78096,6,0,P|275:49|218:57,1,80.9999975280763,6|8,0:0|0:0,0:0:0:0:
139,60,78794,2,0,L|128:126,1,53.9999983520508,8|8,0:0|0:0,0:0:0:0:
127,161,79213,2,0,P|164:158|167:249,1,134.999995880127,8|2,0:0|0:0,0:0:0:0:
264,286,80190,1,2,0:0:0:0:
357,259,80469,6,0,L|399:267,2,35.9999989013672,8|2|2,0:0|0:0|0:0,0:0:0:0:
342,184,81027,6,0,L|307:180,2,35.9999989013672,8|2|2,0:0|0:0|0:0,0:0:0:0:
399,134,81585,6,0,L|449:141,2,35.9999989013672,8|2|2,0:0|0:0|0:0,0:0:0:0:
365,71,82143,6,0,L|324:65,2,35.9999989013672,8|2|2,0:0|0:0|0:0,0:0:0:0:
432,34,82701,5,6,0:0:0:0:
256,192,84934,12,0,87027,0:0:0:0:
272,88,89120,5,2,0:0:0:0:
359,129,89398,6,0,P|351:162|365:201,1,53.9999983520508,6|8,0:0|0:0,0:0:0:0:
390,271,89957,2,0,L|429:280,2,26.9999991760254,2|8|8,0:0|0:0|0:0,0:0:0:0:
364,311,90375,2,0,P|326:336|290:336,1,80.9999975280763,2|8,0:0|0:0,0:0:0:0:
213,278,91073,1,2,0:0:0:0:
229,182,91352,1,8,0:0:0:0:
295,110,91631,6,0,P|321:107|347:114,1,53.9999983520508,6|8,0:0|0:0,0:0:0:0:
441,87,92189,2,0,L|447:60,2,26.9999991760254,2|8|8,0:0|0:0|0:0,0:0:0:0:
474,122,92608,2,0,L|487:203,1,80.9999975280763,2|8,0:0|0:0,0:0:0:0:
475,298,93306,2,0,P|450:322|409:329,1,53.9999983520508,2|8,0:0|0:0,0:0:0:0:
344,286,93864,6,0,L|335:223,1,53.9999983520508,6|8,0:0|0:0,0:0:0:0:
307,139,94422,2,0,L|245:134,1,53.9999983520508,2|8,0:0|0:0,0:0:0:0:
204,131,94840,2,0,P|195:93|204:39,1,80.9999975280763,2|8,0:0|0:0,0:0:0:0:
291,17,95538,2,0,L|353:22,1,53.9999983520508,2|8,0:0|0:0,0:0:0:0:
430,74,96096,6,0,P|447:122|440:147,1,53.9999983520508,6|8,0:0|0:0,0:0:0:0:
425,218,96654,2,0,L|355:210,1,53.9999983520508,8|8,0:0|0:0,0:0:0:0:
323,205,97073,1,2,0:0:0:0:
233,166,97352,2,0,P|225:190|225:206,2,40.4999987640381,2|2|8,0:0|0:0|0:0,0:0:0:0:
376,190,98189,6,0,P|399:120|320:38,1,188.999994232178,6|8,0:0|0:0,0:0:0:0:
239,78,99445,2,0,L|234:155,1,53.9999983520508,2|8,0:0|0:0,0:0:0:0:
242,228,100003,1,2,0:0:0:0:
317,289,100282,1,8,0:0:0:0:
223,316,100562,2,0,B|160:308,1,53.9999983520508,2|10,0:0|0:0,0:0:0:0:
72,298,101120,2,0,P|72:269|79:243,1,53.9999983520508,2|8,0:0|0:0,0:0:0:0:
132,164,101678,2,0,L|186:156,1,53.9999983520508,2|2,0:0|0:0,0:0:0:0:
266,209,102236,2,0,L|257:242,2,26.9999991760254,8|8|8,0:0|0:0|0:0,0:0:0:0:
281,162,102655,6,0,L|364:177,1,80.9999975280763,6|8,0:0|0:0,0:0:0:0:
365,79,103352,2,0,L|312:68,1,53.9999983520508,8|8,0:0|0:0,0:0:0:0:
216,87,103910,2,0,P|196:112|188:141,1,53.9999983520508,8|8,0:0|0:0,0:0:0:0:
141,217,104468,2,0,P|133:254|98:290,1,80.9999975280763,8|6,0:0|0:0,0:0:0:0:
36,157,105306,2,0,L|30:90,1,53.9999983520508,8|8,0:0|0:0,0:0:0:0:
99,33,105863,2,0,L|135:28,2,26.9999991760254,8|2|2,0:0|0:0|0:0,0:0:0:0:
368,240,107119,6,0,P|336:253|274:242,1,80.9999975280763,6|2,0:0|0:0,0:0:0:0:
116,78,108236,2,0,P|148:65|193:71,1,80.9999975280763,6|2,0:0|0:0,0:0:0:0:
213,313,109352,2,0,P|181:326|119:315,1,80.9999975280763,6|2,0:0|0:0,0:0:0:0:
280,56,110608,6,0,L|344:64,1,53.9999983520508,12|2,0:0|0:0,0:0:0:0:
381,71,111026,1,8,0:0:0:0:
446,142,111305,1,8,0:0:0:0:
428,237,111585,6,0,B|385:252|385:252|331:242,1,80.9999975280763,2|2,0:0|0:0,0:0:0:0:
163,89,112701,2,0,B|206:74|206:74|260:84,1,80.9999975280763,2|2,0:0|0:0,0:0:0:0:
223,322,113817,2,0,B|180:337|180:337|126:327,1,80.9999975280763,2|2,0:0|0:0,0:0:0:0:
173,237,114515,2,0,P|187:195|237:203,1,80.9999975280763,2|0,0:0|0:0,0:0:0:0:
267,199,115073,6,8,L|301:191,1,26.9999991760254,8|2,0:0|0:0,0:0:0:0:
388,173,115491,1,8,0:0:0:0:
403,81,115771,1,8,0:0:0:0:
305,108,116050,1,6,0:0:0:0:
104,129,120654,6,0,P|102:191|142:296,1,161.999995056153,2|8,0:0|0:0,0:0:0:0:
231,294,121771,2,0,P|260:219|261:138,1,161.999995056153,2|8,0:0|0:0,0:0:0:0:
242,42,122887,2,0,L|319:35,1,53.9999983520508,2|8,0:0|0:0,0:0:0:0:
350,117,123445,2,0,L|403:121,1,53.9999983520508,8|8,0:0|0:0,0:0:0:0:
498,99,124003,2,0,L|486:217,1,107.999996704102,2|8,0:0|0:0,0:0:0:0:
477,303,124841,5,8,1:0:0:0:
477,303,124980,2,0,P|421:312|361:287,1,107.999996704102,6|2,0:0|0:0,0:0:0:0:
280,183,125957,5,8,0:0:0:0:
280,183,126096,2,0,P|336:174|396:199,1,107.999996704102,6|0,0:0|0:0,0:0:0:0:
352,336,127073,5,8,0:0:0:0:
352,336,127212,2,0,P|296:345|236:320,1,107.999996704102,6|2,0:0|0:0,0:0:0:0:
120,257,128190,5,8,0:0:0:0:
120,257,128329,2,0,L|130:122,1,134.999995880127,6|2,0:0|0:0,0:0:0:0:
218,81,129305,1,8,0:0:0:0:
138,200,131817,6,0,L|133:239,2,33.7499989700318,14|14|14,0:0|0:0|0:0,0:0:0:0:
78,130,132341,6,0,L|45:117,2,33.7499989700318,14|14|14,0:0|0:0|0:0,0:0:0:0:
168,116,132864,6,0,P|186:105|202:97,2,33.7499989700318,14|14|14,0:0|0:0|0:0,0:0:0:0:
217,319,133910,6,0,L|209:231,1,80.9999975280763,6|8,0:0|0:0,0:0:0:0:
247,148,134608,2,0,L|305:121,1,53.9999983520508,2|8,0:0|0:0,0:0:0:0:
340,106,135026,2,0,P|358:144|397:174,1,80.9999975280763,6|8,0:0|0:0,0:0:0:0:
433,255,135724,2,0,L|413:309,1,53.9999983520508,2|2,0:0|0:0,0:0:0:0:
371,328,136143,6,0,P|332:314|288:321,1,80.9999975280763,6|2,0:0|0:0,0:0:0:0:
199,339,136840,2,0,L|196:283,1,53.9999983520508,8|8,0:0|0:0,0:0:0:0:
181,238,137259,2,0,L|121:233,1,53.9999983520508,2|2,0:0|0:0,0:0:0:0:
79,148,137817,2,0,L|139:153,1,53.9999983520508,2|2,0:0|0:0,0:0:0:0:
229,162,138375,6,0,L|237:78,1,80.9999975280763,6|8,0:0|0:0,0:0:0:0:
323,36,139072,2,0,L|331:91,1,53.9999983520508,2|8,0:0|0:0,0:0:0:0:
344,186,139631,2,0,P|387:169|415:133,1,80.9999975280763,2|2,0:0|0:0,0:0:0:0:
485,82,140328,1,2,0:0:0:0:
492,179,140608,2,0,L|487:271,1,80.9999975280763,6|2,0:0|0:0,0:0:0:0:
390,256,141305,2,0,L|397:314,1,53.9999983520508,2|2,0:0|0:0,0:0:0:0:
303,339,141864,2,0,L|292:249,1,80.9999975280763,6|2,0:0|0:0,0:0:0:0:
241,175,142562,1,2,0:0:0:0:
197,261,142841,6,0,P|166:264|113:235,1,80.9999975280763,6|8,0:0|0:0,0:0:0:0:
62,166,143538,2,0,L|62:104,1,53.9999983520508,2|8,0:0|0:0,0:0:0:0:
95,76,143957,2,0,P|142:86|181:71,1,80.9999975280763,6|8,0:0|0:0,0:0:0:0:
266,50,144655,2,0,L|276:105,1,53.9999983520508,2|2,0:0|0:0,0:0:0:0:
286,150,145073,5,6,0:0:0:0:
425,191,145492,1,2,0:0:0:0:
376,271,145771,2,0,P|344:285|318:281,1,53.9999983520508,8|8,0:0|0:0,0:0:0:0:
277,283,146190,2,0,L|269:227,1,53.9999983520508,2|2,0:0|0:0,0:0:0:0:
182,185,146748,2,0,L|190:241,1,53.9999983520508,2|2,0:0|0:0,0:0:0:0:
115,301,147306,6,0,L|103:219,1,80.9999975280763,6|8,0:0|0:0,0:0:0:0:
103,123,148003,2,0,P|117:102|146:86,1,53.9999983520508,2|8,0:0|0:0,0:0:0:0:
238,93,148562,1,2,0:0:0:0:
327,131,148841,1,8,0:0:0:0:
317,227,149120,2,0,L|254:223,1,53.9999983520508,2|8,0:0|0:0,0:0:0:0:
180,274,149678,5,2,0:0:0:0:
256,332,149957,2,0,L|316:332,1,53.9999983520508,2|2,0:0|0:0,0:0:0:0:
403,305,150515,2,0,L|405:252,1,53.9999983520508,2|2,0:0|0:0,0:0:0:0:
400,202,150934,2,0,P|376:186|343:188,1,53.9999983520508,2|2,0:0|0:0,0:0:0:0:
273,243,151492,1,2,0:0:0:0:
258,146,151771,6,0,P|225:135|176:143,1,80.9999975280763,6|8,0:0|0:0,0:0:0:0:
133,226,152469,2,0,L|137:256,2,26.9999991760254,8|8|8,0:0|0:0|0:0,0:0:0:0:
83,224,152887,2,0,L|70:136,1,80.9999975280763,6|8,0:0|0:0,0:0:0:0:
150,86,153585,2,0,L|145:57,2,26.9999991760254,8|8|8,0:0|0:0|0:0,0:0:0:0:
184,119,154003,6,0,L|268:130,1,80.9999975280763,6|8,0:0|0:0,0:0:0:0:
359,152,154701,2,0,L|363:211,1,53.9999983520508,8|8,0:0|0:0,0:0:0:0:
363,254,155120,2,0,P|347:285|263:264,1,134.999995880127,6|2,0:0|0:0,0:0:0:0:
207,49,156515,5,2,0:0:0:0:
362,47,156934,1,2,0:0:0:0:
428,176,157352,1,2,0:0:0:0:
359,306,157771,1,2,0:0:0:0:
213,316,158190,2,0,L|205:260,1,53.9999983520508,2|8,0:0|0:0,0:0:0:0:
196,214,158608,6,0,L|307:197,2,107.999996704102,6|0|0,0:0|0:0|0:0,0:0:0:0:
81,56,160283,1,0,0:0:0:0:
28,191,160701,1,2,0:0:0:0:
256,192,160841,12,2,162934,0:0:0:0:
256,192,165306,12,2,167399,0:0:0:0:
288,120,169213,6,0,P|320:104|344:104,1,53.9999983520508,8|0,0:0|0:0,0:0:0:0:
377,131,169631,2,0,L|385:219,1,80.9999975280763,6|6,0:0|0:0,0:0:0:0:
319,284,170329,2,0,P|319:264|262:236,1,80.9999975280763,2|0,0:0|0:0,0:0:0:0:
227,250,170887,2,0,B|200:264|200:264|164:262,1,53.9999983520508,6|6,0:0|0:0,0:0:0:0:
145,170,171445,2,0,B|172:156|172:156|208:158,1,53.9999983520508,6|6,0:0|0:0,0:0:0:0:
293,155,172003,5,8,0:0:0:0:
302,107,172143,2,0,L|310:52,1,53.9999983520508,2|2,0:0|0:0,0:0:0:0:
406,67,172701,2,0,L|427:88,2,26.9999991760254,8|8|8,0:0|0:0|0:0,0:0:0:0:
272,248,173957,6,0,P|262:256|342:271,1,215.999993408203,8|2,0:0|0:0,0:0:0:0:
339,179,175352,6,0,P|312:154|285:147,1,53.9999983520508,6|8,0:0|0:0,0:0:0:0:
201,125,175910,2,0,L|194:180,1,53.9999983520508,2|8,0:0|0:0,0:0:0:0:
186,226,176329,2,0,P|155:247|112:249,1,80.9999975280763,2|8,0:0|0:0,0:0:0:0:
68,161,177027,2,0,P|78:132|105:111,1,53.9999983520508,2|8,0:0|0:0,0:0:0:0:
191,125,177585,6,0,L|247:117,1,53.9999983520508,6|8,0:0|0:0,0:0:0:0:
341,108,178143,2,0,P|349:140|366:166,1,53.9999983520508,2|8,0:0|0:0,0:0:0:0:
379,202,178562,2,0,P|410:223|453:225,1,80.9999975280763,2|8,0:0|0:0,0:0:0:0:
476,130,179260,2,0,P|465:101|438:80,1,53.9999983520508,2|2,0:0|0:0,0:0:0:0:
353,67,179818,6,0,L|297:59,1,53.9999983520508,6|8,0:0|0:0,0:0:0:0:
202,49,180376,2,0,P|181:68|147:74,1,53.9999983520508,2|8,0:0|0:0,0:0:0:0:
112,94,180794,2,0,L|104:176,1,80.9999975280763,2|8,0:0|0:0,0:0:0:0:
177,239,181492,2,0,L|240:218,1,53.9999983520508,2|8,0:0|0:0,0:0:0:0:
325,222,182050,6,0,L|359:233,2,26.9999991760254,2|8|0,0:0|0:0|0:0,0:0:0:0:
277,137,182608,2,0,L|277:79,1,53.9999983520508,2|8,0:0|0:0,0:0:0:0:
187,44,183166,2,0,L|152:32,2,26.9999991760254,2|8|0,0:0|0:0|0:0,0:0:0:0:
180,140,183724,2,0,L|180:198,1,53.9999983520508,2|8,0:0|0:0,0:0:0:0:
182,242,184143,6,0,L|93:249,1,80.9999975280763,2|2,0:0|0:0,0:0:0:0:
11,209,184841,1,2,0:0:0:0:
8,111,185120,1,2,0:0:0:0:
87,54,185399,2,0,L|176:44,1,80.9999975280763,2|8,0:0|0:0,0:0:0:0:
252,99,186097,1,8,0:0:0:0:
253,196,186376,6,0,L|333:188,1,80.9999975280763,6|8,0:0|0:0,0:0:0:0:
428,167,187073,1,8,0:0:0:0:
450,261,187352,1,2,0:0:0:0:
380,328,187632,2,0,L|344:334,1,26.9999991760254,8|2,0:0|0:0,0:0:0:0:
256,331,188050,1,8,0:0:0:0:
182,267,188329,1,8,0:0:0:0:
272,230,188608,6,0,P|280:198|279:143,1,80.9999975280763,6|8,0:0|0:0,0:0:0:0:
283,52,189306,1,8,0:0:0:0:
186,61,189585,1,8,0:0:0:0:
110,121,189864,2,0,L|100:157,1,26.9999991760254,8|2,0:0|0:0,0:0:0:0:
80,241,190283,1,8,0:0:0:0:
144,313,190562,1,8,0:0:0:0:
236,283,190841,6,0,B|276:266|276:266|305:278|305:278|341:260|341:260|342:167,1,202.499993820191,12|10,0:0|0:0,0:0:0:0:
335,100,192097,2,0,L|281:94,1,53.9999983520508,2|0,0:0|0:0,0:0:0:0:
137,116,192794,6,0,L|172:123,1,26.9999991760254,10|0,0:0|0:0,0:0:0:0:
