osu file format v14

[General]
AudioFilename: audio.mp3
AudioLeadIn: 0
PreviewTime: 57651
Countdown: 0
SampleSet: Normal
StackLeniency: 0.2
Mode: 0
LetterboxInBreaks: 0
WidescreenStoryboard: 1

[Editor]
Bookmarks: 33093
DistanceSpacing: 2.1
BeatDivisor: 4
GridSize: 4
TimelineZoom: 3.899998

[Metadata]
Title:Tenohira de odoru
TitleUnicode:掌で踊る
Artist:sokoninaru
ArtistUnicode:そこに鳴る
Creator:Snepif
Version:Extreme
Source:
Tags:silleth itashas13 ゼロ zero koga records j-pop j-rock japanese metal alternative indie rock math-rock tenohiradeodoru
BeatmapID:1641323
BeatmapSetID:773686

[Difficulty]
HPDrainRate:5.5
CircleSize:4
OverallDifficulty:8.8
ApproachRate:9.5
SliderMultiplier:1.7
SliderTickRate:1

[Events]
//Background and Video events
0,0,"bg.jpg",0,0
//Break Periods
2,297,3897
//Storyboard Layer 0 (Background)
//Storyboard Layer 1 (Fail)
//Storyboard Layer 2 (Pass)
//Storyboard Layer 3 (Foreground)
//Storyboard Layer 4 (Overlay)
//Storyboard Sound Samples

[TimingPoints]
97,279.06976744186,4,1,1,80,1,0
97,-166.666666666667,4,1,1,80,0,0
4631,-166.666666666667,4,1,1,40,0,0
5259,-166.666666666667,4,2,1,80,0,0
6794,-166.666666666667,4,1,1,80,0,0
7771,-166.666666666667,4,1,1,30,0,0
7910,-166.666666666667,4,1,1,80,0,0
8050,-166.666666666667,4,1,1,30,0,0
8190,-166.666666666667,4,1,1,80,0,0
8329,-166.666666666667,4,1,1,30,0,0
8469,-166.666666666667,4,1,1,80,0,0
8608,-166.666666666667,4,1,1,30,0,0
8748,-166.666666666667,4,1,1,80,0,0
8887,-166.666666666667,4,1,1,30,0,0
9027,-166.666666666667,4,1,1,90,0,0
9306,-166.666666666667,4,1,1,75,0,0
10841,-166.666666666667,4,2,1,80,0,0
10980,-166.666666666667,4,1,1,80,0,0
11120,-166.666666666667,4,2,1,80,0,0
11259,-166.666666666667,4,1,1,80,0,0
12655,-100,4,1,1,80,0,0
13213,-200,4,1,1,80,0,0
13492,-83.3333333333333,4,1,1,80,0,1
17817,-83.3333333333333,4,2,0,80,0,1
17957,-83.3333333333333,4,1,1,80,0,1
21236,-83.3333333333333,4,1,1,30,0,1
21445,-83.3333333333333,4,1,1,80,0,1
21515,-83.3333333333333,4,1,1,30,0,1
21724,-83.3333333333333,4,1,1,80,0,1
21794,-83.3333333333333,4,1,1,30,0,1
22003,-83.3333333333333,4,1,1,80,0,1
22073,-83.3333333333333,4,1,1,30,0,1
22283,-100,4,1,1,80,0,0
23538,-83.3333333333333,4,1,1,80,0,0
24655,-83.3333333333333,4,2,3,65,0,0
25771,-200,4,2,0,80,0,0
26050,-200,4,2,0,40,0,0
26469,-66.6666666666667,4,1,1,80,0,0
26748,-142.857142857143,4,1,1,80,0,0
26887,-142.857142857143,4,2,0,40,0,0
30794,-142.857142857143,4,2,0,80,0,0
31213,-100,4,1,1,80,0,0
35608,-100,4,1,1,30,0,0
35678,-142.857142857143,4,1,1,65,0,0
38050,-142.857142857143,4,3,0,80,0,0
38120,-142.857142857143,4,2,1,80,0,0
39585,-142.857142857143,4,1,1,80,0,0
40143,-100,4,1,1,80,0,0
44608,-166.666666666667,4,1,1,80,0,0
45027,-166.666666666667,4,2,0,50,0,0
49073,-100,4,1,1,80,0,0
51445,-166.666666666667,4,1,1,80,0,0
51585,-166.666666666667,4,2,0,40,0,0
53120,-100,4,1,1,80,0,0
56190,-100,4,2,0,80,0,0
57027,-200,4,2,1,80,0,0
57306,-200,4,2,0,50,0,0
57585,-200,4,2,0,60,0,0
58003,-83.3333333333333,4,1,1,80,0,1
61352,-100,4,1,1,80,0,0
61422,-100,4,1,1,30,0,0
61631,-100,4,1,1,80,0,0
61701,-100,4,1,1,30,0,0
61910,-100,4,1,1,80,0,0
61980,-100,4,1,1,30,0,0
62190,-100,4,1,1,80,0,0
62259,-100,4,1,1,30,0,0
62469,-100,4,1,1,80,0,0
66934,-83.3333333333333,4,1,1,80,0,1
70352,-83.3333333333333,4,1,1,30,0,1
70562,-83.3333333333333,4,1,1,80,0,1
70631,-83.3333333333333,4,1,1,30,0,1
70841,-83.3333333333333,4,1,1,80,0,1
70910,-83.3333333333333,4,1,1,30,0,1
71120,-83.3333333333333,4,1,1,80,0,1
71190,-83.3333333333333,4,1,1,30,0,1
71399,-83.3333333333333,4,1,1,80,0,1
75445,-83.3333333333333,4,1,1,30,0,1
75585,-83.3333333333333,4,1,1,80,0,1
75724,-83.3333333333333,4,1,1,30,0,1
75864,-83.3333333333333,4,1,1,80,0,1
76562,-83.3333333333333,4,1,2,80,0,1
77120,-83.3333333333333,4,1,1,80,0,1
78794,-83.3333333333333,4,1,2,80,0,1
79352,-83.3333333333333,4,1,1,80,0,1
80190,-166.666666666667,4,1,1,80,0,1
80469,-83.3333333333333,4,1,1,90,0,1
82701,-200,4,1,1,80,0,0
83259,-200,4,1,1,40,0,0
84933,-200,4,2,0,80,0,0
85003,-125,4,2,1,40,0,0
87026,-400,4,1,1,20,0,0
87166,-200,4,1,1,5,0,0
89120,-200,4,1,1,80,0,0
89399,-83.3333333333333,4,1,1,80,0,1
93724,-83.3333333333333,4,2,0,80,0,1
93864,-83.3333333333333,4,1,1,80,0,1
97213,-125,4,1,1,80,0,0
98608,-125,4,1,1,65,0,0
102654,-111.111111111111,4,1,1,80,0,0
103073,-76.9230769230769,4,1,1,80,0,0
104887,-111.111111111111,4,1,1,80,0,0
106143,-200,4,2,2,60,0,0
106422,-125,4,2,0,60,0,0
107119,-100,4,1,1,80,0,0
107817,-100,4,2,1,80,0,0
108236,-100,4,1,1,80,0,0
108933,-100,4,2,1,80,0,0
109352,-100,4,1,1,80,0,0
110050,-100,4,2,1,80,0,0
110608,-100,4,1,1,80,0,0
112282,-100,4,2,0,80,0,0
112701,-100,4,1,1,80,0,0
113398,-100,4,2,0,80,0,0
113817,-100,4,1,1,80,0,0
114514,-200,4,2,0,80,0,0
114934,-83.3333333333333,4,1,1,80,0,0
116050,-166.666666666667,4,1,1,80,0,0
116119,-166.666666666667,4,2,0,45,0,0
120655,-125,4,1,1,80,0,0
120933,-125,4,2,1,80,0,0
121771,-125,4,1,1,80,0,0
122050,-125,4,2,1,80,0,0
122887,-125,4,1,1,80,0,0
123166,-125,4,2,1,80,0,0
124003,-125,4,1,1,80,0,0
124282,-125,4,2,1,80,0,0
124840,-125,4,2,1,80,0,0
124980,-100,4,1,1,50,0,0
126096,-100,4,1,1,65,0,0
127212,-100,4,1,1,80,0,0
128329,-100,4,1,1,90,0,0
129585,-166.666666666667,4,2,0,30,0,0
131817,-76.9230769230769,4,1,1,90,0,0
133910,-83.3333333333333,4,1,1,80,0,1
137259,-100,4,1,1,80,0,0
137329,-100,4,1,1,30,0,0
137538,-100,4,1,1,80,0,0
137608,-100,4,1,1,30,0,0
137817,-100,4,1,1,80,0,0
137887,-100,4,1,1,30,0,0
138096,-100,4,1,1,80,0,0
138166,-100,4,1,1,30,0,0
138375,-100,4,1,1,80,0,0
142422,-100,4,1,1,30,0,0
142561,-100,4,1,1,80,0,0
142701,-100,4,1,1,30,0,0
142841,-83.3333333333333,4,1,1,80,0,1
146259,-83.3333333333333,4,1,1,30,0,1
146468,-83.3333333333333,4,1,1,80,0,1
146538,-83.3333333333333,4,1,1,30,0,1
146747,-83.3333333333333,4,1,1,80,0,1
146817,-83.3333333333333,4,1,1,30,0,1
147026,-83.3333333333333,4,1,1,80,0,1
147096,-83.3333333333333,4,1,1,30,0,1
147305,-83.3333333333333,4,1,1,80,0,1
148561,-83.3333333333333,4,1,1,80,0,1
152468,-83.3333333333333,4,1,2,80,0,1
152887,-83.3333333333333,4,1,1,80,0,1
154701,-83.3333333333333,4,1,2,80,0,1
155119,-83.3333333333333,4,1,1,80,0,1
156095,-142.857142857143,4,1,1,80,0,1
156376,-83.3333333333333,4,1,1,80,0,0
156585,-83.3333333333333,4,1,1,30,0,0
156933,-83.3333333333333,4,1,1,80,0,0
157003,-83.3333333333333,4,1,1,30,0,0
157352,-83.3333333333333,4,1,1,80,0,0
157422,-83.3333333333333,4,1,1,30,0,0
157771,-83.3333333333333,4,1,1,80,0,0
157840,-83.3333333333333,4,1,1,30,0,0
158189,-83.3333333333333,4,1,1,80,0,0
158259,-83.3333333333333,4,1,1,30,0,0
158329,-125,4,1,1,80,0,0
158887,-125,4,1,1,50,0,0
160282,-83.3333333333333,4,2,0,70,0,0
160701,-142.857142857143,4,2,0,60,0,0
162654,-142.857142857143,4,1,1,60,0,0
162794,-142.857142857143,4,2,0,60,0,0
162933,-166.666666666667,4,1,1,60,0,0
163073,-166.666666666667,4,2,0,60,0,0
163212,-166.666666666667,4,2,0,60,0,0
165166,-125,4,1,1,80,0,0
165305,-125,4,2,0,60,0,0
166003,-100,4,1,1,80,0,0
166422,-100,4,2,0,80,0,0
167398,-400,4,2,2,50,0,0
167537,-400,4,2,2,30,0,0
169072,-400,4,1,1,80,0,0
169213,-100,4,1,1,80,0,0
169630,-76.9230769230769,4,1,1,80,0,0
170327,-200,4,2,0,80,0,0
170887,-100,4,2,3,65,0,0
172002,-100,4,1,1,80,0,0
172699,-100,4,1,1,90,0,0
173120,-125,4,2,0,30,0,0
173955,-133.333333333333,4,1,1,80,0,0
174024,-133.333333333333,4,1,1,10,0,0
175071,-200,4,1,1,80,0,0
175352,-76.9230769230769,4,1,1,80,0,1
179675,-76.9230769230769,4,2,0,80,0,1
179815,-76.9230769230769,4,1,1,80,0,1
184143,-100,4,1,1,80,0,0
184559,-100,4,2,0,80,0,0
185396,-100,4,1,1,80,0,0
192094,-166.666666666667,4,2,0,60,0,0
192791,-38.4615384615385,4,1,1,80,0,0
192931,-100,4,1,1,30,0,0

[Colours]
Combo1 : 138,138,244
Combo2 : 250,78,78
Combo3 : 206,128,240
Combo4 : 254,201,129

[HitObjects]
428,112,97,5,8,0:0:0:0:
428,112,4422,5,8,0:0:0:0:
412,108,4492,1,8,0:0:0:0:
396,104,4562,2,0,L|392:256,1,152.999995330811,2|2,0:0|0:0,0:0:0:0:
140,268,5259,5,8,0:0:0:0:
140,268,5399,1,8,0:0:0:0:
140,268,5538,1,8,0:0:0:0:
68,168,5678,5,8,0:0:0:0:
68,168,5817,1,8,0:0:0:0:
68,168,5957,1,8,0:0:0:0:
68,168,6096,1,8,0:0:0:0:
144,68,6236,5,8,0:0:0:0:
144,68,6376,1,8,0:0:0:0:
144,68,6515,1,8,0:0:0:0:
144,68,6655,1,8,0:0:0:0:
272,68,6794,6,0,L|280:224,1,152.999995330811,2|2,0:0|0:0,0:0:0:0:
279,220,7492,1,0,0:0:0:0:
428,168,7631,2,0,P|448:148|464:116,1,50.9999984436036,2|0,0:0|0:0,0:0:0:0:
232,56,7910,2,0,P|272:32|288:28,1,50.9999984436036,2|0,0:0|0:0,0:0:0:0:
116,192,8190,2,0,L|112:248,1,50.9999984436036,2|0,0:0|0:0,0:0:0:0:
288,348,8469,2,0,L|284:276,1,50.9999984436036,2|0,0:0|0:0,0:0:0:0:
384,124,8748,2,0,L|392:180,1,50.9999984436036,2|0,0:0|0:0,0:0:0:0:
228,176,9027,5,8,0:0:0:0:
500,160,9166,1,8,0:0:0:0:
308,40,9306,6,0,L|272:36,1,25.4999992218018,2|2,0:0|0:0,0:0:0:0:
140,112,9445,1,2,0:0:0:0:
140,112,9515,1,2,0:0:0:0:
140,112,9585,6,0,L|176:108,1,25.4999992218018,2|2,0:0|0:0,0:0:0:0:
272,224,9724,1,2,0:0:0:0:
272,224,9794,1,2,0:0:0:0:
272,224,9864,6,0,L|236:220,1,25.4999992218018,2|2,0:0|0:0,0:0:0:0:
128,328,10003,1,2,0:0:0:0:
128,328,10073,1,2,0:0:0:0:
128,328,10143,6,0,L|184:320,1,50.9999984436036,8|2,0:0|0:0,0:0:0:0:
400,304,10422,1,2,0:0:0:0:
432,284,10492,1,2,0:0:0:0:
452,252,10562,1,2,0:0:0:0:
456,216,10631,1,2,0:0:0:0:
448,180,10701,1,2,0:0:0:0:
428,152,10771,1,0,0:0:0:0:
396,132,10841,2,0,L|336:140,1,50.9999984436036,10|2,0:2|0:0,0:0:0:0:
84,280,11120,2,0,L|132:276,1,25.4999992218018,10|0,0:0|0:0,0:0:0:0:
192,268,11259,5,8,0:0:0:0:
280,96,11399,1,2,0:0:0:0:
308,328,11538,1,2,0:0:0:0:
136,116,11678,5,8,0:0:0:0:
384,144,11817,1,2,0:0:0:0:
164,240,11957,1,2,0:0:0:0:
352,52,12096,5,8,0:0:0:0:
312,312,12236,1,2,0:0:0:0:
224,96,12376,2,0,L|260:100,1,25.4999992218018,2|2,0:0|0:0,0:0:0:0:
464,116,12515,2,0,L|424:112,1,25.4999992218018,2|2,0:0|0:0,0:0:0:0:
68,116,12655,5,8,0:0:0:0:
348,104,12794,1,0,0:0:0:0:
384,184,13213,6,0,L|392:236,1,42.5,2|0,0:0|0:0,0:0:0:0:
408,320,13492,5,6,0:0:0:0:
156,288,13631,1,0,0:0:0:0:
320,216,13771,2,0,L|340:144,1,50.9999984436036,8|8,0:0|0:0,0:0:0:0:
220,24,13910,2,0,L|224:84,1,50.9999984436036,8|2,0:0|0:0,0:0:0:0:
232,168,14050,1,2,0:0:0:0:
476,192,14190,1,2,0:0:0:0:
336,284,14329,1,2,0:0:0:0:
336,84,14469,5,2,0:0:0:0:
312,64,14539,1,2,0:0:0:0:
288,52,14609,1,2,0:0:0:0:
260,48,14678,1,2,0:0:0:0:
232,48,14748,2,0,L|220:104,1,50.9999984436036,2|2,0:0|0:0,0:0:0:0:
216,184,14887,5,8,0:0:0:0:
188,196,14957,1,2,0:0:0:0:
156,200,15027,1,2,0:0:0:0:
124,200,15096,1,2,0:0:0:0:
96,192,15166,2,0,L|92:128,3,50.9999984436036,2|2|2|2,0:0|0:0|0:0|0:0,0:0:0:0:
88,332,15445,5,8,0:0:0:0:
140,328,15515,1,8,0:0:0:0:
192,324,15585,1,8,0:0:0:0:
244,320,15655,1,8,0:0:0:0:
296,316,15724,6,0,P|308:264|296:212,1,101.999996887207,6|0,0:0|0:0,0:0:0:0:
432,32,16003,2,0,P|442:61|448:84,1,50.9999984436036,8|2,0:0|0:0,0:0:0:0:
352,224,16143,2,0,P|328:208|312:188,1,50.9999984436036,8|8,0:0|0:0,0:0:0:0:
380,140,16283,1,2,0:0:0:0:
196,192,16422,1,8,0:0:0:0:
384,308,16562,1,2,0:0:0:0:
152,352,16701,5,2,0:0:0:0:
124,344,16771,1,2,0:0:0:0:
100,328,16841,1,2,0:0:0:0:
84,304,16910,1,2,0:0:0:0:
80,272,16980,2,0,L|84:208,1,50.9999984436036,2|2,0:0|0:0,0:0:0:0:
164,176,17120,5,8,0:0:0:0:
192,168,17190,1,2,0:0:0:0:
220,152,17259,1,2,0:0:0:0:
240,128,17329,1,2,0:0:0:0:
248,100,17399,2,0,P|248:68|244:40,3,50.9999984436036,2|2|2|2,0:0|0:0|0:0|0:0,0:0:0:0:
152,84,17678,5,8,0:0:0:0:
368,168,17817,1,2,0:0:0:0:
168,292,17957,6,0,P|220:296|272:260,1,101.999996887207,6|0,0:0|0:0,0:0:0:0:
464,200,18236,2,0,L|476:268,1,50.9999984436036,8|2,0:0|0:0,0:0:0:0:
396,100,18376,2,0,P|416:78|464:60,1,50.9999984436036,8|8,0:0|0:0,0:0:0:0:
368,232,18515,1,2,0:0:0:0:
164,256,18655,1,8,0:0:0:0:
296,92,18794,1,2,0:0:0:0:
92,60,18934,5,2,0:0:0:0:
64,80,19003,1,2,0:0:0:0:
52,112,19073,1,2,0:0:0:0:
52,144,19143,1,2,0:0:0:0:
64,176,19213,2,0,L|136:168,1,50.9999984436036,2|2,0:0|0:0,0:0:0:0:
200,152,19352,5,8,0:0:0:0:
216,180,19422,1,2,0:0:0:0:
220,212,19492,1,2,0:0:0:0:
212,244,19562,1,2,0:0:0:0:
192,272,19631,2,0,L|128:268,3,50.9999984436036,2|2|2|2,0:0|0:0|0:0|0:0,0:0:0:0:
288,320,19910,5,8,0:0:0:0:
292,268,19980,1,8,0:0:0:0:
296,216,20050,1,8,0:0:0:0:
300,164,20120,1,8,0:0:0:0:
304,112,20190,6,0,L|408:124,1,101.999996887207,6|0,0:0|0:0,0:0:0:0:
252,336,20469,1,8,0:0:0:0:
208,104,20608,1,2,0:0:0:0:
208,104,20678,1,2,0:0:0:0:
208,104,20748,1,8,0:0:0:0:
104,280,20887,1,8,0:0:0:0:
308,192,21027,1,8,0:0:0:0:
88,124,21166,6,0,L|76:184,1,50.9999984436036,2|0,0:0|0:0,0:0:0:0:
168,96,21445,6,0,L|160:148,1,50.9999984436036,2|0,0:0|0:0,0:0:0:0:
248,80,21724,6,0,L|240:136,1,50.9999984436036,2|0,0:0|0:0,0:0:0:0:
328,52,22003,6,0,L|320:108,1,50.9999984436036,2|0,0:0|0:0,0:0:0:0:
328,52,22283,6,0,B|316:107|312:144|312:144|336:168|388:152,1,170,6|2,0:0|0:0,0:0:0:0:
144,80,22701,2,0,P|92:64|48:68,1,85,8|2,0:0|0:0,0:0:0:0:
192,332,22980,2,0,P|240:328|272:292,1,85,8|2,0:0|0:0,0:0:0:0:
456,120,23259,1,2,0:0:0:0:
456,120,23329,1,2,0:0:0:0:
456,120,23399,1,2,0:0:0:0:
192,172,23538,5,8,0:0:0:0:
448,304,23678,2,0,L|340:288,1,101.999996887207,2|8,0:0|0:0,0:0:0:0:
64,52,23957,2,0,L|172:36,1,101.999996887207,2|0,0:0|0:0,0:0:0:0:
184,336,24236,2,0,P|124:292|124:240,1,101.999996887207,2|0,0:0|0:0,0:0:0:0:
408,40,24515,2,0,L|396:164,1,101.999996887207,6|2,0:0|0:0,0:0:0:0:
380,312,24794,5,4,0:2:0:0:
336,328,24864,1,4,0:0:0:0:
288,324,24934,1,6,0:0:0:0:
244,308,25003,1,4,0:0:0:0:
212,272,25073,1,4,0:0:0:0:
200,224,25143,1,4,0:0:0:0:
208,176,25213,1,6,0:0:0:0:
236,136,25283,1,4,0:0:0:0:
280,116,25352,1,4,0:0:0:0:
328,112,25422,1,4,0:0:0:0:
372,132,25492,2,0,L|360:216,3,50.9999984436036,6|6|6|6,0:0|0:0|0:0|0:0,0:0:0:0:
404,164,25771,6,0,L|392:252,1,85,2|0,0:0|0:0,0:0:0:0:
440,188,26469,6,0,L|424:324,1,127.500004863739,8|0,0:0|0:0,0:0:0:0:
296,68,26748,6,0,L|304:140,1,59.4999981842042,6|0,0:0|0:0,0:0:0:0:
264,272,27027,2,0,P|228:264|192:236,2,59.4999981842042,0|0|0,0:0|0:0|0:0,0:0:0:0:
92,84,27585,1,0,0:0:0:0:
40,184,27724,6,0,L|28:264,1,59.4999981842042,0|0,0:0|0:0,0:0:0:0:
92,84,28003,2,0,P|152:76|208:104,1,118.999996368408,2|0,0:0|0:0,0:0:0:0:
240,228,28422,2,0,P|290:250|352:236,1,118.999996368408,0|0,0:0|0:0,0:0:0:0:
440,120,28841,1,0,0:0:0:0:
440,120,28980,1,0,0:0:0:0:
308,84,29120,6,0,P|276:56|264:24,1,59.4999981842042,2|0,0:0|0:0,0:0:0:0:
448,112,29399,1,0,0:0:0:0:
460,244,29538,2,0,L|448:368,1,118.999996368408,0|0,0:0|0:0,0:0:0:0:
312,276,29957,1,2,0:0:0:0:
312,276,30794,6,0,P|256:320|197:311,1,118.999996368408,2|0,0:0|0:0,0:0:0:0:
320,280,31213,6,0,P|252:328|175:302,1,170,4|0,0:0|0:0,0:0:0:0:
76,48,31631,2,0,P|52:96|52:136,1,85,8|2,0:0|0:0,0:0:0:0:
412,228,31910,2,0,P|360:188|328:184,1,85,8|2,0:0|0:0,0:0:0:0:
108,344,32190,2,0,L|116:248,1,85,8|2,0:0|0:0,0:0:0:0:
300,24,32469,2,0,L|308:120,1,85,8|2,0:0|0:0,0:0:0:0:
472,332,32748,2,0,P|424:348|368:336,1,85,8|2,0:0|0:0,0:0:0:0:
184,252,33027,5,8,0:0:0:0:
440,136,33166,1,2,0:0:0:0:
200,112,33306,1,8,0:0:0:0:
320,272,33445,6,0,L|332:88,1,170,6|2,0:0|0:0,0:0:0:0:
48,316,33864,2,0,P|80:352|136:356,1,85,8|2,0:0|0:0,0:0:0:0:
184,28,34143,2,0,P|152:72|152:108,1,85,8|2,0:0|0:0,0:0:0:0:
448,204,34422,2,0,P|396:176|356:176,1,85,8|2,0:0|0:0,0:0:0:0:
128,192,34701,5,2,0:0:0:0:
131,211,34771,1,2,0:0:0:0:
134,231,34841,1,2,0:0:0:0:
137,251,34910,1,2,0:0:0:0:
140,271,34980,1,2,0:0:0:0:
143,290,35050,1,2,0:0:0:0:
146,310,35120,1,2,0:0:0:0:
149,330,35190,1,2,0:0:0:0:
153,350,35259,1,8,0:0:0:0:
352,308,35399,2,0,B|356:244|356:244|352:236|352:236|356:176,1,127.5,2|0,0:0|0:0,0:0:0:0:
360,96,35678,6,0,P|324:56|252:56,1,118.999996368408,6|2,0:0|0:0,0:0:0:0:
84,152,36096,1,2,0:0:0:0:
80,168,36166,1,2,0:0:0:0:
80,184,36236,1,2,0:0:0:0:
84,200,36306,1,2,0:0:0:0:
92,212,36376,1,2,0:0:0:0:
104,220,36445,1,2,0:0:0:0:
116,228,36515,1,2,0:0:0:0:
132,232,36585,1,2,0:0:0:0:
148,232,36655,2,0,L|160:192,3,29.7499990921021,2|2|2|2,0:0|0:0|0:0|0:0,0:0:0:0:
172,124,36934,5,2,0:0:0:0:
188,120,37003,1,2,0:0:0:0:
204,116,37073,1,2,0:0:0:0:
220,112,37143,1,2,0:0:0:0:
228,100,37213,1,2,0:0:0:0:
244,96,37283,1,2,0:0:0:0:
260,92,37352,1,2,0:0:0:0:
276,88,37422,1,2,0:0:0:0:
292,84,37492,2,0,L|288:128,3,29.7499990921021,2|2|2|2,0:0|0:0|0:0|0:0,0:0:0:0:
364,180,37771,2,0,L|361:150,3,29.7499990921021,2|2|2|2,0:0|0:0|0:0|0:0,0:0:0:0:
372,64,38050,6,0,L|440:68,1,59.4999981842042,2|0,0:0|0:0,0:0:0:0:
352,276,38329,1,8,0:0:0:0:
352,276,38399,1,8,0:0:0:0:
352,276,38469,1,8,0:0:0:0:
352,276,38538,1,8,0:0:0:0:
352,276,38608,1,8,0:0:0:0:
228,116,38748,1,8,0:0:0:0:
188,328,38887,5,8,0:0:0:0:
92,228,39027,1,8,0:0:0:0:
300,192,39166,1,8,0:0:0:0:
300,192,39236,1,8,0:0:0:0:
300,192,39306,1,8,0:0:0:0:
72,120,39445,1,8,0:0:0:0:
224,64,39585,5,2,0:0:0:0:
212,280,39724,1,8,0:0:0:0:
236,64,39864,1,2,0:0:0:0:
224,288,40003,1,8,0:0:0:0:
248,64,40143,6,0,P|308:48|392:112,1,170,6|2,0:0|0:0,0:0:0:0:
424,352,40562,2,0,L|432:252,1,85,8|2,0:0|0:0,0:0:0:0:
136,320,40841,2,0,P|88:308|60:252,1,85,8|2,0:0|0:0,0:0:0:0:
220,20,41120,2,0,P|216:76|184:112,1,85,8|2,0:0|0:0,0:0:0:0:
456,248,41399,2,0,P|408:272|364:264,1,85,8|2,0:0|0:0,0:0:0:0:
64,248,41678,2,0,L|60:152,1,85,8|2,0:0|0:0,0:0:0:0:
280,48,41957,5,8,0:0:0:0:
256,320,42096,1,2,0:0:0:0:
412,148,42236,1,8,0:0:0:0:
112,128,42376,6,0,P|64:208|88:280,1,170,6|2,0:0|0:0,0:0:0:0:
312,84,42794,2,0,P|288:36|240:20,1,85,8|2,0:0|0:0,0:0:0:0:
304,348,43073,2,0,P|356:344|392:320,1,85,8|2,0:0|0:0,0:0:0:0:
144,184,43352,2,0,L|48:176,1,85,8|2,0:0|0:0,0:0:0:0:
332,196,43631,5,2,0:0:0:0:
348,184,43701,1,2,0:0:0:0:
360,168,43771,1,2,0:0:0:0:
364,148,43841,1,2,0:0:0:0:
364,128,43910,1,2,0:0:0:0:
356,108,43980,1,2,0:0:0:0:
344,88,44050,1,2,0:0:0:0:
328,76,44120,1,2,0:0:0:0:
308,68,44190,5,2,0:0:0:0:
136,144,44329,2,0,L|140:280,1,127.5,2|0,0:0|0:0,0:0:0:0:
144,296,44608,6,0,P|204:252|296:264,1,152.999995330811,6|0,0:0|0:0,0:0:0:0:
404,324,45166,1,0,0:0:0:0:
404,324,45306,2,0,L|408:208,1,101.999996887207,2|0,0:0|0:0,0:0:0:0:
280,48,45864,2,0,L|283:149,1,101.999996887207,0|0,0:0|0:0,0:0:0:0:
32,120,46422,2,0,P|80:112|152:104,1,101.999996887207,2|0,0:0|0:0,0:0:0:0:
208,264,46980,6,0,P|168:292|112:288,1,101.999996887207,0|0,0:0|0:0,0:0:0:0:
288,204,47399,2,0,P|308:256|300:308,1,101.999996887207,2|0,0:0|0:0,0:0:0:0:
184,176,47817,2,0,P|212:136|232:124,1,50.9999984436036,0|0,0:0|0:0,0:0:0:0:
48,52,48096,2,0,L|56:176,1,101.999996887207,2|0,0:0|0:0,0:0:0:0:
264,88,48515,2,0,P|200:84|144:84,1,101.999996887207,2|0,0:0|0:0,0:0:0:0:
216,228,48934,1,0,0:0:0:0:
448,192,49073,6,0,P|496:264|468:344,1,170,6|2,0:0|0:0,0:0:0:0:
80,264,49492,2,0,L|88:356,1,85,8|2,0:0|0:0,0:0:0:0:
256,64,49771,2,0,P|220:36|164:16,1,85,2|2,0:0|0:0,0:0:0:0:
28,140,50050,1,8,0:0:0:0:
304,288,50190,6,0,P|348:268|384:144,1,170,6|2,0:0|0:0,0:0:0:0:
96,44,50608,2,0,L|184:36,1,85,8|2,0:0|0:0,0:0:0:0:
136,280,50887,2,0,P|132:332|152:368,1,85,2|2,0:0|0:0,0:0:0:0:
392,180,51166,1,8,0:0:0:0:
364,136,51236,1,8,0:0:0:0:
320,108,51306,1,8,0:0:0:0:
268,104,51376,1,8,0:0:0:0:
220,112,51445,6,0,L|212:180,1,50.9999984436036,2|0,0:0|0:0,0:0:0:0:
292,280,51724,1,0,0:0:0:0:
200,120,51864,6,0,L|192:188,1,50.9999984436036,0|2,0:0|0:0,0:0:0:0:
272,288,52143,1,0,0:0:0:0:
176,128,52283,6,0,L|168:196,1,50.9999984436036,0|2,0:0|0:0,0:0:0:0:
248,296,52562,1,0,0:0:0:0:
152,140,52701,6,0,L|144:208,1,50.9999984436036,0|2,0:0|0:0,0:0:0:0:
224,308,52980,1,0,0:0:0:0:
412,176,53120,5,8,0:0:0:0:
116,152,53259,1,8,0:0:0:0:
412,176,53538,6,0,P|396:252|480:328,1,170,6|2,0:0|0:0,0:0:0:0:
308,32,53957,2,0,P|264:28|216:48,1,85,12|2,0:0|0:0,0:0:0:0:
112,320,54236,1,12,0:0:0:0:
64,92,54376,1,2,0:0:0:0:
228,188,54515,1,12,0:0:0:0:
228,188,54585,1,0,0:0:0:0:
228,188,54655,1,2,0:0:0:0:
332,32,54794,5,12,0:0:0:0:
392,296,54934,2,0,L|404:196,1,85,2|2,0:0|0:0,0:0:0:0:
80,60,55213,2,0,L|68:160,1,85,6|2,0:0|0:0,0:0:0:0:
280,336,55492,2,0,P|328:352|372:344,1,85,6|2,0:0|0:0,0:0:0:0:
264,32,55771,2,0,P|200:72|200:168,1,170,6|2,0:0|0:0,0:0:0:0:
400,324,56190,5,2,0:0:0:0:
400,324,56259,1,2,0:0:0:0:
400,324,56329,2,0,L|408:272,1,42.5
284,64,56469,5,2,0:0:0:0:
284,64,56538,1,2,0:0:0:0:
284,64,56608,2,0,L|292:128,1,42.5
220,272,56748,5,2,0:0:0:0:
180,288,56817,1,2,0:0:0:0:
136,288,56887,1,2,0:0:0:0:
96,280,56957,1,2,0:0:0:0:
60,260,57027,6,0,L|52:164,1,85,10|2,0:0|0:0,0:0:0:0:
40,171,57585,6,0,L|48:256,1,85,2|0,0:0|0:0,0:0:0:0:
320,172,58003,6,0,P|308:92|184:52,1,203.999993774414,6|2,0:0|0:0,0:0:0:0:
48,184,58422,1,8,0:0:0:0:
184,340,58562,1,2,0:0:0:0:
184,340,58631,1,2,0:0:0:0:
184,340,58701,1,2,0:0:0:0:
348,104,58841,1,8,0:0:0:0:
252,236,58980,1,2,0:0:0:0:
184,60,59120,6,0,L|408:44,1,203.999993774414,6|2,0:0|0:0,0:0:0:0:
368,332,59538,1,8,0:0:0:0:
236,180,59678,1,2,0:0:0:0:
236,180,59748,1,2,0:0:0:0:
236,180,59817,2,0,L|228:232,1,50.9999984436036,2|2,0:0|0:0,0:0:0:0:
216,312,59957,1,2,0:0:0:0:
112,140,60096,1,2,0:0:0:0:
364,176,60236,6,0,P|348:116|208:72,1,203.999993774414,2|2,0:0|0:0,0:0:0:0:
76,312,60655,2,0,L|68:256,1,50.9999984436036,2|2,0:0|0:0,0:0:0:0:
176,204,60794,2,0,L|164:268,1,50.9999984436036,2|2,0:0|0:0,0:0:0:0:
84,168,60934,5,8,0:0:0:0:
88,116,61003,1,8,0:0:0:0:
112,72,61073,1,8,0:0:0:0:
156,44,61143,1,8,0:0:0:0:
208,40,61213,1,8,0:0:0:0:
256,56,61283,1,8,0:0:0:0:
292,88,61352,6,0,L|288:144,1,42.5,2|0,0:0|0:0,0:0:0:0:
320,104,61631,6,0,L|316:160,1,42.5,2|0,0:0|0:0,0:0:0:0:
344,124,61910,6,0,L|340:180,1,42.5,2|0,0:0|0:0,0:0:0:0:
372,140,62189,6,0,L|368:196,1,42.5,2|0,0:0|0:0,0:0:0:0:
292,88,62469,6,0,P|240:80|176:172,1,170,6|2,0:0|0:0,0:0:0:0:
408,336,62887,2,0,L|312:328,1,85,8|0,0:0|0:0,0:0:0:0:
184,176,63166,1,2,0:0:0:0:
136,316,63306,1,0,0:0:0:0:
328,236,63445,2,0,P|348:188|336:124,1,85,8|0,0:0|0:0,0:0:0:0:
96,40,63724,5,2,0:0:0:0:
324,24,63864,1,2,0:0:0:0:
220,208,64003,1,8,0:0:0:0:
92,48,64143,2,0,L|80:152,1,85,0|2,0:0|0:0,0:0:0:0:
308,340,64422,2,0,L|320:236,1,85,0|8,0:0|0:0,0:0:0:0:
232,60,64701,1,0,0:0:0:0:
416,104,64841,5,6,0:0:0:0:
212,228,64980,1,8,0:0:0:0:
416,344,65120,1,2,0:0:0:0:
428,348,65190,1,2,0:0:0:0:
440,348,65259,1,8,0:0:0:0:
244,112,65399,5,2,0:0:0:0:
228,328,65538,1,8,0:0:0:0:
432,224,65678,1,2,0:0:0:0:
440,212,65748,1,2,0:0:0:0:
444,200,65817,1,8,0:0:0:0:
238,68,65957,5,8,0:0:0:0:
237,80,66027,1,8,0:0:0:0:
236,92,66096,1,2,0:0:0:0:
234,103,66166,1,2,0:0:0:0:
233,115,66236,1,2,0:0:0:0:
208,308,66376,2,0,P|160:312|116:288,1,85,2|0,0:0|0:0,0:0:0:0:
392,160,66655,2,0,P|420:200|420:256,1,85,2|0,0:0|0:0,0:0:0:0:
68,52,66934,6,0,L|272:36,1,203.999993774414,6|2,0:0|0:0,0:0:0:0:
196,288,67352,1,8,0:0:0:0:
324,136,67492,1,2,0:0:0:0:
324,136,67562,1,2,0:0:0:0:
324,136,67631,1,2,0:0:0:0:
352,264,67771,1,8,0:0:0:0:
200,92,67910,1,2,0:0:0:0:
432,52,68050,6,0,P|484:156|436:232,1,203.999993774414,6|2,0:0|0:0,0:0:0:0:
252,280,68469,1,8,0:0:0:0:
188,92,68608,1,2,0:0:0:0:
188,92,68678,1,2,0:0:0:0:
188,92,68748,2,0,L|252:84,1,50.9999984436036,2|2,0:0|0:0,0:0:0:0:
320,72,68887,1,2,0:0:0:0:
92,104,69027,1,2,0:0:0:0:
224,228,69166,6,0,P|216:332|108:356,1,203.999993774414,6|2,0:0|0:0,0:0:0:0:
68,92,69585,2,0,P|56:116|48:152,1,50.9999984436036,2|2,0:0|0:0,0:0:0:0:
168,60,69724,2,0,P|144:32|128:20,1,50.9999984436036,2|2,0:0|0:0,0:0:0:0:
148,152,69864,5,8,0:0:0:0:
200,156,69934,1,8,0:0:0:0:
244,132,70003,1,8,0:0:0:0:
280,96,70073,1,8,0:0:0:0:
332,88,70143,1,8,0:0:0:0:
376,112,70213,1,8,0:0:0:0:
420,156,70283,6,0,L|424:92,1,50.9999984436036,2|0,0:0|0:0,0:0:0:0:
432,176,70562,6,0,L|436:112,1,50.9999984436036,2|0,0:0|0:0,0:0:0:0:
456,196,70841,6,0,L|460:132,1,50.9999984436036,2|0,0:0|0:0,0:0:0:0:
472,216,71120,6,0,L|476:152,1,50.9999984436036,2|0,0:0|0:0,0:0:0:0:
492,236,71399,6,0,P|404:304|300:244,1,203.999993774414,6|2,0:0|0:0,0:0:0:0:
76,72,71817,2,0,L|68:200,1,101.999996887207,8|0,0:0|0:0,0:0:0:0:
152,336,72096,1,2,0:0:0:0:
208,176,72236,1,2,0:0:0:0:
352,296,72376,2,0,P|376:240|368:176,1,101.999996887207,8|0,0:0|0:0,0:0:0:0:
188,44,72655,5,2,0:0:0:0:
220,276,72794,1,2,0:0:0:0:
368,132,72934,1,8,0:0:0:0:
52,176,73073,2,0,P|36:116|52:60,1,101.999996887207,0|2,0:0|0:0,0:0:0:0:
356,276,73352,2,0,P|340:344|300:380,1,101.999996887207,2|8,0:0|0:0,0:0:0:0:
160,236,73631,1,0,0:0:0:0:
316,144,73771,5,6,0:0:0:0:
44,120,73910,1,0,0:0:0:0:
144,332,74050,1,8,0:0:0:0:
152,344,74120,1,0,0:0:0:0:
164,352,74190,1,2,0:0:0:0:
288,88,74329,5,2,0:0:0:0:
316,332,74469,1,2,0:0:0:0:
480,172,74608,1,8,0:0:0:0:
484,156,74678,1,0,0:0:0:0:
484,140,74748,1,2,0:0:0:0:
276,144,74887,5,2,0:0:0:0:
260,148,74957,1,2,0:0:0:0:
244,152,75027,1,2,0:0:0:0:
228,156,75096,1,0,0:0:0:0:
212,160,75166,1,8,0:0:0:0:
28,224,75306,2,0,L|36:332,1,101.999996887207,2|0,0:0|0:0,0:0:0:0:
288,72,75585,2,0,P|220:36|156:40,1,101.999996887207,2|0,0:0|0:0,0:0:0:0:
276,344,75864,6,0,P|336:356|428:248,1,203.999993774414,6|2,0:0|0:0,0:0:0:0:
148,192,76283,2,0,L|46:203,1,101.999996887207,8|0,0:0|0:0,0:0:0:0:
352,52,76562,5,8,0:0:0:0:
328,296,76701,1,8,0:0:0:0:
132,56,76841,1,8,0:0:0:0:
164,352,76980,6,0,L|152:248,1,101.999996887207,8|0,0:0|0:0,0:0:0:0:
132,64,77259,1,2,0:0:0:0:
268,172,77399,2,0,P|324:176|380:136,1,101.999996887207,8|0,0:0|0:0,0:0:0:0:
60,184,77678,5,8,0:0:0:0:
62,208,77748,1,2,0:0:0:0:
65,232,77817,1,2,0:0:0:0:
68,256,77887,1,2,0:0:0:0:
71,280,77957,2,0,L|78:336,1,50.9999984436036,2|0,0:0|0:0,0:0:0:0:
160,280,78096,6,0,P|244:272|312:380,1,203.999993774414,6|2,0:0|0:0,0:0:0:0:
452,136,78515,2,0,P|440:208|456:252,1,101.999996887207,8|2,0:0|0:0,0:0:0:0:
108,64,78794,5,8,0:0:0:0:
384,36,78934,1,8,0:0:0:0:
68,232,79073,1,8,0:0:0:0:
376,312,79213,6,0,L|248:320,1,101.999996887207,8|0,0:0|0:0,0:0:0:0:
200,96,79492,1,2,0:0:0:0:
176,244,79631,1,2,0:0:0:0:
196,264,79701,1,2,0:0:0:0:
220,272,79771,1,2,0:0:0:0:
244,276,79841,1,2,0:0:0:0:
268,272,79910,1,2,0:0:0:0:
292,260,79980,1,2,0:0:0:0:
312,240,80050,1,2,0:0:0:0:
324,216,80120,1,2,0:0:0:0:
328,188,80190,6,0,L|320:124,1,50.9999984436036,2|0,0:0|0:0,0:0:0:0:
96,72,80469,5,8,0:0:0:0:
140,288,80655,1,2,0:0:0:0:
228,132,80841,1,2,0:0:0:0:
80,200,81027,5,8,0:0:0:0:
312,268,81213,1,2,0:0:0:0:
120,340,81399,1,2,0:0:0:0:
280,132,81585,5,8,0:0:0:0:
316,348,81771,1,2,0:0:0:0:
156,260,81957,1,2,0:0:0:0:
312,128,82143,5,8,0:0:0:0:
232,300,82329,1,2,0:0:0:0:
468,232,82515,1,2,0:0:0:0:
256,36,82701,5,6,0:0:0:0:
100,176,83259,2,0,P|140:244|228:232,2,170,0|0|0,0:0|0:0|0:0,0:0:0:0:
100,176,84933,6,0,B|96:212|128:272|200:260|220:236|220:236|144:116|236:4|408:16|412:168,1,595,4|0,0:0|0:0,0:0:0:0:
360,180,87026,6,0,P|344:112|316:216,1,297.5
304,156,89120,6,0,L|312:220,1,42.5,2|0,0:0|0:0,0:0:0:0:
336,348,89398,5,6,0:0:0:0:
472,200,89538,1,2,0:0:0:0:
196,268,89678,2,0,L|188:208,1,50.9999984436036,8|8,0:0|0:0,0:0:0:0:
44,112,89817,2,0,L|48:172,1,50.9999984436036,8|0,0:0|0:0,0:0:0:0:
108,220,89957,1,2,0:0:0:0:
324,136,90096,1,8,0:0:0:0:
188,24,90236,1,8,0:0:0:0:
208,208,90376,5,2,0:0:0:0:
228,224,90446,1,2,0:0:0:0:
252,236,90515,1,2,0:0:0:0:
276,240,90585,1,2,0:0:0:0:
300,240,90655,2,0,P|324:236|348:224,1,50.9999984436036,2|2,0:0|0:0,0:0:0:0:
416,156,90795,5,8,0:0:0:0:
420,180,90864,1,2,0:0:0:0:
424,204,90934,1,2,0:0:0:0:
428,228,91004,1,2,0:0:0:0:
432,252,91074,2,0,L|424:304,3,50.9999984436036,2|2|2|2,0:0|0:0|0:0|0:0,0:0:0:0:
336,352,91353,5,8,0:0:0:0:
284,344,91422,1,8,0:0:0:0:
236,332,91492,1,8,0:0:0:0:
188,320,91562,1,8,0:0:0:0:
140,308,91632,6,0,P|128:256|140:204,1,101.999996887207,6|2,0:0|0:0,0:0:0:0:
296,120,91911,2,0,L|284:184,1,50.9999984436036,8|0,0:0|0:0,0:0:0:0:
240,32,92050,2,0,P|264:16|296:8,1,50.9999984436036,8|8,0:0|0:0,0:0:0:0:
192,120,92190,1,2,0:0:0:0:
352,200,92329,1,8,0:0:0:0:
168,280,92469,1,8,0:0:0:0:
372,352,92608,5,2,0:0:0:0:
396,340,92678,1,2,0:0:0:0:
416,320,92748,1,2,0:0:0:0:
428,296,92817,1,2,0:0:0:0:
436,272,92887,2,0,L|440:208,1,50.9999984436036,2|2,0:0|0:0,0:0:0:0:
356,184,93027,5,8,0:0:0:0:
340,164,93097,1,2,0:0:0:0:
328,140,93166,1,2,0:0:0:0:
320,116,93236,1,2,0:0:0:0:
316,92,93306,2,0,P|316:60|320:32,3,50.9999984436036,2|2|2|2,0:0|0:0|0:0|0:0,0:0:0:0:
408,80,93585,5,8,0:0:0:0:
136,104,93724,1,2,0:0:0:0:
296,264,93864,6,0,L|292:384,1,101.999996887207,6|2,0:0|0:0,0:0:0:0:
88,286,94143,2,0,L|80:236,1,50.9999984436036,8|0,0:0|0:0,0:0:0:0:
200,104,94282,2,0,P|196:132|184:172,1,50.9999984436036,8|8,0:0|0:0,0:0:0:0:
104,144,94422,1,2,0:0:0:0:
316,168,94562,1,8,0:0:0:0:
208,24,94701,1,8,0:0:0:0:
192,252,94841,5,2,0:0:0:0:
208,268,94910,1,2,0:0:0:0:
232,280,94980,1,2,0:0:0:0:
256,284,95050,1,2,0:0:0:0:
280,284,95120,2,0,L|352:276,1,50.9999984436036,2|2,0:0|0:0,0:0:0:0:
376,200,95259,5,8,0:0:0:0:
368,176,95329,1,2,0:0:0:0:
352,156,95399,1,2,0:0:0:0:
332,140,95469,1,2,0:0:0:0:
308,136,95538,2,0,L|244:132,3,50.9999984436036,2|2|2|2,0:0|0:0|0:0|0:0,0:0:0:0:
168,132,95817,5,8,0:0:0:0:
164,184,95887,1,8,0:0:0:0:
160,236,95957,1,8,0:0:0:0:
156,288,96027,1,8,0:0:0:0:
156,340,96097,6,0,L|260:352,1,101.999996887207,6|2,0:0|0:0,0:0:0:0:
320,72,96376,1,8,0:0:0:0:
376,292,96515,1,8,0:0:0:0:
376,292,96585,1,8,0:0:0:0:
376,292,96655,1,8,0:0:0:0:
168,100,96794,1,8,0:0:0:0:
440,84,96934,1,8,0:0:0:0:
220,248,97073,6,0,L|216:320,1,50.9999984436036,2|0,0:0|0:0,0:0:0:0:
224,160,97352,5,2,0:0:0:0:
228,56,97561,5,2,0:0:0:0:
220,260,97771,6,0,L|219:310,1,34,8|0,0:0|0:0,0:0:0:0:
228,56,98189,6,0,P|296:40|356:104,1,136,6|2,0:0|0:0,0:0:0:0:
420,184,98608,1,8,0:0:0:0:
424,208,98678,1,2,0:0:0:0:
420,232,98747,1,2,0:0:0:0:
408,252,98817,1,2,0:0:0:0:
388,268,98887,2,0,L|384:304,3,34,2|2|2|2,0:0|0:0|0:0|0:0,0:0:0:0:
304,228,99166,5,8,0:0:0:0:
284,212,99236,1,2,0:0:0:0:
264,204,99305,1,2,0:0:0:0:
240,200,99375,1,2,0:0:0:0:
216,204,99445,2,0,L|204:260,3,34,2|2|2|2,0:0|0:0|0:0|0:0,0:0:0:0:
140,308,99724,5,8,0:0:0:0:
132,284,99794,1,2,0:0:0:0:
124,260,99864,1,2,0:0:0:0:
116,240,99933,1,2,0:0:0:0:
108,216,100003,2,0,L|100:176,3,34,2|2|2|2,0:0|0:0|0:0|0:0,0:0:0:0:
80,92,100282,5,8,0:0:0:0:
88,72,100352,1,2,0:0:0:0:
104,56,100422,1,2,0:0:0:0:
124,48,100492,1,2,0:0:0:0:
148,48,100561,1,2,0:0:0:0:
168,60,100631,1,2,0:0:0:0:
184,76,100701,1,2,0:0:0:0:
200,96,100771,1,2,0:0:0:0:
224,104,100840,1,8,0:0:0:0:
248,100,100910,1,2,0:0:0:0:
268,84,100980,1,2,0:0:0:0:
280,64,101050,1,2,0:0:0:0:
284,40,101119,5,2,0:0:0:0:
280,64,101189,1,2,0:0:0:0:
284,88,101259,1,2,0:0:0:0:
292,112,101329,1,2,0:0:0:0:
304,132,101399,2,0,L|308:180,3,34,8|2|2|2,0:0|0:0|0:0|0:0,0:0:0:0:
224,232,101678,6,0,L|216:184,1,34,2|2,0:0|0:0,0:0:0:0:
168,88,101817,2,0,L|164:144,1,34,2|2,0:0|0:0,0:0:0:0:
120,288,101957,2,0,L|112:232,1,34,8|2,0:0|0:0,0:0:0:0:
48,72,102096,2,0,L|44:124,1,34,2|2,0:0|0:0,0:0:0:0:
28,196,102236,5,8,0:0:0:0:
68,184,102305,1,8,0:0:0:0:
108,172,102375,1,8,0:0:0:0:
148,160,102445,1,8,0:0:0:0:
188,148,102515,1,8,0:0:0:0:
228,136,102585,1,8,0:0:0:0:
268,124,102655,6,0,B|264:160|276:184|276:184|268:192|268:192|284:232|273:283,1,152.999995330811,6|2,0:0|0:0,0:0:0:0:
436,72,103073,6,0,L|432:144,1,55.2499974708558,8|2,0:0|0:0,0:0:0:0:
328,112,103213,2,0,L|332:184,1,55.2499974708558,8|2,0:0|0:0,0:0:0:0:
444,216,103352,2,0,L|440:288,1,55.2499974708558,8|2,0:0|0:0,0:0:0:0:
336,256,103492,2,0,L|340:328,1,55.2499974708558,8|2,0:0|0:0,0:0:0:0:
232,240,103631,6,0,L|228:184,1,55.2499974708558,8|2,0:0|0:0,0:0:0:0:
124,280,103771,2,0,L|127:224,1,55.2499974708558,8|2,0:0|0:0,0:0:0:0:
116,136,103910,2,0,L|120:64,1,55.2499974708558,8|2,0:0|0:0,0:0:0:0:
224,96,104050,2,0,L|220:24,1,55.2499974708558,8|2,0:0|0:0,0:0:0:0:
308,148,104189,2,0,P|332:160|368:164,1,55.2499974708558,8|2,0:0|0:0,0:0:0:0:
208,192,104329,2,0,P|200:224|200:264,1,55.2499974708558,8|2,0:0|0:0,0:0:0:0:
224,96,104468,5,8,0:0:0:0:
192,64,104538,1,8,0:0:0:0:
148,56,104608,1,8,0:0:0:0:
104,64,104678,1,8,0:0:0:0:
72,92,104747,1,8,0:0:0:0:
56,136,104817,1,8,0:0:0:0:
60,176,104887,6,0,B|64:240|64:240|76:248|76:248|68:288|84:332,1,152.999995330811,6|2,0:0|0:0,0:0:0:0:
208,352,105305,1,8,0:0:0:0:
240,352,105375,1,2,0:0:0:0:
268,340,105445,2,0,L|272:288,1,38.2499988327027,2|2,0:0|0:0,0:0:0:0:
280,140,105585,1,8,0:0:0:0:
300,120,105654,1,2,0:0:0:0:
328,112,105724,2,0,L|332:172,1,38.2499988327027,2|2,0:0|0:0,0:0:0:0:
148,208,105864,5,8,0:0:0:0:
116,176,105933,1,2,0:0:0:0:
104,132,106003,1,2,0:0:0:0:
116,88,106073,1,2,0:0:0:0:
140,48,106143,5,2,0:0:0:0:
148,56,106422,6,0,B|192:40|192:40|224:56|224:56|164:76,1,136,2|2,0:0|0:0,0:0:0:0:
88,236,107119,6,0,P|92:324|216:272,1,255,6|2,0:0|0:0,0:0:0:0:
228,32,107817,1,8,0:0:0:0:
212,40,107887,1,8,0:0:0:0:
228,52,107957,1,8,0:0:0:0:
228,32,108026,1,8,0:0:0:0:
212,40,108096,1,8,0:0:0:0:
228,52,108166,1,8,0:0:0:0:
220,40,108236,6,0,P|216:128|92:76,1,255,6|2,0:0|0:0,0:0:0:0:
348,112,108933,1,8,0:0:0:0:
364,120,109003,1,8,0:0:0:0:
348,132,109073,1,8,0:0:0:0:
348,112,109142,1,8,0:0:0:0:
364,120,109212,1,8,0:0:0:0:
348,132,109282,1,8,0:0:0:0:
356,120,109352,6,0,P|360:208|484:156,1,255,6|2,0:0|0:0,0:0:0:0:
248,328,110050,1,8,0:0:0:0:
232,320,110120,1,8,0:0:0:0:
248,308,110190,1,8,0:0:0:0:
248,328,110259,1,8,0:0:0:0:
232,320,110329,1,8,0:0:0:0:
248,308,110399,1,8,0:0:0:0:
248,328,110468,1,8,0:0:0:0:
232,320,110538,1,8,0:0:0:0:
244,320,110608,6,0,L|252:224,1,85,12|2,0:0|0:0,0:0:0:0:
204,72,110887,1,2,0:0:0:0:
88,220,111026,2,0,P|36:200|20:164,1,85,8|2,0:0|0:0,0:0:0:0:
380,192,111305,2,0,P|396:244|380:288,1,85,8|2,0:0|0:0,0:0:0:0:
227,196,111585,5,2,0:0:0:0:
229,184,111654,1,2,0:0:0:0:
230,172,111724,1,2,0:0:0:0:
232,160,111794,1,2,0:0:0:0:
234,148,111864,1,2,0:0:0:0:
236,136,111933,1,2,0:0:0:0:
238,124,112003,1,2,0:0:0:0:
240,112,112282,6,0,B|284:136|312:164|312:164|276:116|276:68,1,170,2|0,0:0|0:0,0:0:0:0:
172,216,112701,5,2,0:0:0:0:
160,213,112770,1,2,0:0:0:0:
148,210,112840,1,2,0:0:0:0:
137,207,112910,1,2,0:0:0:0:
125,204,112980,1,2,0:0:0:0:
113,201,113049,1,2,0:0:0:0:
102,198,113119,1,2,0:0:0:0:
88,192,113398,6,0,B|117:232|148:257|148:257|96:227|48:233,1,170,2|0,0:0|0:0,0:0:0:0:
240,112,113818,5,2,0:0:0:0:
252,109,113887,1,2,0:0:0:0:
264,106,113957,1,2,0:0:0:0:
275,103,114027,1,2,0:0:0:0:
287,100,114097,1,2,0:0:0:0:
299,97,114166,1,2,0:0:0:0:
310,94,114236,1,2,0:0:0:0:
424,272,114515,6,0,B|408:232|408:232|408:292|368:316,1,127.5,2|0,0:0|0:0,0:0:0:0:
100,280,115073,5,8,0:0:0:0:
328,244,115213,1,2,0:0:0:0:
168,88,115352,1,2,0:0:0:0:
212,260,115492,2,0,P|216:312|196:368,1,101.999996887207,8|2,0:0|0:0,0:0:0:0:
324,56,115771,2,0,P|388:76|420:112,1,101.999996887207,8|2,0:0|0:0,0:0:0:0:
80,152,116050,6,0,P|120:76|196:72,1,152.999995330811,6|0,0:0|0:0,0:0:0:0:
428,144,116747,2,0,P|444:104|432:48,1,101.999996887207,2|0,0:0|0:0,0:0:0:0:
224,132,117305,2,0,L|216:248,1,101.999996887207,0|0,0:0|0:0,0:0:0:0:
316,332,117864,2,0,P|360:312|416:332,1,101.999996887207,2|0,0:0|0:0,0:0:0:0:
160,320,118282,1,0,0:0:0:0:
88,248,118422,6,0,L|80:140,1,101.999996887207,0|0,0:0|0:0,0:0:0:0:
304,176,118840,2,0,P|248:168|188:168,1,101.999996887207,2|0,0:0|0:0,0:0:0:0:
152,64,119259,1,0,0:0:0:0:
152,64,119538,6,0,P|92:60|32:60,1,101.999996887207,0|0,0:0|0:0,0:0:0:0:
202,167,119957,2,0,P|253:168|304:176,1,101.999996887207,2|0,0:0|0:0,0:0:0:0:
408,212,120375,1,0,0:0:0:0:
304,44,120654,5,2,0:0:0:0:
304,44,120794,1,2,0:0:0:0:
216,108,120933,2,0,L|136:100,1,68,8|0,0:0|0:0,0:0:0:0:
364,132,121212,2,0,L|444:124,1,68,8|0,0:0|0:0,0:0:0:0:
208,116,121492,2,0,L|128:108,1,68,8|0,0:0|0:0,0:0:0:0:
152,216,121771,5,2,0:0:0:0:
152,216,121911,1,2,0:0:0:0:
240,280,122050,2,0,L|320:272,1,68,8|0,0:0|0:0,0:0:0:0:
92,304,122329,2,0,L|12:296,1,68,8|0,0:0|0:0,0:0:0:0:
248,288,122608,2,0,L|328:280,1,68,8|0,0:0|0:0,0:0:0:0:
396,184,122887,5,2,0:0:0:0:
396,184,123027,1,2,0:0:0:0:
320,92,123166,2,0,P|312:52|324:12,1,68,8|0,0:0|0:0,0:0:0:0:
280,208,123445,2,0,P|244:220|199:207,1,68,8|0,0:0|0:0,0:0:0:0:
396,184,123724,2,0,P|424:224|428:256,1,68,8|0,0:0|0:0,0:0:0:0:
240,244,124003,5,2,0:0:0:0:
240,244,124143,1,2,0:0:0:0:
145,171,124283,2,0,P|104:164|65:177,1,68,8|0,0:0|0:0,0:0:0:0:
259,127,124562,2,0,P|269:90|260:50,1,68,8|0,0:0|0:0,0:0:0:0:
240,244,124841,1,8,1:0:0:0:
168,28,124980,6,0,L|360:40,1,170,6|2,0:0|0:0,0:0:0:0:
408,92,125329,1,2,0:0:0:0:
432,120,125398,1,2,0:0:0:0:
436,160,125469,1,2,0:0:0:0:
432,196,125538,2,0,L|408:244,1,42.5,2|2,0:0|0:0,0:0:0:0:
268,184,125678,1,2,0:0:0:0:
252,220,125748,1,2,0:0:0:0:
256,256,125817,2,0,L|276:312,1,42.5,2|2,0:0|0:0,0:0:0:0:
376,324,125957,1,8,0:0:0:0:
352,176,126096,6,0,P|312:116|204:128,1,170,6|2,0:0|0:0,0:0:0:0:
180,192,126445,1,2,0:0:0:0:
172,228,126515,1,2,0:0:0:0:
164,264,126585,1,2,0:0:0:0:
156,300,126655,2,0,P|132:300|108:288,1,42.5,2|2,0:0|0:0,0:0:0:0:
32,180,126794,1,2,0:0:0:0:
44,144,126864,1,2,0:0:0:0:
72,120,126934,2,0,L|136:112,1,42.5,2|2,0:0|0:0,0:0:0:0:
208,116,127073,1,8,0:0:0:0:
304,272,127213,6,0,P|376:264|416:168,1,170,6|2,0:0|0:0,0:0:0:0:
408,100,127562,1,2,0:0:0:0:
372,104,127631,1,2,0:0:0:0:
332,108,127701,1,2,0:0:0:0:
292,112,127771,2,0,L|296:52,1,42.5,2|2,0:0|0:0,0:0:0:0:
200,176,127909,1,2,0:0:0:0:
164,164,127979,1,2,0:0:0:0:
140,132,128050,2,0,L|148:80,1,42.5,2|2,0:0|0:0,0:0:0:0:
224,24,128190,1,8,0:0:0:0:
296,208,128329,6,0,P|264:252|148:240,1,170,6|2,0:0|0:0,0:0:0:0:
128,168,128678,1,2,0:0:0:0:
116,132,128748,1,2,0:0:0:0:
116,92,128817,1,2,0:0:0:0:
128,56,128887,2,0,L|192:68,1,42.5,2|2,0:0|0:0,0:0:0:0:
312,152,129027,1,2,0:0:0:0:
324,116,129096,1,2,0:0:0:0:
324,76,129166,2,0,L|280:68,1,42.5,2|2,0:0|0:0,0:0:0:0:
212,32,129306,2,0,L|356:24,1,127.5,8|0,0:0|0:0,0:0:0:0:
420,56,129585,5,0,0:0:0:0:
416,80,129863,1,2,0:0:0:0:
344,136,130142,5,0,0:0:0:0:
340,160,130282,1,2,0:0:0:0:
416,212,130561,5,0,0:0:0:0:
412,236,130700,1,0,0:0:0:0:
408,260,130840,1,2,0:0:0:0:
320,284,131119,5,0,0:0:0:0:
316,308,131259,1,2,0:0:0:0:
336,188,131538,1,2,0:0:0:0:
188,56,131817,6,0,P|176:92|181:149,1,82.8749962062838,14|0,0:0|0:0,0:0:0:0:
279,243,131992,2,0,P|255:216|214:192,1,82.8749962062838,14|0,0:0|0:0,0:0:0:0:
68,228,132166,2,0,P|104:220|147:192,1,82.8749962062838,14|0,0:0|0:0,0:0:0:0:
188,84,132341,6,0,P|196:124|225:174,1,82.8749962062838,14|0,0:0|0:0,0:0:0:0:
379,212,132515,2,0,P|340:199|292:196,1,82.8749962062838,14|0,0:0|0:0,0:0:0:0:
168,313,132690,2,0,P|198:286|216:245,1,82.8749962062838,14|0,0:0|0:0,0:0:0:0:
192,124,132865,6,0,P|222:158|274:188,1,82.8749962062838,14|0,0:0|0:0,0:0:0:0:
444,141,133039,2,0,P|400:149|355:172,1,82.8749962062838,14|0,0:0|0:0,0:0:0:0:
299,353,133214,2,0,P|313:310|314:249,1,82.8749962062838,14|0,0:0|0:0,0:0:0:0:
140,108,133910,6,0,P|192:40|304:64,1,203.999993774414,6|2,0:0|0:0,0:0:0:0:
432,260,134329,1,8,0:0:0:0:
216,184,134469,1,2,0:0:0:0:
216,184,134538,1,2,0:0:0:0:
216,184,134608,1,2,0:0:0:0:
224,348,134748,1,8,0:0:0:0:
320,212,134887,1,8,0:0:0:0:
104,224,135028,6,0,L|92:20,1,203.999993774414,6|2,0:0|0:0,0:0:0:0:
344,20,135445,1,8,0:0:0:0:
324,192,135585,1,2,0:0:0:0:
324,192,135655,1,2,0:0:0:0:
324,192,135724,2,0,L|272:188,1,50.9999984436036,2|2,0:0|0:0,0:0:0:0:
180,180,135864,1,2,0:0:0:0:
280,328,136003,1,2,0:0:0:0:
204,84,136143,6,0,P|116:84|60:188,1,203.999993774414,6|2,0:0|0:0,0:0:0:0:
308,212,136562,2,0,L|300:156,1,50.9999984436036,2|2,0:0|0:0,0:0:0:0:
229,257,136701,2,0,L|217:321,1,50.9999984436036,2|2,0:0|0:0,0:0:0:0:
312,296,136841,5,8,0:0:0:0:
364,296,136910,1,8,0:0:0:0:
408,268,136980,1,8,0:0:0:0:
424,220,137050,1,8,0:0:0:0:
420,168,137120,1,8,0:0:0:0:
388,128,137190,1,8,0:0:0:0:
348,112,137259,6,0,L|344:168,1,42.5,2|0,0:0|0:0,0:0:0:0:
344,154,137538,6,0,L|340:210,1,42.5,2|0,0:0|0:0,0:0:0:0:
324,88,137817,6,0,L|320:144,1,42.5,2|0,0:0|0:0,0:0:0:0:
320,130,138096,6,0,L|316:186,1,42.5,2|0,0:0|0:0,0:0:0:0:
304,64,138376,6,0,P|252:56|188:148,1,170,6|2,0:0|0:0,0:0:0:0:
152,344,138794,2,0,L|60:324,1,85,8|0,0:0|0:0,0:0:0:0:
248,204,139073,1,2,0:0:0:0:
264,352,139213,1,0,0:0:0:0:
388,268,139352,2,0,P|408:220|396:156,1,85,8|0,0:0|0:0,0:0:0:0:
264,40,139631,5,2,0:0:0:0:
244,268,139771,1,2,0:0:0:0:
120,136,139910,1,8,0:0:0:0:
344,176,140050,2,0,P|388:172|432:152,1,85,2|2,0:0|0:0,0:0:0:0:
144,240,140329,2,0,L|134:324,1,85,0|8,0:0|0:0,0:0:0:0:
236,104,140608,1,2,0:0:0:0:
232,240,140748,5,6,0:0:0:0:
180,32,140887,1,8,0:0:0:0:
32,168,141027,1,2,0:0:0:0:
28,180,141097,1,2,0:0:0:0:
28,192,141166,1,8,0:0:0:0:
284,136,141306,5,2,0:0:0:0:
52,72,141445,1,8,0:0:0:0:
116,300,141585,1,2,0:0:0:0:
120,312,141655,1,2,0:0:0:0:
128,320,141724,1,8,0:0:0:0:
300,232,141864,5,2,0:0:0:0:
308,220,141934,1,2,0:0:0:0:
312,208,142003,1,2,0:0:0:0:
312,196,142073,1,2,0:0:0:0:
312,184,142143,1,8,0:0:0:0:
224,32,142283,2,0,P|182:26|143:42,1,85,2|0,0:0|0:0,0:0:0:0:
176,320,142561,2,0,P|217:325|256:309,1,85,2|0,0:0|0:0,0:0:0:0:
408,116,142841,6,0,L|417:326,1,203.999993774414,6|2,0:0|0:0,0:0:0:0:
184,212,143259,1,8,0:0:0:0:
272,360,143399,1,2,0:0:0:0:
272,360,143469,1,2,0:0:0:0:
272,360,143538,1,2,0:0:0:0:
416,248,143678,1,8,0:0:0:0:
172,172,143817,1,8,0:0:0:0:
372,76,143957,6,0,P|336:20|192:32,1,203.999993774414,6|2,0:0|0:0,0:0:0:0:
48,240,144376,1,8,0:0:0:0:
224,204,144515,1,2,0:0:0:0:
224,204,144585,1,2,0:0:0:0:
224,204,144655,2,0,L|232:140,1,50.9999984436036,2|2,0:0|0:0,0:0:0:0:
240,16,144794,1,2,0:0:0:0:
80,128,144934,1,2,0:0:0:0:
236,220,145073,6,0,P|228:324|120:348,1,203.999993774414,6|2,0:0|0:0,0:0:0:0:
228,100,145492,2,0,P|256:100|296:112,1,50.9999984436036,2|2,0:0|0:0,0:0:0:0:
344,228,145631,2,0,P|332:200|327:176,1,50.9999984436036,2|2,0:0|0:0,0:0:0:0:
372,96,145771,5,8,0:0:0:0:
424,100,145840,1,8,0:0:0:0:
464,132,145910,1,8,0:0:0:0:
484,180,145980,1,8,0:0:0:0:
480,232,146050,1,8,0:0:0:0:
448,268,146119,1,8,0:0:0:0:
400,284,146189,6,0,L|392:216,1,50.9999984436036,2|0,0:0|0:0,0:0:0:0:
376,296,146469,6,0,L|380:232,1,50.9999984436036,2|0,0:0|0:0,0:0:0:0:
304,312,146747,6,0,L|296:244,1,50.9999984436036,2|0,0:0|0:0,0:0:0:0:
280,324,147027,6,0,L|284:260,1,50.9999984436036,2|0,0:0|0:0,0:0:0:0:
316,176,147305,6,0,P|224:112|136:152,1,203.999993774414,6|2,0:0|0:0,0:0:0:0:
304,336,147724,2,0,L|420:320,1,101.999996887207,8|0,0:0|0:0,0:0:0:0:
136,296,148003,1,2,0:0:0:0:
232,176,148143,1,2,0:0:0:0:
68,144,148283,2,0,P|64:88|92:48,1,101.999996887207,8|0,0:0|0:0,0:0:0:0:
268,64,148561,5,2,0:0:0:0:
244,316,148700,1,2,0:0:0:0:
432,164,148840,1,8,0:0:0:0:
128,144,148980,2,0,L|8:132,1,101.999996887207,0|2,0:0|0:0,0:0:0:0:
160,356,149259,2,0,L|280:344,1,101.999996887207,2|8,0:0|0:0,0:0:0:0:
384,224,149538,1,2,0:0:0:0:
221,44,149678,5,6,0:0:0:0:
243,309,149817,1,8,0:0:0:0:
447,130,149957,1,2,0:0:0:0:
447,130,150096,1,8,0:0:0:0:
162,198,150236,5,2,0:0:0:0:
401,279,150375,1,8,0:0:0:0:
341,44,150515,1,2,0:0:0:0:
341,44,150655,1,8,0:0:0:0:
128,74,150794,5,2,0:0:0:0:
102,346,150934,1,2,0:0:0:0:
13,183,151073,1,2,0:0:0:0:
232,268,151213,2,0,L|340:256,1,101.999996887207,2|0,0:0|0:0,0:0:0:0:
120,44,151492,2,0,L|228:32,1,101.999996887207,2|0,0:0|0:0,0:0:0:0:
456,180,151771,6,0,P|484:248|408:352,1,203.999993774414,6|2,0:0|0:0,0:0:0:0:
116,336,152190,2,0,L|104:216,1,101.999996887207,8|2,0:0|0:0,0:0:0:0:
84,40,152469,5,8,0:0:0:0:
448,156,152608,1,8,0:0:0:0:
96,228,152747,1,8,0:0:0:0:
344,356,152887,6,0,L|348:240,1,101.999996887207,6|0,0:0|0:0,0:0:0:0:
288,48,153166,1,2,0:0:0:0:
144,192,153305,2,0,P|92:168|68:120,1,101.999996887207,8|2,0:0|0:0,0:0:0:0:
252,248,153585,5,2,0:0:0:0:
272,248,153655,1,2,0:0:0:0:
292,244,153724,1,2,0:0:0:0:
312,240,153794,1,2,0:0:0:0:
332,232,153864,2,0,L|325:181,1,50.9999984436036,8|0,0:0|0:0,0:0:0:0:
296,40,154003,6,0,P|380:32|448:140,1,203.999993774414,6|2,0:0|0:0,0:0:0:0:
412,348,154422,2,0,L|400:232,1,101.999996887207,8|2,0:0|0:0,0:0:0:0:
288,48,154701,5,8,0:0:0:0:
240,332,154841,1,8,0:0:0:0:
92,36,154980,1,8,0:0:0:0:
40,328,155120,6,0,L|32:212,1,101.999996887207,6|0,0:0|0:0,0:0:0:0:
160,144,155399,1,2,0:0:0:0:
248,320,155538,1,2,0:0:0:0:
250,300,155608,1,2,0:0:0:0:
252,280,155678,1,2,0:0:0:0:
254,260,155748,1,2,0:0:0:0:
256,240,155817,1,2,0:0:0:0:
258,220,155887,1,2,0:0:0:0:
260,200,155957,1,2,0:0:0:0:
262,180,156027,1,2,0:0:0:0:
264,160,156096,6,0,L|304:152,1,29.7499990921021,2|0,0:0|0:0,0:0:0:0:
264,160,156515,6,0,L|320:152,1,50.9999984436036,2|0,0:0|0:0,0:0:0:0:
252,88,156934,6,0,L|308:80,1,50.9999984436036,2|0,0:0|0:0,0:0:0:0:
240,176,157352,6,0,L|304:152,1,50.9999984436036,2|0,0:0|0:0,0:0:0:0:
224,82,157771,6,0,L|296:88,1,50.9999984436036,2|0,0:0|0:0,0:0:0:0:
180,140,158190,6,0,L|252:129,1,50.9999984436036,2|0,0:0|0:0,0:0:0:0:
320,232,158329,1,8,0:0:0:0:
320,232,158399,1,8,0:0:0:0:
320,232,158469,1,8,0:0:0:0:
320,232,158538,1,8,0:0:0:0:
320,232,158608,6,0,P|384:232|420:168,1,136,6|0,0:0|0:0,0:0:0:0:
256,84,159166,2,0,P|192:84|156:148,1,136
76,324,159724,2,0,L|64:184,1,136
284,280,160283,6,0,B|360:296|395:219|395:219|379:263|383:287,1,203.999993774414,2|0,0:0|0:0,0:0:0:0:
304,184,160702,6,0,P|308:132|384:96,1,118.999996368408,2|0,0:0|0:0,0:0:0:0:
180,96,161120,1,2,0:0:0:0:
180,96,161260,2,0,P|144:68|136:44,2,59.4999981842042,0|2|0,0:0|0:0|0:0,0:0:0:0:
184,216,161679,2,0,P|156:240|112:248,2,59.4999981842042,0|0|2,0:0|0:0|0:0,0:0:0:0:
284,152,162097,2,0,P|328:160|360:184,2,59.4999981842042
416,248,162516,1,2,0:0:0:0:
488,176,162655,6,0,L|496:108,1,59.4999981842042,2|0,0:0|0:0,0:0:0:0:
292,40,162934,2,0,L|296:104,1,50.9999984436036,2|0,0:0|0:0,0:0:0:0:
208,220,163213,1,0,0:0:0:0:
108,212,163353,1,2,0:0:0:0:
152,296,163493,2,0,L|148:356,2,50.9999984436036,0|0|2,0:0|0:0|0:0,0:0:0:0:
316,312,163910,2,0,P|352:304|376:288,2,50.9999984436036,0|0|2,0:0|0:0|0:0,0:0:0:0:
284,200,164329,2,0,P|308:180|320:156,2,50.9999984436036,0|0|2,0:0|0:0|0:0,0:0:0:0:
172,136,164748,2,0,P|192:96|192:76,2,50.9999984436036,0|0|2,0:0|0:0|0:0,0:0:0:0:
76,212,165167,6,0,P|88:272|152:304,1,136,2|0,0:0|0:0,0:0:0:0:
304,308,165586,1,2,0:0:0:0:
224,208,165725,2,0,P|216:172|220:132,1,68,0|0,0:0|0:0,0:0:0:0:
288,60,166004,6,0,L|372:64,1,85,2|0,0:0|0:0,0:0:0:0:
144,60,166283,2,0,L|60:64,1,85,2|0,0:0|0:0,0:0:0:0:
216,180,166562,2,0,P|220:228|200:272,2,85,0|2|0,0:0|0:0|0:0,0:0:0:0:
284,76,166981,1,0,0:0:0:0:
284,76,167120,1,2,0:0:0:0:
284,76,167260,1,0,0:0:0:0:
284,76,167399,6,0,B|336:68|344:128|344:128|356:60|356:60|392:96|432:88|432:88|424:80,1,255,2|2,0:0|0:0,0:0:0:0:
248,156,169143,5,2,0:0:0:0:
248,156,169213,2,0,B|188:192|132:116|176:72|176:72|184:112,1,170,8|0,0:0|0:0,0:0:0:0:
332,176,169631,6,0,P|316:244|160:256,1,220.999989883423,6|0,0:0|0:0,0:0:0:0:
72,56,170050,2,0,B|64:108|64:108|56:112|56:112|64:136|64:176,1,110.499994941712,6|2,0:0|0:0,0:0:0:0:
156,284,170259,5,2,0:0:0:0:
156,284,170329,2,0,B|164:232|164:232|172:228|172:228|164:204|168:152,1,127.5,2|0,0:0|0:0,0:0:0:0:
256,32,170887,5,6,0:0:0:0:
256,32,170957,1,4,0:0:0:0:
256,32,171027,2,0,L|252:104,1,42.5,4|4,0:0|0:0,0:0:0:0:
396,316,171166,5,6,0:0:0:0:
396,316,171236,1,4,0:0:0:0:
396,316,171306,2,0,L|400:256,1,42.5,4|4,0:0|0:0,0:0:0:0:
56,124,171445,5,6,0:0:0:0:
56,124,171515,1,4,0:0:0:0:
56,124,171585,2,0,L|60:180,1,42.5,6|6,0:0|0:0,0:0:0:0:
232,308,171724,6,0,B|224:288|236:272|236:272|228:252|228:252|232:240|232:220,1,85,6|4,0:0|0:0,0:0:0:0:
104,48,172003,5,8,0:0:0:0:
400,44,172143,2,0,L|500:40,1,85,2|0,0:0|0:0,0:0:0:0:
28,232,172422,2,0,L|132:236,1,85,2|0,0:0|0:0,0:0:0:0:
256,240,172701,1,8,0:0:0:0:
313,240,172771,1,8,0:0:0:0:
375,245,172841,1,8,0:0:0:0:
442,245,172911,1,8,0:0:0:0:
505,250,172980,5,8,0:0:0:0:
456,176,173329,5,0,0:0:0:0:
428,168,173538,5,0,0:0:0:0:
407,247,173957,6,0,P|440:96|328:232,1,446.250017023087,8|0,0:0|0:0,0:0:0:0:
384,168,175073,6,0,L|388:120,1,42.5,2|0,0:0|0:0,0:0:0:0:
292,80,175352,5,6,0:0:0:0:
500,72,175492,1,2,0:0:0:0:
388,264,175631,2,0,L|392:324,1,55.2499974708558,8|8,0:0|0:0,0:0:0:0:
352,128,175771,2,0,P|364:104|384:84,1,55.2499974708558,8|0,0:0|0:0,0:0:0:0:
424,176,175910,1,2,0:0:0:0:
288,312,176050,1,8,0:0:0:0:
236,136,176190,1,8,0:0:0:0:
120,296,176329,5,2,0:0:0:0:
104,280,176399,1,2,0:0:0:0:
96,260,176469,1,2,0:0:0:0:
92,240,176538,1,2,0:0:0:0:
92,220,176608,2,0,L|100:160,1,55.2499974708558,2|2,0:0|0:0,0:0:0:0:
128,80,176748,5,8,0:0:0:0:
148,76,176817,1,2,0:0:0:0:
172,72,176887,1,2,0:0:0:0:
192,68,176957,1,2,0:0:0:0:
212,64,177027,2,0,L|204:120,3,55.2499974708558,2|2|2|2,0:0|0:0|0:0|0:0,0:0:0:0:
252,204,177306,5,8,0:0:0:0:
204,196,177376,1,8,0:0:0:0:
156,184,177445,1,8,0:0:0:0:
108,172,177515,1,8,0:0:0:0:
60,160,177585,6,0,P|48:212|60:272,1,110.499994941712,6|2,0:0|0:0,0:0:0:0:
224,300,177864,2,0,L|212:364,1,55.2499974708558,8|0,0:0|0:0,0:0:0:0:
240,176,178004,2,0,P|264:160|304:152,1,55.2499974708558,8|8,0:0|0:0,0:0:0:0:
296,248,178144,1,2,0:0:0:0:
132,248,178283,1,8,0:0:0:0:
352,336,178423,1,8,0:0:0:0:
328,116,178562,5,0,0:0:0:0:
308,96,178632,1,2,0:0:0:0:
280,88,178702,1,2,0:0:0:0:
252,84,178771,1,2,0:0:0:0:
224,92,178841,2,0,L|216:148,1,55.2499974708558,2|2,0:0|0:0,0:0:0:0:
208,232,178981,5,8,0:0:0:0:
232,248,179050,1,2,0:0:0:0:
260,252,179120,1,2,0:0:0:0:
288,252,179190,1,2,0:0:0:0:
316,244,179260,2,0,P|344:236|368:224,3,55.2499974708558,2|2|2|2,0:0|0:0|0:0|0:0,0:0:0:0:
408,136,179539,5,0,0:0:0:0:
140,104,179678,1,2,0:0:0:0:
320,48,179818,6,0,L|312:160,1,110.499994941712,6|2,0:0|0:0,0:0:0:0:
384,344,180097,2,0,L|440:332,1,55.2499974708558,8|0,0:0|0:0,0:0:0:0:
296,264,180236,2,0,P|284:292|280:332,1,55.2499974708558,8|8,0:0|0:0,0:0:0:0:
416,216,180376,1,2,0:0:0:0:
352,64,180515,1,8,0:0:0:0:
224,144,180655,1,8,0:0:0:0:
160,24,180795,5,2,0:0:0:0:
136,40,180864,1,2,0:0:0:0:
120,60,180934,1,2,0:0:0:0:
108,84,181004,1,2,0:0:0:0:
104,112,181073,2,0,L|180:104,1,55.2499974708558,2|2,0:0|0:0,0:0:0:0:
248,120,181213,5,8,0:0:0:0:
264,144,181283,1,2,0:0:0:0:
268,172,181353,1,2,0:0:0:0:
264,200,181422,1,2,0:0:0:0:
252,224,181492,2,0,L|184:220,3,55.2499974708558,2|2|2|2,0:0|0:0|0:0|0:0,0:0:0:0:
200,312,181771,5,8,0:0:0:0:
256,308,181841,1,8,0:0:0:0:
312,300,181911,1,8,0:0:0:0:
368,296,181980,1,8,0:0:0:0:
424,284,182050,6,0,L|428:168,1,110.499994941712,6|2,0:0|0:0,0:0:0:0:
308,48,182330,1,8,0:0:0:0:
224,204,182469,1,2,0:0:0:0:
224,204,182539,1,2,0:0:0:0:
224,204,182608,1,2,0:0:0:0:
280,32,182748,5,8,0:0:0:0:
368,272,182887,1,0,0:0:0:0:
368,272,182957,1,0,0:0:0:0:
368,272,183027,1,0,0:0:0:0:
240,28,183166,5,8,0:0:0:0:
216,324,183306,1,2,0:0:0:0:
216,324,183376,1,2,0:0:0:0:
216,324,183446,1,2,0:0:0:0:
192,28,183585,5,8,0:0:0:0:
40,228,183725,1,2,0:0:0:0:
40,228,183794,1,2,0:0:0:0:
40,228,183864,1,2,0:0:0:0:
368,216,184004,1,8,0:0:0:0:
204,24,184143,6,0,B|192:68|192:96|192:96|208:124|208:124|208:148|192:204,1,170,6|2,0:0|0:0,0:0:0:0:
324,340,184562,2,0,P|392:352|428:332,1,85
164,168,184841,2,0,P|124:184|92:220,1,85
416,156,185120,2,0,L|428:56,1,85
120,168,185399,5,10,0:0:0:0:
464,320,185539,2,0,L|360:312,1,85,2|0,0:0|0:0,0:0:0:0:
112,80,185818,2,0,L|216:72,1,85,8|2,0:0|0:0,0:0:0:0:
480,312,186097,2,0,L|376:304,1,85,8|2,0:0|0:0,0:0:0:0:
72,256,186376,6,0,P|52:204|136:116,1,170,6|2,0:0|0:0,0:0:0:0:
352,144,186794,5,8,0:0:0:0:
328,328,186934,1,2,0:0:0:0:
180,64,187073,5,8,0:0:0:0:
200,252,187213,1,2,0:0:0:0:
392,108,187352,5,2,0:0:0:0:
352,344,187492,1,2,0:0:0:0:
152,24,187632,5,12,0:0:0:0:
180,284,187771,2,0,P|136:304|68:304,1,85,2|0,0:0|0:0,0:0:0:0:
352,124,188050,2,0,P|400:148|424:188,1,85,8|2,0:0|0:0,0:0:0:0:
112,104,188329,2,0,P|96:68|104:20,1,85,8|2,0:0|0:0,0:0:0:0:
256,288,188608,2,0,L|80:276,1,170,6|2,0:0|0:0,0:0:0:0:
320,120,189027,5,8,0:0:0:0:
96,136,189166,1,2,0:0:0:0:
344,324,189306,5,8,0:0:0:0:
124,292,189446,1,2,0:0:0:0:
376,92,189585,5,8,0:0:0:0:
112,120,189724,1,2,0:0:0:0:
396,344,189864,5,12,0:0:0:0:
132,304,190004,2,0,L|228:292,1,85,2|0,0:0|0:0,0:0:0:0:
376,72,190283,2,0,L|472:60,1,85,2|0,0:0|0:0,0:0:0:0:
120,104,190562,2,0,L|24:92,1,85,2|0,0:0|0:0,0:0:0:0:
200,288,190841,5,6,0:0:0:0:
240,52,191050,1,6,0:0:0:0:
312,336,191259,1,6,0:0:0:0:
388,128,191469,5,6,0:0:0:0:
184,300,191678,1,6,0:0:0:0:
188,48,191887,1,6,0:0:0:0:
328,344,192097,6,0,B|332:312|348:296|348:296|336:276|336:276|348:256|344:232,1,101.999996887207,2|0,0:0|0:0,0:0:0:0:
336,356,192794,6,0,B|340:324|356:308|356:308|344:288|344:288|376:244|358:183|358:183|344:220,1,220.999989883423,10|0,0:0|0:0,0:0:0:0:
