osu file format v14

[General]
AudioFilename: audio.mp3
AudioLeadIn: 0
PreviewTime: 57651
Countdown: 0
SampleSet: Soft
StackLeniency: 0.2
Mode: 0
LetterboxInBreaks: 0
WidescreenStoryboard: 1

[Editor]
Bookmarks: 33093,52488
DistanceSpacing: 2.2
BeatDivisor: 4
GridSize: 4
TimelineZoom: 2.899999

[Metadata]
Title:Tenohira de odoru
TitleUnicode:掌で踊る
Artist:sokoninaru
ArtistUnicode:そこに鳴る
Creator:Snepif
Version:Extra
Source:
Tags:silleth itashas13 ゼロ zero koga records j-pop j-rock japanese metal alternative indie rock math-rock tenohiradeodoru
BeatmapID:1898580
BeatmapSetID:773686

[Difficulty]
HPDrainRate:5.3
CircleSize:4
OverallDifficulty:8.2
ApproachRate:9.4
SliderMultiplier:1.6
SliderTickRate:1

[Events]
//Background and Video events
0,0,"bg.jpg",0,0
//Break Periods
2,297,3882
2,117505,120114
//Storyboard Layer 0 (Background)
//Storyboard Layer 1 (Fail)
//Storyboard Layer 2 (Pass)
//Storyboard Layer 3 (Foreground)
//Storyboard Layer 4 (Overlay)
//Storyboard Sound Samples

[TimingPoints]
97,279.06976744186,4,1,1,80,1,0
97,-166.666666666667,4,1,1,80,0,0
4631,-166.666666666667,4,1,1,40,0,0
5259,-166.666666666667,4,2,1,80,0,0
6794,-166.666666666667,4,1,1,80,0,0
7771,-166.666666666667,4,1,1,30,0,0
7910,-166.666666666667,4,1,1,80,0,0
8050,-166.666666666667,4,1,1,30,0,0
8190,-166.666666666667,4,1,1,80,0,0
8329,-166.666666666667,4,1,1,30,0,0
8469,-166.666666666667,4,1,1,80,0,0
8608,-166.666666666667,4,1,1,30,0,0
8748,-166.666666666667,4,1,1,80,0,0
8887,-166.666666666667,4,1,1,30,0,0
9027,-166.666666666667,4,1,1,90,0,0
9306,-166.666666666667,4,1,1,75,0,0
10841,-166.666666666667,4,2,1,80,0,0
10980,-166.666666666667,4,1,1,80,0,0
11120,-166.666666666667,4,2,1,80,0,0
11259,-166.666666666667,4,1,1,80,0,0
12655,-100,4,1,1,80,0,0
13213,-200,4,1,1,80,0,0
13492,-83.3333333333333,4,1,1,80,0,1
17817,-83.3333333333333,4,2,0,80,0,1
17957,-83.3333333333333,4,1,1,80,0,1
21236,-83.3333333333333,4,1,1,30,0,1
21445,-83.3333333333333,4,1,1,80,0,1
21515,-83.3333333333333,4,1,1,30,0,1
21724,-83.3333333333333,4,1,1,80,0,1
21794,-83.3333333333333,4,1,1,30,0,1
22003,-83.3333333333333,4,1,1,80,0,1
22073,-83.3333333333333,4,1,1,30,0,1
22283,-100,4,1,1,80,0,0
23538,-83.3333333333333,4,1,1,80,0,0
24655,-83.3333333333333,4,2,3,65,0,0
25771,-200,4,2,0,80,0,0
26050,-200,4,2,0,40,0,0
26469,-66.6666666666667,4,1,1,80,0,0
26748,-142.857142857143,4,1,1,80,0,0
26887,-142.857142857143,4,2,0,40,0,0
30794,-142.857142857143,4,2,0,80,0,0
31213,-100,4,1,1,80,0,0
35608,-100,4,1,1,30,0,0
35678,-142.857142857143,4,1,1,65,0,0
38050,-142.857142857143,4,3,0,80,0,0
38120,-142.857142857143,4,2,1,80,0,0
39585,-142.857142857143,4,1,1,80,0,0
40143,-100,4,1,1,80,0,0
44608,-166.666666666667,4,1,1,80,0,0
45027,-166.666666666667,4,2,0,50,0,0
49073,-100,4,1,1,80,0,0
51445,-166.666666666667,4,1,1,80,0,0
51585,-166.666666666667,4,2,0,40,0,0
53120,-100,4,1,1,80,0,0
56190,-100,4,2,0,80,0,0
57027,-200,4,2,1,80,0,0
57306,-200,4,2,0,50,0,0
57585,-200,4,2,0,60,0,0
58003,-83.3333333333333,4,1,1,80,0,1
61352,-100,4,1,1,80,0,0
61422,-100,4,1,1,30,0,0
61631,-100,4,1,1,80,0,0
61701,-100,4,1,1,30,0,0
61910,-100,4,1,1,80,0,0
61980,-100,4,1,1,30,0,0
62190,-100,4,1,1,80,0,0
62259,-100,4,1,1,30,0,0
62469,-100,4,1,1,80,0,0
66934,-83.3333333333333,4,1,1,80,0,1
70352,-83.3333333333333,4,1,1,30,0,1
70562,-83.3333333333333,4,1,1,80,0,1
70631,-83.3333333333333,4,1,1,30,0,1
70841,-83.3333333333333,4,1,1,80,0,1
70910,-83.3333333333333,4,1,1,30,0,1
71120,-83.3333333333333,4,1,1,80,0,1
71190,-83.3333333333333,4,1,1,30,0,1
71399,-83.3333333333333,4,1,1,80,0,1
75445,-83.3333333333333,4,1,1,30,0,1
75585,-83.3333333333333,4,1,1,80,0,1
75724,-83.3333333333333,4,1,1,30,0,1
75864,-83.3333333333333,4,1,1,80,0,1
76562,-83.3333333333333,4,1,2,80,0,1
77120,-83.3333333333333,4,1,1,80,0,1
78794,-83.3333333333333,4,1,2,80,0,1
79352,-83.3333333333333,4,1,1,80,0,1
80190,-166.666666666667,4,1,1,80,0,1
80469,-83.3333333333333,4,1,1,90,0,1
80669,-100,4,1,1,90,0,1
82701,-200,4,1,1,80,0,0
83259,-200,4,1,1,40,0,0
84933,-200,4,2,0,80,0,0
85003,-125,4,2,1,40,0,0
87026,-400,4,1,1,20,0,0
87166,-200,4,1,1,5,0,0
89120,-200,4,1,1,80,0,0
89399,-83.3333333333333,4,1,1,80,0,1
93724,-83.3333333333333,4,2,0,80,0,1
93864,-83.3333333333333,4,1,1,80,0,1
97213,-125,4,1,1,80,0,0
98608,-125,4,1,1,65,0,0
102654,-125,4,1,1,80,0,0
103073,-76.9230769230769,4,1,1,80,0,0
104887,-111.111111111111,4,1,1,80,0,0
106143,-200,4,2,2,60,0,0
106421,-200,4,2,0,60,0,0
107119,-100,4,1,1,80,0,0
107817,-100,4,2,1,80,0,0
108236,-100,4,1,1,80,0,0
108933,-100,4,2,1,80,0,0
109352,-100,4,1,1,80,0,0
110050,-100,4,2,1,80,0,0
110608,-100,4,1,1,80,0,0
112282,-100,4,2,0,80,0,0
112701,-100,4,1,1,80,0,0
113398,-100,4,2,0,80,0,0
113817,-100,4,1,1,80,0,0
114514,-125,4,2,0,80,0,0
114934,-83.3333333333333,4,1,1,80,0,0
116049,-166.666666666667,4,1,1,80,0,0
116119,-166.666666666667,4,2,0,45,0,0
120655,-125,4,1,1,80,0,0
120933,-125,4,2,1,80,0,0
121771,-125,4,1,1,80,0,0
122050,-125,4,2,1,80,0,0
122887,-125,4,1,1,80,0,0
123166,-125,4,2,1,80,0,0
124003,-125,4,1,1,80,0,0
124282,-125,4,2,1,80,0,0
124840,-125,4,2,1,80,0,0
124980,-100,4,1,1,50,0,0
126096,-100,4,1,1,65,0,0
127212,-100,4,1,1,80,0,0
128329,-100,4,1,1,90,0,0
129585,-166.666666666667,4,2,0,30,0,0
131817,-76.9230769230769,4,1,1,90,0,0
133910,-83.3333333333333,4,1,1,80,0,1
137259,-100,4,1,1,80,0,0
137329,-100,4,1,1,30,0,0
137538,-100,4,1,1,80,0,0
137608,-100,4,1,1,30,0,0
137817,-100,4,1,1,80,0,0
137887,-100,4,1,1,30,0,0
138096,-100,4,1,1,80,0,0
138166,-100,4,1,1,30,0,0
138375,-100,4,1,1,80,0,0
142422,-100,4,1,1,30,0,0
142561,-100,4,1,1,80,0,0
142701,-100,4,1,1,30,0,0
142841,-83.3333333333333,4,1,1,80,0,1
146259,-83.3333333333333,4,1,1,30,0,1
146468,-83.3333333333333,4,1,1,80,0,1
146538,-83.3333333333333,4,1,1,30,0,1
146747,-83.3333333333333,4,1,1,80,0,1
146817,-83.3333333333333,4,1,1,30,0,1
147026,-83.3333333333333,4,1,1,80,0,1
147096,-83.3333333333333,4,1,1,30,0,1
147305,-83.3333333333333,4,1,1,80,0,1
148561,-83.3333333333333,4,1,1,80,0,1
152468,-83.3333333333333,4,1,2,80,0,1
152887,-83.3333333333333,4,1,1,80,0,1
154701,-83.3333333333333,4,1,2,80,0,1
155119,-83.3333333333333,4,1,1,80,0,1
156095,-142.857142857143,4,1,1,80,0,1
156376,-83.3333333333333,4,1,1,80,0,0
156585,-83.3333333333333,4,1,1,30,0,0
156933,-83.3333333333333,4,1,1,80,0,0
157003,-83.3333333333333,4,1,1,30,0,0
157352,-83.3333333333333,4,1,1,80,0,0
157422,-83.3333333333333,4,1,1,30,0,0
157771,-83.3333333333333,4,1,1,80,0,0
157840,-83.3333333333333,4,1,1,30,0,0
158189,-83.3333333333333,4,1,1,80,0,0
158259,-83.3333333333333,4,1,1,30,0,0
158329,-125,4,1,1,80,0,0
158887,-125,4,1,1,50,0,0
160281,-83.3333333333333,4,2,0,80,0,0
160701,-142.857142857143,4,2,1,40,0,0
162654,-142.857142857143,4,1,1,80,0,0
162933,-166.666666666667,4,1,1,80,0,0
163003,-166.666666666667,4,2,0,50,0,0
165166,-125,4,1,1,80,0,0
165305,-125,4,2,0,60,0,0
166003,-100,4,1,1,80,0,0
166422,-100,4,2,0,80,0,0
167398,-400,4,2,2,50,0,0
167537,-400,4,2,2,30,0,0
169072,-400,4,1,1,80,0,0
169211,-100,4,1,1,80,0,0
169630,-76.9230769230769,4,1,1,80,0,0
170327,-200,4,2,0,80,0,0
170887,-100,4,2,3,65,0,0
172002,-100,4,1,1,80,0,0
172699,-100,4,1,1,90,0,0
173120,-125,4,2,0,30,0,0
173955,-125,4,1,1,80,0,0
174024,-133.333333333333,4,1,1,10,0,0
175071,-200,4,1,1,80,0,0
175352,-76.9230769230769,4,1,1,80,0,1
179675,-76.9230769230769,4,2,0,80,0,1
179815,-76.9230769230769,4,1,1,80,0,1
184143,-100,4,1,1,80,0,0
184559,-100,4,2,0,80,0,0
185396,-100,4,1,1,80,0,0
192094,-166.666666666667,4,2,0,60,0,0
192791,-40,4,1,1,80,0,0
192931,-100,4,1,1,30,0,0

[Colours]
Combo1 : 138,138,244
Combo2 : 250,78,78
Combo3 : 206,128,240
Combo4 : 254,201,129

[HitObjects]
168,132,97,5,8,0:0:0:0:
168,132,4422,5,8,0:0:0:0:
168,132,4492,1,8,0:0:0:0:
168,132,4562,2,0,P|128:168|136:252,1,143.999995605469,2|2,0:0|0:0,0:0:0:0:
296,312,5259,6,0,L|248:324,2,47.9999985351563,8|8|8,0:0|0:0|0:0,0:0:0:0:
360,232,5678,1,8,0:0:0:0:
360,232,5817,1,8,0:0:0:0:
360,232,5957,1,8,0:0:0:0:
360,232,6096,1,8,0:0:0:0:
360,232,6236,1,8,0:0:0:0:
360,232,6376,1,8,0:0:0:0:
360,232,6515,1,8,0:0:0:0:
360,232,6655,1,8,0:0:0:0:
456,288,6794,6,0,P|492:232|480:188,1,95.9999970703126,2|0,0:0|0:0,0:0:0:0:
396,112,7213,1,2,0:0:0:0:
455,45,7492,1,0,0:0:0:0:
396,112,7631,6,0,L|336:108,1,47.9999985351563,2|0,0:0|0:0,0:0:0:0:
216,36,7910,2,0,L|276:32,1,47.9999985351563,2|0,0:0|0:0,0:0:0:0:
220,140,8190,2,0,L|160:136,1,47.9999985351563,2|0,0:0|0:0,0:0:0:0:
40,64,8469,2,0,L|100:60,1,47.9999985351563,2|0,0:0|0:0,0:0:0:0:
216,36,8748,1,2,0:0:0:0:
216,36,8887,1,0,0:0:0:0:
284,204,9027,5,8,0:0:0:0:
88,160,9166,1,8,0:0:0:0:
172,292,9306,1,2,0:0:0:0:
172,292,9376,1,2,0:0:0:0:
172,292,9445,2,0,L|176:236,1,47.9999985351563,2|2,0:0|0:0,0:0:0:0:
184,124,9724,1,2,0:0:0:0:
204,108,9794,1,2,0:0:0:0:
228,100,9864,1,2,0:0:0:0:
252,96,9934,1,2,0:0:0:0:
276,100,10003,2,0,L|272:136,1,23.9999992675781,2|2,0:0|0:0,0:0:0:0:
252,300,10143,6,0,P|288:304|312:292,1,47.9999985351563,8|2,0:0|0:0,0:0:0:0:
424,256,10422,1,2,0:0:0:0:
424,256,10492,1,2,0:0:0:0:
424,256,10562,2,0,L|432:208,1,47.9999985351563,2|2,0:0|0:0,0:0:0:0:
308,56,10841,6,0,P|308:84|328:116,1,47.9999985351563,10|2,0:2|0:0,0:0:0:0:
224,232,11120,2,0,P|260:244|264:244,1,23.9999992675781,10|0,0:0|0:0,0:0:0:0:
320,264,11259,5,8,0:0:0:0:
208,132,11399,1,2,0:0:0:0:
324,120,11538,1,2,0:0:0:0:
208,132,11678,2,0,L|212:72,1,47.9999985351563,8|2,0:0|0:0,0:0:0:0:
360,52,11957,1,2,0:0:0:0:
412,256,12096,2,0,L|416:304,1,47.9999985351563,8|2,0:0|0:0,0:0:0:0:
264,224,12376,5,2,0:0:0:0:
264,224,12445,1,2,0:0:0:0:
264,224,12515,1,2,0:0:0:0:
448,144,12655,2,0,L|362:139,1,80,8|0,0:0|0:0,0:0:0:0:
448,144,13213,6,0,L|456:188,1,40,2|0,0:0|0:0,0:0:0:0:
348,328,13492,5,6,0:0:0:0:
284,200,13631,1,0,0:0:0:0:
176,348,13771,1,8,0:0:0:0:
176,348,13841,1,8,0:0:0:0:
176,348,13910,2,0,L|184:288,1,47.9999985351563,8|2,0:0|0:0,0:0:0:0:
200,212,14050,2,0,L|214:117,1,95.9999970703126,2|2,0:0|0:0,0:0:0:0:
84,192,14329,1,2,0:0:0:0:
304,228,14469,6,0,P|356:208|384:168,1,95.9999970703126,2|2,0:0|0:0,0:0:0:0:
112,32,14748,2,0,P|116:88|140:128,1,95.9999970703126,2|8,0:0|0:0,0:0:0:0:
192,188,14957,1,2,0:0:0:0:
192,188,15027,2,0,L|184:252,1,47.9999985351563,2|2,0:0|0:0,0:0:0:0:
88,348,15166,2,0,L|64:240,1,95.9999970703126,2|2,0:0|0:0,0:0:0:0:
288,264,15445,1,8,0:0:0:0:
316,260,15515,1,8,0:0:0:0:
344,256,15585,1,8,0:0:0:0:
372,252,15655,1,8,0:0:0:0:
400,248,15724,6,0,P|416:196|408:140,1,95.9999970703126,6|0,0:0|0:0,0:0:0:0:
216,32,16003,1,8,0:0:0:0:
216,32,16073,1,2,0:0:0:0:
216,32,16143,2,0,L|208:104,1,47.9999985351563,8|8,0:0|0:0,0:0:0:0:
196,168,16283,1,2,0:0:0:0:
44,120,16422,2,0,L|60:232,1,95.9999970703126,8|2,0:0|0:0,0:0:0:0:
184,264,16701,6,0,P|236:260|276:224,1,95.9999970703126,2|2,0:0|0:0,0:0:0:0:
392,40,16980,2,0,L|408:136,1,95.9999970703126,2|8,0:0|0:0,0:0:0:0:
424,224,17190,1,2,0:0:0:0:
424,224,17259,2,0,L|360:216,1,47.9999985351563,2|2,0:0|0:0,0:0:0:0:
256,168,17399,1,2,0:0:0:0:
256,168,17469,1,2,0:0:0:0:
256,168,17538,2,0,L|316:160,1,47.9999985351563,2|2,0:0|0:0,0:0:0:0:
184,264,17678,2,0,L|176:372,1,95.9999970703126,8|2,0:0|0:0,0:0:0:0:
96,188,17957,6,0,P|64:140|72:84,1,95.9999970703126,6|0,0:0|0:0,0:0:0:0:
160,296,18236,1,8,0:0:0:0:
160,296,18306,1,2,0:0:0:0:
160,296,18376,2,0,P|136:316|100:328,1,47.9999985351563,8|8,0:0|0:0,0:0:0:0:
40,272,18515,1,2,0:0:0:0:
196,128,18655,2,0,L|208:232,1,95.9999970703126,8|2,0:0|0:0,0:0:0:0:
236,340,18934,6,0,P|292:340|336:304,1,95.9999970703126,2|2,0:0|0:0,0:0:0:0:
424,148,19213,2,0,P|376:120|328:120,1,95.9999970703126,2|8,0:0|0:0,0:0:0:0:
256,168,19422,1,2,0:0:0:0:
256,168,19492,2,0,L|200:160,1,47.9999985351563,2|2,0:0|0:0,0:0:0:0:
148,64,19631,1,2,0:0:0:0:
148,64,19701,1,2,0:0:0:0:
148,64,19771,2,0,L|204:56,1,47.9999985351563,2|2,0:0|0:0,0:0:0:0:
340,40,19910,5,8,0:0:0:0:
348,84,19980,1,8,0:0:0:0:
356,128,20050,1,8,0:0:0:0:
364,172,20120,1,8,0:0:0:0:
372,216,20190,6,0,L|368:328,1,95.9999970703126,6|0,0:0|0:0,0:0:0:0:
272,220,20469,1,8,0:0:0:0:
456,168,20608,1,2,0:0:0:0:
456,168,20678,1,2,0:0:0:0:
456,168,20748,1,8,0:0:0:0:
344,56,20887,2,0,L|444:48,1,95.9999970703126,8|8,0:0|0:0,0:0:0:0:
220,128,21166,6,0,L|160:116,1,47.9999985351563,2|0,0:0|0:0,0:0:0:0:
267,137,21445,6,0,L|207:125,1,47.9999985351563,2|0,0:0|0:0,0:0:0:0:
314,146,21724,6,0,L|254:134,1,47.9999985351563,2|0,0:0|0:0,0:0:0:0:
361,155,22003,6,0,L|301:143,1,47.9999985351563,2|0,0:0|0:0,0:0:0:0:
408,168,22283,6,0,B|399:237|399:237|395:246|395:246|384:352,1,160,6|2,0:0|0:0,0:0:0:0:
324,52,22701,2,0,P|372:28|408:28,1,80,8|2,0:0|0:0,0:0:0:0:
232,204,22980,1,8,0:0:0:0:
96,124,23120,1,2,0:0:0:0:
232,40,23259,1,2,0:0:0:0:
232,40,23329,1,2,0:0:0:0:
232,40,23399,1,2,0:0:0:0:
248,200,23538,5,8,0:0:0:0:
396,136,23678,2,0,L|385:40,1,95.9999970703126,2|8,0:0|0:0,0:0:0:0:
258,295,23957,2,0,L|247:199,1,95.9999970703126,2|0,0:0|0:0,0:0:0:0:
92,28,24236,2,0,L|81:123,1,95.9999970703126,2|0,0:0|0:0,0:0:0:0:
52,316,24515,6,0,P|104:348|216:284,1,191.999994140625,6|4,0:0|0:2,0:0:0:0:
212,148,24934,1,6,0:0:0:0:
212,148,25003,1,4,0:0:0:0:
212,148,25073,2,0,L|196:84,1,47.9999985351563,4|4,0:0|0:0,0:0:0:0:
339,240,25214,5,6,0:0:0:0:
339,240,25283,1,4,0:0:0:0:
339,240,25353,2,0,L|291:285,1,47.9999985351563,4|4,0:0|0:0,0:0:0:0:
344,84,25492,5,6,0:0:0:0:
344,84,25561,1,6,0:0:0:0:
344,84,25631,2,0,L|407:102,1,47.9999985351563,6|6,0:0|0:0,0:0:0:0:
468,192,25771,6,0,B|464:228|464:228|465:231|465:231|460:272,1,80,2|0,0:0|0:0,0:0:0:0:
480,192,26469,6,0,B|476:228|476:228|477:231|477:231|464:320,1,120.000004577637,8|0,0:0|0:0,0:0:0:0:
300,336,26748,6,0,L|240:324,1,55.9999982910157,6|0,0:0|0:0,0:0:0:0:
184,216,27027,2,0,P|211:207|244:204,1,55.9999982910157,0|0,0:0|0:0,0:0:0:0:
112,316,27306,1,0,0:0:0:0:
112,316,27585,1,0,0:0:0:0:
32,212,27724,2,0,P|20:164|24:136,1,55.9999982910157,0|0,0:0|0:0,0:0:0:0:
180,72,28003,6,0,P|168:116|108:160,1,111.999996582031,2|0,0:0|0:0,0:0:0:0:
120,24,28422,2,0,L|244:20,1,111.999996582031,0|0,0:0|0:0,0:0:0:0:
336,136,28841,2,0,L|280:128,1,55.9999982910157,0|0,0:0|0:0,0:0:0:0:
152,132,29120,5,2,0:0:0:0:
100,212,29259,1,0,0:0:0:0:
184,260,29399,1,0,0:0:0:0:
236,180,29538,1,0,0:0:0:0:
100,212,29817,5,0,0:0:0:0:
236,180,29957,1,2,0:0:0:0:
100,212,30794,6,0,B|136:184|172:208|216:184,1,111.999996582031,2|0,0:0|0:0,0:0:0:0:
207,188,31213,6,0,L|228:20,1,160,4|0,0:0|0:0,0:0:0:0:
152,284,31631,2,0,P|188:304|248:308,1,80,8|2,0:0|0:0,0:0:0:0:
384,120,31910,2,0,P|324:132|300:148,1,80,8|2,0:0|0:0,0:0:0:0:
104,40,32190,2,0,P|104:88|128:132,1,80,8|2,0:0|0:0,0:0:0:0:
268,332,32469,6,0,L|260:236,1,80,8|2,0:0|0:0,0:0:0:0:
32,172,32748,2,0,L|25:251,1,80,8|2,0:0|0:0,0:0:0:0:
152,104,33027,1,8,0:0:0:0:
180,248,33166,1,2,0:0:0:0:
296,96,33306,1,8,0:0:0:0:
304,256,33445,6,0,L|476:236,1,160,6|2,0:0|0:0,0:0:0:0:
192,35,33864,2,0,P|240:34|284:43,1,80,8|2,0:0|0:0,0:0:0:0:
80,240,34143,2,0,P|44:208|32:168,1,80,8|2,0:0|0:0,0:0:0:0:
308,248,34422,2,0,L|292:344,1,80,8|2,0:0|0:0,0:0:0:0:
224,104,34701,5,2,0:0:0:0:
248,100,34771,1,2,0:0:0:0:
272,96,34841,1,2,0:0:0:0:
296,92,34910,1,2,0:0:0:0:
320,88,34980,2,0,L|312:140,3,40,2|2|2|2,0:0|0:0|0:0|0:0,0:0:0:0:
308,216,35259,5,8,0:0:0:0:
76,52,35399,2,0,B|74:116|74:116|78:127|78:127|84:192,1,120,2|0,0:0|0:0,0:0:0:0:
84,260,35678,6,0,B|128:268|148:236|200:248,1,111.999996582031,6|2,0:0|0:0,0:0:0:0:
296,288,36096,1,2,0:0:0:0:
312,288,36166,1,2,0:0:0:0:
328,284,36236,1,2,0:0:0:0:
344,276,36306,1,2,0:0:0:0:
356,264,36376,2,0,L|360:224,3,27.9999991455078,2|2|2|2,0:0|0:0|0:0|0:0,0:0:0:0:
284,196,36655,1,2,0:0:0:0:
280,180,36724,1,2,0:0:0:0:
276,164,36794,1,2,0:0:0:0:
272,148,36864,1,2,0:0:0:0:
268,132,36934,6,0,L|308:124,3,27.9999991455078,2|2|2|2,0:0|0:0|0:0|0:0,0:0:0:0:
380,64,37213,2,0,L|340:56,3,27.9999991455078,2|2|2|2,0:0|0:0|0:0|0:0,0:0:0:0:
404,152,37492,2,0,L|444:144,3,27.9999991455078,2|2|2|2,0:0|0:0|0:0|0:0,0:0:0:0:
372,236,37771,1,2,0:0:0:0:
348,232,37841,1,2,0:0:0:0:
328,228,37910,1,2,0:0:0:0:
304,224,37980,1,2,0:0:0:0:
280,220,38050,6,0,L|264:264,1,27.9999991455078,2|0,0:0|0:0,0:0:0:0:
64,84,38329,6,0,L|68:56,1,27.9999991455078,8|8,0:0|0:0,0:0:0:0:
160,36,38469,2,0,L|164:64,1,27.9999991455078,8|8,0:0|0:0,0:0:0:0:
136,152,38608,1,8,0:0:0:0:
280,128,38748,1,8,0:0:0:0:
152,264,38887,1,8,0:0:0:0:
304,268,39027,1,8,0:0:0:0:
220,196,39166,2,8,L|272:192,4,27.9999991455078
400,192,39585,1,2,0:0:0:0:
324,328,39724,6,0,L|312:252,1,55.9999982910157,8|2,0:0|0:0,0:0:0:0:
288,100,40003,1,8,0:0:0:0:
152,328,40143,6,0,P|104:320|76:212,1,160,6|2,0:0|0:0,0:0:0:0:
223,40,40562,2,0,P|218:79|211:118,1,80,8|2,0:0|0:0,0:0:0:0:
356,256,40841,2,0,P|361:295|368:334,1,80,8|2,0:0|0:0,0:0:0:0:
484,108,41120,2,0,P|478:68|471:29,1,80,8|2,0:0|0:0,0:0:0:0:
280,40,41399,5,8,0:0:0:0:
120,36,41538,1,2,0:0:0:0:
304,160,41678,1,8,0:0:0:0:
144,180,41817,1,2,0:0:0:0:
120,36,41957,2,0,L|112:136,1,80,8|2,0:0|0:0,0:0:0:0:
224,216,42236,1,8,0:0:0:0:
296,44,42376,6,0,P|340:56|376:168,1,160,6|2,0:0|0:0,0:0:0:0:
320,332,42794,2,0,L|400:344,1,80,8|2,0:0|0:0,0:0:0:0:
200,144,43073,2,0,L|280:132,1,80,8|2,0:0|0:0,0:0:0:0:
120,320,43352,2,0,L|40:332,1,80,8|2,0:0|0:0,0:0:0:0:
196,224,43631,5,2,0:0:0:0:
228,232,43701,1,2,0:0:0:0:
260,240,43771,1,2,0:0:0:0:
292,248,43841,1,2,0:0:0:0:
324,256,43910,2,0,L|312:316,1,40,2|2,0:0|0:0,0:0:0:0:
408,228,44050,2,0,L|380:184,1,40,2|2,0:0|0:0,0:0:0:0:
308,168,44190,5,2,0:0:0:0:
124,336,44329,2,0,P|100:296|116:200,1,120,2|0,0:0|0:0,0:0:0:0:
140,152,44608,6,0,B|92:116|52:168|11:135|11:135|32:124,1,143.999995605469,6|0,0:0|0:0,0:0:0:0:
268,36,45306,2,0,P|296:80|288:140,1,95.9999970703126,2|0,0:0|0:0,0:0:0:0:
244,292,45864,2,0,P|272:316|336:320,1,95.9999970703126,0|0,0:0|0:0,0:0:0:0:
420,172,46422,2,0,P|372:173|334:202,1,95.9999970703126,2|0,0:0|0:0,0:0:0:0:
156,248,46980,6,0,L|144:152,1,95.9999970703126,0|0,0:0|0:0,0:0:0:0:
276,28,47399,2,0,L|264:124,1,95.9999970703126,2|0,0:0|0:0,0:0:0:0:
248,232,47817,1,0,0:0:0:0:
248,232,48096,2,0,P|201:224|132:216,1,95.9999970703126,2|0,0:0|0:0,0:0:0:0:
284,344,48515,2,0,P|331:336|400:328,1,95.9999970703126,2|0,0:0|0:0,0:0:0:0:
476,312,48934,1,0,0:0:0:0:
140,288,49073,6,0,P|116:248|144:140,1,160,6|2,0:0|0:0,0:0:0:0:
344,64,49492,1,8,0:0:0:0:
176,40,49631,1,2,0:0:0:0:
340,152,49771,1,2,0:0:0:0:
184,172,49910,1,2,0:0:0:0:
264,32,50050,1,8,0:0:0:0:
308,264,50190,6,0,P|256:324|168:316,1,160,6|2,0:0|0:0,0:0:0:0:
56,124,50608,2,0,L|44:216,1,80,8|2,0:0|0:0,0:0:0:0:
192,36,50887,1,2,0:0:0:0:
220,196,51027,1,2,0:0:0:0:
324,104,51166,1,8,0:0:0:0:
356,100,51236,1,8,0:0:0:0:
388,96,51306,1,8,0:0:0:0:
420,92,51376,1,8,0:0:0:0:
448,88,51445,6,0,L|440:144,1,47.9999985351563,2|0,0:0|0:0,0:0:0:0:
428,216,51724,1,0,0:0:0:0:
320,28,51864,6,0,L|328:84,1,47.9999985351563,0|2,0:0|0:0,0:0:0:0:
340,156,52143,1,0,0:0:0:0:
236,112,52283,6,0,P|230:141|228:168,1,47.9999985351563,0|2,0:0|0:0,0:0:0:0:
216,240,52562,1,0,0:0:0:0:
120,36,52701,6,0,L|128:92,1,47.9999985351563,0|2,0:0|0:0,0:0:0:0:
140,164,52980,1,0,0:0:0:0:
392,188,53120,5,8,0:0:0:0:
228,176,53259,1,8,0:0:0:0:
392,188,53538,6,0,P|440:152|432:44,1,160,6|2,0:0|0:0,0:0:0:0:
232,32,53957,1,12,0:0:0:0:
216,240,54096,1,2,0:0:0:0:
96,116,54236,1,12,0:0:0:0:
308,136,54376,1,2,0:0:0:0:
136,28,54515,1,12,0:0:0:0:
136,28,54585,1,0,0:0:0:0:
136,28,54655,1,2,0:0:0:0:
148,192,54794,5,12,0:0:0:0:
280,56,54934,2,0,P|320:52|376:52,1,80,2|2,0:0|0:0,0:0:0:0:
408,280,55213,2,0,L|424:184,1,80,6|2,0:0|0:0,0:0:0:0:
128,320,55492,2,0,L|144:224,1,80,6|2,0:0|0:0,0:0:0:0:
272,136,55771,6,0,P|256:84|144:56,1,160,6|2,0:0|0:0,0:0:0:0:
40,168,56190,5,2,0:0:0:0:
40,168,56259,1,2,0:0:0:0:
40,168,56329,2,0,L|48:224,1,40,0|0,0:0|0:0,0:0:0:0:
160,284,56469,5,2,0:0:0:0:
160,284,56538,1,2,0:0:0:0:
160,284,56608,2,0,P|161:259|168:228,1,40,0|0,0:0|0:0,0:0:0:0:
223,74,56748,5,2,0:0:0:0:
232,96,56817,1,2,0:0:0:0:
240,120,56887,1,2,0:0:0:0:
248,144,56957,1,0,0:0:0:0:
256,168,57027,6,0,B|296:160|296:160|312:160|312:160|344:152,1,80,10|2,0:0|0:0,0:0:0:0:
432,80,57585,6,0,L|336:68,1,80,2|0,0:0|0:0,0:0:0:0:
352,70,58003,6,0,P|368:168|300:224,1,191.999994140625,6|2,0:0|0:0,0:0:0:0:
132,204,58422,1,8,0:0:0:0:
204,44,58562,1,2,0:0:0:0:
204,44,58631,1,2,0:0:0:0:
204,44,58701,1,2,0:0:0:0:
52,128,58841,1,8,0:0:0:0:
228,216,58980,1,2,0:0:0:0:
288,52,59120,6,0,P|352:60|400:180,1,191.999994140625,6|2,0:0|0:0,0:0:0:0:
276,328,59538,2,0,L|380:348,1,95.9999970703126,8|2,0:0|0:0,0:0:0:0:
224,200,59817,1,2,0:0:0:0:
196,204,59887,1,2,0:0:0:0:
168,208,59957,2,0,L|156:264,2,47.9999985351563,2|2|2,0:0|0:0|0:0,0:0:0:0:
232,72,60236,6,0,L|440:88,1,191.999994140625,6|2,0:0|0:0,0:0:0:0:
448,236,60655,2,0,L|452:296,1,47.9999985351563,2|2,0:0|0:0,0:0:0:0:
352,272,60794,2,0,L|368:324,1,47.9999985351563,2|2,0:0|0:0,0:0:0:0:
276,348,60934,5,8,0:0:0:0:
228,356,61003,1,8,0:0:0:0:
184,340,61073,1,8,0:0:0:0:
152,304,61143,1,8,0:0:0:0:
140,256,61213,1,8,0:0:0:0:
152,208,61283,1,8,0:0:0:0:
184,176,61352,6,0,L|232:168,1,40,2|0,0:0|0:0,0:0:0:0:
404,76,61631,6,0,L|356:68,1,40,2|0,0:0|0:0,0:0:0:0:
181,177,61910,6,0,L|230:168,1,40,2|0,0:0|0:0,0:0:0:0:
406,74,62189,6,0,L|357:66,1,40,2|0,0:0|0:0,0:0:0:0:
181,177,62469,6,0,P|267:162|360:152,1,160,6|2,0:0|0:0,0:0:0:0:
452,272,62887,2,0,L|440:372,1,80,8|0,0:0|0:0,0:0:0:0:
172,97,63166,2,0,L|184:197,1,80,2|0,0:0|0:0,0:0:0:0:
456,96,63445,2,0,B|453:60|453:60|445:16,1,80,8|0,0:0|0:0,0:0:0:0:
284,68,63724,5,2,0:0:0:0:
312,208,63864,1,2,0:0:0:0:
128,48,64003,1,8,0:0:0:0:
128,224,64143,2,0,L|28:208,1,80,0|2,0:0|0:0,0:0:0:0:
224,336,64422,2,0,P|263:332|324:320,1,80,0|8,0:0|0:0,0:0:0:0:
412,88,64701,1,0,0:0:0:0:
208,92,64841,6,0,P|168:88|108:76,1,80,6|8,0:0|0:0,0:0:0:0:
160,200,65120,1,2,0:0:0:0:
160,200,65190,1,2,0:0:0:0:
160,200,65259,1,8,0:0:0:0:
304,68,65399,5,2,0:0:0:0:
304,68,65538,1,8,0:0:0:0:
328,212,65678,2,0,L|336:256,2,40,2|2|8,0:0|0:0|0:0,0:0:0:0:
164,128,65957,5,8,0:0:0:0:
164,128,66027,1,8,0:0:0:0:
164,128,66096,2,0,L|112:120,1,40,2|2,0:0|0:0,0:0:0:0:
52,108,66236,1,2,0:0:0:0:
36,300,66376,2,0,L|136:288,1,80,2|0,0:0|0:0,0:0:0:0:
320,52,66655,2,0,P|280:44|220:40,1,80,2|0,0:0|0:0,0:0:0:0:
344,240,66934,6,0,P|428:240|476:132,1,191.999994140625,6|2,0:0|0:0,0:0:0:0:
208,32,67352,1,8,0:0:0:0:
148,196,67492,1,2,0:0:0:0:
148,196,67562,1,2,0:0:0:0:
148,196,67631,1,2,0:0:0:0:
300,116,67771,1,8,0:0:0:0:
116,84,67910,1,2,0:0:0:0:
232,264,68050,6,0,L|432:236,1,191.999994140625,6|2,0:0|0:0,0:0:0:0:
64,220,68469,2,0,P|48:292|68:328,1,95.9999970703126,8|2,0:0|0:0,0:0:0:0:
184,124,68748,1,2,0:0:0:0:
180,96,68817,1,2,0:0:0:0:
176,68,68887,2,0,L|232:52,1,47.9999985351563,2|2,0:0|0:0,0:0:0:0:
312,32,69027,1,2,0:0:0:0:
408,248,69166,6,0,P|316:236|208:228,1,191.999994140625,6|2,0:0|0:0,0:0:0:0:
52,208,69585,2,0,L|44:276,1,47.9999985351563,2|2,0:0|0:0,0:0:0:0:
128,272,69724,2,0,L|136:328,1,47.9999985351563,2|2,0:0|0:0,0:0:0:0:
220,336,69864,5,8,0:0:0:0:
260,332,69934,1,8,0:0:0:0:
292,312,70003,1,8,0:0:0:0:
316,284,70073,1,8,0:0:0:0:
328,248,70143,1,8,0:0:0:0:
328,208,70213,1,8,0:0:0:0:
316,172,70283,6,0,L|256:156,1,47.9999985351563,2|0,0:0|0:0,0:0:0:0:
48,164,70562,6,0,L|108:148,1,47.9999985351563,2|0,0:0|0:0,0:0:0:0:
320,172,70841,6,0,L|258:155,1,47.9999985351563,2|0,0:0|0:0,0:0:0:0:
43,163,71120,6,0,L|105:147,1,47.9999985351563,2|0,0:0|0:0,0:0:0:0:
320,172,71399,6,0,P|240:135|140:96,1,191.999994140625,6|2,0:0|0:0,0:0:0:0:
40,276,71817,2,0,P|92:263|148:252,1,95.9999970703126,8|0,0:0|0:0,0:0:0:0:
356,256,72096,2,0,P|368:316|364:372,1,95.9999970703126,2|2,0:0|0:0,0:0:0:0:
248,108,72376,2,0,P|280:60|308:32,1,95.9999970703126,8|0,0:0|0:0,0:0:0:0:
180,256,72655,5,2,0:0:0:0:
56,152,72794,1,2,0:0:0:0:
184,24,72934,1,8,0:0:0:0:
136,180,73073,2,0,L|244:172,1,95.9999970703126,0|2,0:0|0:0,0:0:0:0:
468,44,73352,2,0,L|360:36,1,95.9999970703126,2|8,0:0|0:0,0:0:0:0:
208,28,73631,1,0,0:0:0:0:
276,176,73771,5,6,0:0:0:0:
124,116,73910,1,0,0:0:0:0:
108,280,74050,1,8,0:0:0:0:
108,280,74190,1,2,0:0:0:0:
200,120,74329,2,0,L|204:236,1,95.9999970703126,2|2,0:0|0:0,0:0:0:0:
428,32,74608,2,0,L|424:148,1,95.9999970703126,8|2,0:0|0:0,0:0:0:0:
412,292,74887,5,2,0:0:0:0:
232,260,75027,1,2,0:0:0:0:
340,120,75166,1,8,0:0:0:0:
160,136,75306,2,0,L|64:152,1,95.9999970703126,2|0,0:0|0:0,0:0:0:0:
328,343,75585,2,0,L|228:341,1,95.9999970703126,2|0,0:0|0:0,0:0:0:0:
452,160,75864,6,0,P|456:100|340:16,1,191.999994140625,6|2,0:0|0:0,0:0:0:0:
120,52,76283,2,0,L|128:164,1,95.9999970703126,8|0,0:0|0:0,0:0:0:0:
200,264,76562,5,8,0:0:0:0:
384,224,76701,1,8,0:0:0:0:
126,147,76841,1,8,0:0:0:0:
304,112,76980,6,0,L|292:320,1,191.999994140625,8|2,0:0|0:0,0:0:0:0:
203,65,77399,2,0,P|303:2|387:37,1,191.999994140625,8|8,0:0|0:0,0:0:0:0:
428,84,77748,1,2,0:0:0:0:
428,84,77817,2,0,L|420:144,1,47.9999985351563,2|2,0:0|0:0,0:0:0:0:
344,164,77957,2,0,L|352:224,1,47.9999985351563,2|0,0:0|0:0,0:0:0:0:
384,292,78096,6,0,L|188:268,1,191.999994140625,6|2,0:0|0:0,0:0:0:0:
68,48,78515,2,0,L|168:40,1,95.9999970703126,8|2,0:0|0:0,0:0:0:0:
328,36,78794,5,8,0:0:0:0:
320,176,78934,1,8,0:0:0:0:
168,148,79073,1,8,0:0:0:0:
224,300,79213,2,0,P|304:324|384:256,1,191.999994140625,8|2,0:0|0:0,0:0:0:0:
240,52,79631,5,2,0:0:0:0:
236,80,79701,1,2,0:0:0:0:
232,108,79771,1,2,0:0:0:0:
228,136,79841,1,2,0:0:0:0:
224,164,79910,2,0,L|156:168,1,47.9999985351563,2|2,0:0|0:0,0:0:0:0:
296,120,80050,2,0,P|304:144|308:172,1,47.9999985351563,2|2,0:0|0:0,0:0:0:0:
216,80,80190,6,0,P|248:40|284:32,1,71.9999978027344,2|0,0:0|0:0,0:0:0:0:
344,36,80469,6,0,L|328:170,1,127.99999609375,8|2,0:0|0:0,0:0:0:0:
316,272,80841,1,2,0:0:0:0:
192,148,81027,5,8,0:0:0:0:
108,80,81213,1,2,0:0:0:0:
76,192,81399,1,2,0:0:0:0:
232,232,81585,5,8,0:0:0:0:
338,248,81771,1,2,0:0:0:0:
310,135,81957,1,2,0:0:0:0:
196,32,82143,6,0,L|316:28,1,106.666666666667,8|2,0:0|0:0,0:0:0:0:
420,28,82515,1,2,0:0:0:0:
408,200,82701,6,0,P|348:188|288:180,1,120,6|0,0:0|0:0,0:0:0:0:
232,116,83259,6,0,P|300:104|364:96,1,120,0|0,0:0|0:0,0:0:0:0:
432,292,83817,6,0,P|372:284|313:273,1,120,0|0,0:0|0:0,0:0:0:0:
216,248,84375,6,0,P|188:224|240:192,1,120,0|0,0:0|0:0,0:0:0:0:
328,228,84933,6,0,P|480:232|304:152,1,560,2|2,0:0|0:0,0:0:0:0:
304,151,87026,6,0,B|224:176|180:104|116:127|116:127|120:168|184:184,1,280,0|0,0:0|0:0,0:0:0:0:
174,181,89119,1,2,0:0:0:0:
174,181,89399,6,0,L|184:288,1,95.9999970703126,6|2,0:0|0:0,0:0:0:0:
348,136,89677,1,8,0:0:0:0:
348,136,89747,1,8,0:0:0:0:
348,136,89817,2,0,L|354:195,1,47.9999985351563,8|0,0:0|0:0,0:0:0:0:
360,272,89956,1,2,0:0:0:0:
260,184,90096,1,8,0:0:0:0:
432,104,90235,1,8,0:0:0:0:
264,48,90375,6,0,L|160:40,1,95.9999970703126,2|2,0:0|0:0,0:0:0:0:
36,248,90654,2,0,L|144:228,1,95.9999970703126,2|8,0:0|0:0,0:0:0:0:
216,212,90863,1,2,0:0:0:0:
216,212,90933,2,0,L|224:148,1,47.9999985351563,2|2,0:0|0:0,0:0:0:0:
348,36,91073,2,0,P|364:88|373:147,1,95.9999970703126,2|2,0:0|0:0,0:0:0:0:
376,272,91352,1,8,0:0:0:0:
348,268,91422,1,8,0:0:0:0:
320,264,91492,1,8,0:0:0:0:
292,260,91562,1,8,0:0:0:0:
264,256,91631,6,0,P|248:308|256:364,1,95.9999970703126,6|2,0:0|0:0,0:0:0:0:
468,336,91911,1,8,0:0:0:0:
468,336,91980,1,0,0:0:0:0:
468,336,92050,2,0,L|460:264,1,47.9999985351563,8|8,0:0|0:0,0:0:0:0:
448,200,92190,1,2,0:0:0:0:
256,224,92329,1,8,0:0:0:0:
364,308,92469,1,8,0:0:0:0:
332,112,92608,6,0,P|280:116|240:152,1,95.9999970703126,2|2,0:0|0:0,0:0:0:0:
120,344,92887,2,0,L|104:248,1,95.9999970703126,2|8,0:0|0:0,0:0:0:0:
88,160,93096,1,2,0:0:0:0:
88,160,93166,2,0,L|152:168,1,47.9999985351563,2|2,0:0|0:0,0:0:0:0:
256,216,93306,1,2,0:0:0:0:
256,216,93376,1,2,0:0:0:0:
256,216,93445,2,0,L|196:224,1,47.9999985351563,2|2,0:0|0:0,0:0:0:0:
276,132,93585,1,8,0:0:0:0:
324,276,93724,1,2,0:0:0:0:
416,180,93864,6,0,L|424:68,1,95.9999970703126,6|2,0:0|0:0,0:0:0:0:
268,24,94143,1,8,0:0:0:0:
268,24,94213,1,0,0:0:0:0:
268,24,94283,2,0,P|260:56|256:84,1,47.9999985351563,8|8,0:0|0:0,0:0:0:0:
248,148,94422,1,2,0:0:0:0:
300,272,94562,1,8,0:0:0:0:
108,208,94701,1,8,0:0:0:0:
132,336,94840,6,0,L|228:320,1,95.9999970703126,2|2,0:0|0:0,0:0:0:0:
372,160,95119,2,0,L|276:144,1,95.9999970703126,2|8,0:0|0:0,0:0:0:0:
204,128,95329,1,2,0:0:0:0:
204,128,95399,2,0,L|196:184,1,47.9999985351563,2|2,0:0|0:0,0:0:0:0:
240,48,95538,1,2,0:0:0:0:
240,48,95608,1,2,0:0:0:0:
240,48,95678,2,0,P|212:32|192:24,1,47.9999985351563,2|2,0:0|0:0,0:0:0:0:
108,44,95817,5,8,0:0:0:0:
100,88,95887,1,8,0:0:0:0:
92,132,95957,1,8,0:0:0:0:
84,176,96027,1,8,0:0:0:0:
76,220,96096,6,0,L|80:332,1,95.9999970703126,6|2,0:0|0:0,0:0:0:0:
208,172,96376,1,8,0:0:0:0:
280,344,96515,1,8,0:0:0:0:
280,344,96585,1,8,0:0:0:0:
280,344,96655,1,8,0:0:0:0:
316,180,96794,2,0,L|416:172,1,95.9999970703126,8|8,0:0|0:0,0:0:0:0:
100,160,97073,5,2,0:0:0:0:
264,56,97352,5,2,0:0:0:0:
180,104,97562,5,2,0:0:0:0:
100,160,97771,6,0,L|96:208,1,32,8|0,0:0|0:0,0:0:0:0:
100,160,98190,6,0,L|88:292,1,128,6|2,0:0|0:0,0:0:0:0:
200,348,98608,5,8,0:0:0:0:
224,348,98678,1,2,0:0:0:0:
248,340,98748,1,2,0:0:0:0:
268,324,98817,1,2,0:0:0:0:
280,300,98887,2,0,L|288:244,3,32,2|2|2|2,0:0|0:0|0:0|0:0,0:0:0:0:
288,180,99166,1,8,0:0:0:0:
308,164,99236,1,2,0:0:0:0:
332,156,99306,1,2,0:0:0:0:
356,156,99376,1,2,0:0:0:0:
380,164,99445,2,0,L|372:216,3,32,2|2|2|2,0:0|0:0|0:0|0:0,0:0:0:0:
360,284,99724,5,8,0:0:0:0:
336,284,99794,1,2,0:0:0:0:
312,284,99863,1,2,0:0:0:0:
288,284,99933,1,2,0:0:0:0:
264,284,100003,2,0,L|256:320,3,32,2|2|2|2,0:0|0:0|0:0|0:0,0:0:0:0:
184,308,100283,2,0,L|176:344,3,32,8|2|2|2,0:0|0:0|0:0|0:0,0:0:0:0:
88,344,100562,5,2,0:0:0:0:
72,324,100631,1,2,0:0:0:0:
72,300,100701,1,2,0:0:0:0:
84,276,100771,1,2,0:0:0:0:
100,256,100841,1,8,0:0:0:0:
108,232,100910,1,2,0:0:0:0:
108,208,100980,1,2,0:0:0:0:
100,184,101050,1,2,0:0:0:0:
88,160,101120,2,0,L|128:152,3,32,2|2|2|0,0:0|0:0|0:0|0:0,0:0:0:0:
160,76,101399,2,0,L|120:68,3,32,8|2|2|2,0:0|0:0|0:0|0:0,0:0:0:0:
208,156,101678,6,0,L|256:152,1,32,2|2,0:0|0:0,0:0:0:0:
288,72,101817,2,0,L|240:68,1,32,2|2,0:0|0:0,0:0:0:0:
328,148,101957,2,0,L|376:144,1,32,8|2,0:0|0:0,0:0:0:0:
416,68,102096,2,0,L|368:64,1,32,2|2,0:0|0:0,0:0:0:0:
288,72,102236,5,8,0:0:0:0:
280,112,102306,1,8,0:0:0:0:
272,152,102376,1,8,0:0:0:0:
264,192,102445,1,8,0:0:0:0:
256,232,102515,2,0,L|260:276,1,32,8|8,0:0|0:0,0:0:0:0:
272,344,102655,6,0,P|196:364|140:320,1,128,6|2,0:0|0:0,0:0:0:0:
56,212,103073,6,0,L|44:136,1,51.999997619629,8|2,0:0|0:0,0:0:0:0:
156,152,103213,2,0,L|144:76,1,51.999997619629,8|2,0:0|0:0,0:0:0:0:
268,220,103352,2,0,L|256:144,1,51.999997619629,8|2,0:0|0:0,0:0:0:0:
368,160,103492,2,0,L|356:84,1,51.999997619629,8|2,0:0|0:0,0:0:0:0:
264,28,103631,6,0,L|200:20,1,51.999997619629,8|2,0:0|0:0,0:0:0:0:
136,112,103771,2,0,L|200:104,1,51.999997619629,8|2,0:0|0:0,0:0:0:0:
268,204,103910,2,0,L|204:196,1,51.999997619629,8|2,0:0|0:0,0:0:0:0:
140,288,104050,2,0,L|204:280,1,51.999997619629,8|2,0:0|0:0,0:0:0:0:
256,344,104190,2,0,L|320:336,3,51.999997619629,8|2|8|2,0:0|0:0|0:0|0:0,0:0:0:0:
408,320,104469,5,8,0:0:0:0:
452,292,104538,1,8,0:0:0:0:
472,244,104608,1,8,0:0:0:0:
464,192,104678,1,8,0:0:0:0:
440,148,104748,2,0,L|368:140,1,51.999997619629,8|8,0:0|0:0,0:0:0:0:
312,208,104887,6,0,L|160:176,1,143.999995605469,6|2,0:0|0:0,0:0:0:0:
72,60,105306,1,8,0:0:0:0:
72,60,105376,1,2,0:0:0:0:
72,60,105445,2,0,L|76:112,1,35.9999989013672,2|2,0:0|0:0,0:0:0:0:
220,120,105585,1,8,0:0:0:0:
220,120,105655,1,2,0:0:0:0:
220,120,105724,2,0,P|220:152|216:172,1,35.9999989013672,2|2,0:0|0:0,0:0:0:0:
124,216,105864,1,8,0:0:0:0:
124,216,105934,1,2,0:0:0:0:
124,216,106003,1,2,0:0:0:0:
320,204,106143,5,2,0:0:0:0:
320,204,106422,6,0,B|352:204|352:204|352:232|352:232|320:232,1,80,2|2,0:0|0:0,0:0:0:0:
464,84,107120,6,0,B|364:76|364:76|352:80|352:80|212:64,1,240,6|2,0:0|0:0,0:0:0:0:
168,216,107817,6,0,L|172:156,1,40,8|8,0:0|0:0,0:0:0:0:
104,92,107957,2,0,L|100:152,1,40,8|8,0:0|0:0,0:0:0:0:
87,247,108096,2,0,L|80:208,1,40,8|8,0:0|0:0,0:0:0:0:
104,320,108236,6,0,B|204:312|204:312|216:316|216:316|356:300,1,240,6|2,0:0|0:0,0:0:0:0:
380,144,108934,6,0,L|376:84,1,40,8|8,0:0|0:0,0:0:0:0:
444,20,109073,2,0,L|448:80,1,40,8|8,0:0|0:0,0:0:0:0:
460,175,109213,2,0,L|467:135,1,40,8|8,0:0|0:0,0:0:0:0:
392,224,109352,6,0,P|308:204|300:64,1,240,6|2,0:0|0:0,0:0:0:0:
152,288,110050,2,8,L|205:311,1,40
68,286,110190,2,8,P|52:303|40:331,1,40
108,214,110329,2,0,L|100:170,3,40,8|8|8|8,0:0|0:0|0:0|0:0,0:0:0:0:
142,89,110608,6,0,L|230:81,1,80,12|2,0:0|0:0,0:0:0:0:
313,147,110887,1,2,0:0:0:0:
48,110,111027,2,0,P|20:158|20:202,1,80,8|2,0:0|0:0,0:0:0:0:
244,20,111306,2,0,P|272:68|272:112,1,80,8|2,0:0|0:0,0:0:0:0:
252,276,111585,5,2,0:0:0:0:
252,276,111655,1,2,0:0:0:0:
252,276,111724,1,2,0:0:0:0:
252,276,111794,1,2,0:0:0:0:
252,276,111864,2,0,L|291:269,2,40,2|2|2,0:0|0:0|0:0,0:0:0:0:
148,288,112282,6,0,B|143:280|143:280|151:279|151:279|142:272|142:272|150:271|150:271|141:264|141:264|149:263|149:263|144:256|144:256|134:160,1,160,2|0,0:0|0:0,0:0:0:0:
200,56,112701,5,2,0:0:0:0:
200,56,112771,1,2,0:0:0:0:
200,56,112840,1,2,0:0:0:0:
200,56,112910,1,2,0:0:0:0:
200,56,112980,2,0,L|160:49,2,40,2|2|2,0:0|0:0|0:0,0:0:0:0:
296,72,113398,6,0,B|285:167|285:167|281:175|281:175|289:175|289:175|280:182|280:182|288:183|288:183|279:190|279:190|287:191|287:191|282:199,1,160,2|0,0:0|0:0,0:0:0:0:
296,332,113817,5,2,0:0:0:0:
296,332,113887,1,2,0:0:0:0:
296,332,113956,1,2,0:0:0:0:
296,332,114026,1,2,0:0:0:0:
296,332,114096,2,0,L|352:320,2,40,2|2|2,0:0|0:0|0:0,0:0:0:0:
468,72,114515,6,0,B|456:144|456:144|468:156|468:156|448:264,1,192,2|0,0:0|0:0,0:0:0:0:
328,280,115073,5,8,0:0:0:0:
216,160,115213,1,2,0:0:0:0:
376,92,115352,1,2,0:0:0:0:
216,160,115492,2,0,L|232:260,1,95.9999970703126,8|2,0:0|0:0,0:0:0:0:
424,176,115771,2,0,L|408:276,1,95.9999970703126,8|2,0:0|0:0,0:0:0:0:
248,344,116050,6,0,B|164:260|328:144|234:75|234:75|188:128|212:208,1,431.999986816407,6|0,0:0|0:0,0:0:0:0:
384,72,120654,5,2,0:0:0:0:
384,72,120794,1,2,0:0:0:0:
292,144,120933,2,0,L|300:216,1,64,8|0,0:0|0:0,0:0:0:0:
188,52,121212,2,0,L|180:124,1,64,8|0,0:0|0:0,0:0:0:0:
300,152,121491,2,0,L|308:224,1,64,8|0,0:0|0:0,0:0:0:0:
116,272,121771,5,2,0:0:0:0:
116,272,121910,1,2,0:0:0:0:
212,336,122050,2,0,L|300:328,1,64,8|0,0:0|0:0,0:0:0:0:
376,212,122329,2,0,L|288:204,1,64,8|0,0:0|0:0,0:0:0:0:
204,344,122608,2,0,L|292:336,1,64,8|0,0:0|0:0,0:0:0:0:
248,120,122887,5,2,0:0:0:0:
248,120,123027,1,2,0:0:0:0:
148,180,123166,2,0,P|100:168|84:156,1,64,8|0,0:0|0:0,0:0:0:0:
156,16,123445,2,0,P|204:28|220:40,1,64,8|0,0:0|0:0,0:0:0:0:
148,188,123724,2,0,P|100:176|84:164,1,64,8|0,0:0|0:0,0:0:0:0:
332,40,124003,5,2,0:0:0:0:
332,40,124143,1,2,0:0:0:0:
356,152,124283,1,8,0:0:0:0:
316,332,124562,1,8,0:0:0:0:
168,200,124841,1,8,1:0:0:0:
316,332,124980,6,0,P|380:320|428:224,1,160,6|2,0:0|0:0,0:0:0:0:
428,156,125329,1,2,0:0:0:0:
428,156,125399,2,0,L|376:144,3,40,2|2|2|2,0:0|0:0|0:0|0:0,0:0:0:0:
312,184,125678,1,2,0:0:0:0:
288,180,125748,1,2,0:0:0:0:
268,164,125817,1,2,0:0:0:0:
256,144,125887,1,2,0:0:0:0:
252,120,125957,2,0,L|296:108,1,40,2|0,0:0|0:0,0:0:0:0:
168,148,126096,6,0,L|188:308,1,160,6|2,0:0|0:0,0:0:0:0:
112,352,126445,1,2,0:0:0:0:
112,352,126515,2,0,P|87:348|64:340,3,40,2|2|2|2,0:0|0:0|0:0|0:0,0:0:0:0:
40,268,126794,1,2,0:0:0:0:
32,236,126864,1,2,0:0:0:0:
28,204,126934,1,2,0:0:0:0:
32,172,127003,1,2,0:0:0:0:
40,140,127073,2,0,L|84:128,1,40,2|0,0:0|0:0,0:0:0:0:
160,136,127213,6,0,P|208:136|268:36,1,160,6|2,0:0|0:0,0:0:0:0:
192,16,127562,1,2,0:0:0:0:
192,16,127631,2,0,L|184:68,3,40,2|2|2|2,0:0|0:0|0:0|0:0,0:0:0:0:
172,136,127910,1,2,0:0:0:0:
204,160,127980,1,2,0:0:0:0:
244,164,128050,1,0,0:0:0:0:
284,152,128120,1,0,0:0:0:0:
304,116,128190,2,0,L|296:60,1,40,8|0,0:0|0:0,0:0:0:0:
344,196,128329,6,0,L|320:364,1,160,6|2,0:0|0:0,0:0:0:0:
404,356,128678,1,2,0:0:0:0:
404,356,128748,2,0,L|460:344,3,40,2|2|2|2,0:0|0:0|0:0|0:0,0:0:0:0:
496,280,129027,1,2,0:0:0:0:
512,236,129096,1,2,0:0:0:0:
508,188,129166,1,2,0:0:0:0:
484,148,129236,1,2,0:0:0:0:
440,128,129306,6,0,L|316:112,1,120,8|0,0:0|0:0,0:0:0:0:
240,128,129585,5,0,0:0:0:0:
240,128,129864,1,2,0:0:0:0:
124,304,130143,5,0,0:0:0:0:
124,304,130283,1,2,0:0:0:0:
152,84,130562,5,0,0:0:0:0:
152,84,130700,1,0,0:0:0:0:
152,84,130840,1,2,0:0:0:0:
224,336,131119,5,0,0:0:0:0:
224,336,131259,1,2,0:0:0:0:
224,336,131538,1,2,0:0:0:0:
252,132,131817,6,0,L|330:141,1,77.9999964294435,14|0,0:0|0:0,0:0:0:0:
208,208,131992,2,0,L|131:217,1,77.9999964294435,14|0,0:0|0:0,0:0:0:0:
204,52,132166,2,0,L|284:41,1,77.9999964294435,14|0,0:0|0:0,0:0:0:0:
432,152,132341,6,0,L|423:235,1,77.9999964294435,14|0,0:0|0:0,0:0:0:0:
344,324,132515,2,0,P|332:284|327:248,1,77.9999964294435,14|0,0:0|0:0,0:0:0:0:
224,144,132690,2,0,L|232:225,1,77.9999964294435,14|0,0:0|0:0,0:0:0:0:
128,324,132864,6,0,P|140:284|146:246,1,77.9999964294435,14|0,0:0|0:0,0:0:0:0:
220,136,133038,2,0,L|231:220,1,77.9999964294435,14|0,0:0|0:0,0:0:0:0:
344,332,133213,2,0,P|332:292|327:257,1,77.9999964294435,14|0,0:0|0:0,0:0:0:0:
352,56,133910,6,0,P|300:36|192:136,1,191.999994140625,6|2,0:0|0:0,0:0:0:0:
216,268,134328,1,8,0:0:0:0:
96,156,134468,1,2,0:0:0:0:
96,156,134537,1,2,0:0:0:0:
96,156,134607,1,2,0:0:0:0:
88,320,134747,1,8,0:0:0:0:
188,172,134886,1,8,0:0:0:0:
256,356,135027,6,0,L|456:348,1,191.999994140625,6|2,0:0|0:0,0:0:0:0:
404,100,135445,2,0,P|408:156|428:208,1,95.9999970703126,8|2,0:0|0:0,0:0:0:0:
280,208,135724,1,2,0:0:0:0:
252,196,135794,1,2,0:0:0:0:
224,184,135864,2,0,L|208:232,2,47.9999985351563,2|2|2,0:0|0:0|0:0,0:0:0:0:
264,40,136143,6,0,P|204:16|104:112,1,191.999994140625,6|2,0:0|0:0,0:0:0:0:
52,236,136562,2,0,L|40:292,1,47.9999985351563,2|2,0:0|0:0,0:0:0:0:
136,256,136701,2,0,L|144:312,1,47.9999985351563,2|2,0:0|0:0,0:0:0:0:
208,204,136841,5,8,0:0:0:0:
240,184,136910,1,8,0:0:0:0:
276,180,136980,1,8,0:0:0:0:
316,184,137050,1,8,0:0:0:0:
352,200,137120,1,8,0:0:0:0:
380,228,137190,1,8,0:0:0:0:
388,264,137259,6,0,L|444:260,1,40,2|0,0:0|0:0,0:0:0:0:
472,112,137538,6,0,L|408:108,1,40,2|0,0:0|0:0,0:0:0:0:
380,188,137817,6,0,L|432:184,1,40,2|0,0:0|0:0,0:0:0:0:
464,36,138096,6,0,L|412:32,1,40,2|0,0:0|0:0,0:0:0:0:
212,104,138376,6,0,L|376:116,1,160,6|2,0:0|0:0,0:0:0:0:
120,176,138794,2,0,P|104:232|108:280,1,80,8|0,0:0|0:0,0:0:0:0:
232,312,139073,1,2,0:0:0:0:
312,136,139213,1,0,0:0:0:0:
368,260,139352,2,0,L|468:248,1,80,8|0,0:0|0:0,0:0:0:0:
192,64,139631,5,2,0:0:0:0:
232,204,139771,1,2,0:0:0:0:
364,80,139910,1,8,0:0:0:0:
368,260,140050,2,0,P|368:298|360:364,1,80,2|2,0:0|0:0,0:0:0:0:
112,192,140329,2,0,P|111:230|120:296,1,80,0|8,0:0|0:0,0:0:0:0:
236,96,140608,5,2,0:0:0:0:
276,236,140748,1,6,0:0:0:0:
340,68,140887,1,8,0:0:0:0:
156,48,141027,1,2,0:0:0:0:
156,48,141096,1,2,0:0:0:0:
156,48,141166,1,8,0:0:0:0:
72,152,141306,6,0,L|84:252,1,80,2|8,0:0|0:0,0:0:0:0:
248,336,141585,2,0,L|256:288,2,40,2|2|8,0:0|0:0|0:0,0:0:0:0:
264,132,141864,1,2,0:0:0:0:
244,104,141934,1,2,0:0:0:0:
216,88,142003,2,0,P|204:112|196:136,2,40,2|2|8,0:0|0:0|0:0,0:0:0:0:
420,228,142283,6,0,P|440:172|440:132,1,80,2|0,0:0|0:0,0:0:0:0:
124,244,142562,2,0,P|132:288|160:336,1,80,2|0,0:0|0:0,0:0:0:0:
244,96,142841,6,0,P|192:40|84:56,1,191.999994140625,6|2,0:0|0:0,0:0:0:0:
256,220,143259,1,8,0:0:0:0:
420,168,143399,1,2,0:0:0:0:
420,168,143469,1,2,0:0:0:0:
420,168,143538,1,2,0:0:0:0:
300,104,143678,1,8,0:0:0:0:
296,316,143817,1,8,0:0:0:0:
152,284,143957,6,0,P|120:208|184:104,1,191.999994140625,6|2,0:0|0:0,0:0:0:0:
420,88,144376,2,0,L|432:200,1,95.9999970703126,8|2,0:0|0:0,0:0:0:0:
372,320,144655,1,2,0:0:0:0:
336,316,144724,1,2,0:0:0:0:
300,304,144794,2,0,L|296:248,2,47.9999985351563,2|2|2,0:0|0:0|0:0,0:0:0:0:
100,340,145073,6,0,P|124:284|132:144,1,191.999994140625,6|2,0:0|0:0,0:0:0:0:
280,32,145492,2,0,L|292:96,1,47.9999985351563,2|2,0:0|0:0,0:0:0:0:
380,68,145631,2,0,L|372:124,1,47.9999985351563,2|2,0:0|0:0,0:0:0:0:
292,168,145771,5,8,0:0:0:0:
256,176,145841,1,8,0:0:0:0:
220,168,145910,1,8,0:0:0:0:
188,144,145980,1,8,0:0:0:0:
176,108,146050,1,8,0:0:0:0:
180,68,146120,1,8,0:0:0:0:
200,36,146190,6,0,L|152:24,1,47.9999985351563,2|0,0:0|0:0,0:0:0:0:
60,184,146469,6,0,L|108:172,1,47.9999985351563,2|0,0:0|0:0,0:0:0:0:
252,132,146748,6,0,L|204:120,1,47.9999985351563,2|0,0:0|0:0,0:0:0:0:
112,280,147027,6,0,L|160:268,1,47.9999985351563,2|0,0:0|0:0,0:0:0:0:
336,64,147306,6,0,P|236:35|140:16,1,191.999994140625,6|2,0:0|0:0,0:0:0:0:
60,228,147724,2,0,L|48:112,1,95.9999970703126,8|0,0:0|0:0,0:0:0:0:
232,200,148003,1,2,0:0:0:0:
140,344,148143,1,2,0:0:0:0:
312,344,148283,2,0,L|412:328,1,95.9999970703126,8|0,0:0|0:0,0:0:0:0:
376,132,148563,5,2,0:0:0:0:
456,240,148702,1,2,0:0:0:0:
484,84,148842,1,8,0:0:0:0:
276,104,148981,2,0,P|278:153|288:216,1,95.9999970703126,0|2,0:0|0:0,0:0:0:0:
56,256,149260,2,0,P|53:305|44:368,1,95.9999970703126,2|8,0:0|0:0,0:0:0:0:
132,112,149539,1,2,0:0:0:0:
160,284,149679,5,6,0:0:0:0:
272,156,149818,1,8,0:0:0:0:
296,268,149958,1,2,0:0:0:0:
296,268,150097,1,8,0:0:0:0:
176,184,150237,5,2,0:0:0:0:
372,132,150376,1,8,0:0:0:0:
172,88,150516,1,2,0:0:0:0:
172,88,150656,1,8,0:0:0:0:
56,248,150795,6,0,L|44:132,1,95.9999970703126,2|2,0:0|0:0,0:0:0:0:
280,40,151074,1,2,0:0:0:0:
376,124,151214,2,0,L|360:228,1,95.9999970703126,2|0,0:0|0:0,0:0:0:0:
72,156,151493,2,0,P|123:149|176:148,1,95.9999970703126,2|0,0:0|0:0,0:0:0:0:
384,352,151772,6,0,P|320:352|244:240,1,191.999994140625,6|2,0:0|0:0,0:0:0:0:
400,52,152190,2,0,P|352:41|296:36,1,95.9999970703126,8|2,0:0|0:0,0:0:0:0:
68,80,152469,5,8,0:0:0:0:
84,252,152609,1,8,0:0:0:0:
240,80,152749,1,8,0:0:0:0:
232,292,152888,6,0,P|292:304|388:200,1,191.999994140625,6|2,0:0|0:0,0:0:0:0:
66,157,153306,2,0,L|86:265,1,95.9999970703126,8|2,0:0|0:0,0:0:0:0:
232,344,153585,1,2,0:0:0:0:
232,344,153655,1,2,0:0:0:0:
232,344,153724,2,0,L|292:332,1,47.9999985351563,2|2,0:0|0:0,0:0:0:0:
288,248,153864,2,0,L|335:257,1,47.9999985351563,2|0,0:0|0:0,0:0:0:0:
392,340,154003,6,0,P|452:316|464:196,1,191.999994140625,6|2,0:0|0:0,0:0:0:0:
284,88,154422,2,0,P|312:40|360:16,1,95.9999970703126,8|2,0:0|0:0,0:0:0:0:
296,208,154701,1,8,0:0:0:0:
128,160,154841,1,8,0:0:0:0:
272,352,154980,1,8,0:0:0:0:
44,320,155120,6,0,P|4:248|48:148,1,191.999994140625,6|2,0:0|0:0,0:0:0:0:
212,100,155538,1,2,0:0:0:0:
240,96,155608,1,2,0:0:0:0:
268,92,155678,1,2,0:0:0:0:
296,88,155748,1,2,0:0:0:0:
324,84,155817,2,0,L|312:136,1,47.9999985351563,2|2,0:0|0:0,0:0:0:0:
264,192,155957,2,0,L|272:248,1,47.9999985351563,2|2,0:0|0:0,0:0:0:0:
312,312,156096,5,2,0:0:0:0:
312,312,156515,6,0,L|376:304,1,47.9999985351563,2|0,0:0|0:0,0:0:0:0:
264,317,156934,6,0,L|328:309,1,47.9999985351563,2|0,0:0|0:0,0:0:0:0:
216,322,157352,6,0,L|280:314,1,47.9999985351563,2|0,0:0|0:0,0:0:0:0:
168,327,157771,6,0,L|232:319,1,47.9999985351563,2|0,0:0|0:0,0:0:0:0:
120,332,158190,6,0,L|184:324,1,47.9999985351563,2|0,0:0|0:0,0:0:0:0:
96,264,158330,1,8,0:0:0:0:
92,244,158400,1,8,0:0:0:0:
88,224,158469,1,8,0:0:0:0:
84,204,158539,1,8,0:0:0:0:
80,184,158609,6,0,P|100:152|192:136,1,128,6|0,0:0|0:0,0:0:0:0:
292,264,159167,2,0,P|354:259|395:212,1,128,0|0,0:0|0:0,0:0:0:0:
316,16,159725,2,0,L|300:152,1,128,0|0,0:0|0:0,0:0:0:0:
96,344,160283,6,0,B|128:285|48:235|89:177|89:177|102:203,1,191.999994140625,2|0,0:0|0:0,0:0:0:0:
180,236,160702,5,2,0:0:0:0:
256,192,160772,12,2,162656,0:0:0:0:
256,192,162935,5,2,0:0:0:0:
256,192,163004,12,2,165167,0:0:0:0:
172,216,165445,5,0,0:0:0:0:
96,128,165586,2,0,L|88:196,1,64,2|0,0:0|0:0,0:0:0:0:
272,132,165864,1,0,0:0:0:0:
355,107,166003,6,0,L|344:20,1,80,2|0,0:0|0:0,0:0:0:0:
88,132,166283,2,0,L|80:212,1,80,2|0,0:0|0:0,0:0:0:0:
64,328,166562,5,0,0:0:0:0:
168,308,166701,1,2,0:0:0:0:
268,284,166841,1,0,0:0:0:0:
208,136,166980,5,0,0:0:0:0:
312,152,167120,1,2,0:0:0:0:
412,172,167259,1,0,0:0:0:0:
412,172,167399,6,0,P|468:148|372:96,1,240,2|2,0:0|0:0,0:0:0:0:
296,176,169144,1,2,0:0:0:0:
296,176,169214,6,0,B|212:208|184:136|96:160,1,200,8|0,0:0|0:0,0:0:0:0:
72,240,169632,6,0,L|112:32,1,207.999990478516,6|0,0:0|0:0,0:0:0:0:
336,68,170051,2,0,P|352:116|360:176,1,103.999995239258,6|2,0:0|0:0,0:0:0:0:
344,252,170260,1,2,0:0:0:0:
344,252,170330,6,0,P|296:272|292:220,1,120,2|0,0:0|0:0,0:0:0:0:
240,80,170888,5,6,0:0:0:0:
240,80,170958,1,4,0:0:0:0:
240,80,171028,2,0,L|224:132,1,40,4|4,0:0|0:0,0:0:0:0:
372,196,171167,5,6,0:0:0:0:
372,196,171237,1,4,0:0:0:0:
372,196,171307,2,0,P|380:228|380:248,1,40,4|4,0:0|0:0,0:0:0:0:
248,272,171446,5,6,0:0:0:0:
248,272,171516,1,4,0:0:0:0:
248,272,171586,2,0,P|240:304|240:324,1,40,6|6,0:0|0:0,0:0:0:0:
272,184,171725,6,0,L|132:164,1,120,6|0,0:0|0:0,0:0:0:0:
72,156,172004,5,8,0:0:0:0:
276,188,172144,2,0,P|288:232|292:284,1,80,2|0,0:0|0:0,0:0:0:0:
72,156,172423,2,0,P|60:200|56:252,1,80,2|0,0:0|0:0,0:0:0:0:
144,348,172702,6,0,L|200:336,1,40,8|8,0:0|0:0,0:0:0:0:
172,232,172842,2,0,L|211:240,1,40,8|8,0:0|0:0,0:0:0:0:
304,260,172981,1,8,0:0:0:0:
460,248,173957,6,0,P|448:112|384:284,1,512,8|2,0:0|0:0,0:0:0:0:
368,282,175352,5,6,0:0:0:0:
278,151,175491,1,2,0:0:0:0:
194,327,175631,1,8,0:0:0:0:
194,327,175701,1,0,0:0:0:0:
194,327,175771,2,0,L|188:264,1,51.999997619629,8|8,0:0|0:0,0:0:0:0:
182,191,175910,1,2,0:0:0:0:
282,279,176050,1,8,0:0:0:0:
110,359,176190,1,8,0:0:0:0:
182,191,176329,6,0,L|288:200,1,103.999995239258,2|2,0:0|0:0,0:0:0:0:
424,32,176608,2,0,L|308:56,1,103.999995239258,2|8,0:0|0:0,0:0:0:0:
260,108,176817,1,2,0:0:0:0:
260,108,176887,2,0,L|252:176,1,51.999997619629,2|2,0:0|0:0,0:0:0:0:
212,232,177027,2,0,P|160:217|112:200,1,103.999995239258,2|2,0:0|0:0,0:0:0:0:
192,20,177306,1,8,0:0:0:0:
220,24,177376,1,8,0:0:0:0:
248,28,177445,1,8,0:0:0:0:
276,32,177515,1,8,0:0:0:0:
304,36,177585,6,0,P|306:83|284:136,1,103.999995239258,6|2,0:0|0:0,0:0:0:0:
132,196,177864,1,8,0:0:0:0:
132,196,177934,1,0,0:0:0:0:
132,196,178003,2,0,L|140:268,1,51.999997619629,8|8,0:0|0:0,0:0:0:0:
152,332,178143,1,2,0:0:0:0:
204,144,178282,1,8,0:0:0:0:
280,264,178422,1,8,0:0:0:0:
52,288,178562,6,0,L|32:172,1,103.999995239258,2|2,0:0|0:0,0:0:0:0:
184,16,178841,2,0,P|180:84|168:136,1,103.999995239258,2|8,0:0|0:0,0:0:0:0:
160,200,179050,1,2,0:0:0:0:
160,200,179120,2,0,L|228:192,1,51.999997619629,2|2,0:0|0:0,0:0:0:0:
328,144,179259,1,2,0:0:0:0:
328,144,179329,1,2,0:0:0:0:
328,144,179399,2,0,L|264:136,1,51.999997619629,2|2,0:0|0:0,0:0:0:0:
266,253,179538,1,8,0:0:0:0:
196,104,179678,1,2,0:0:0:0:
68,192,179817,6,0,L|60:304,1,103.999995239258,6|2,0:0|0:0,0:0:0:0:
206,349,180096,1,8,0:0:0:0:
206,349,180166,1,0,0:0:0:0:
206,349,180236,2,0,P|214:317|220:284,1,51.999997619629,8|8,0:0|0:0,0:0:0:0:
228,220,180376,1,2,0:0:0:0:
208,96,180515,1,8,0:0:0:0:
366,165,180655,1,8,0:0:0:0:
384,8,180794,6,0,L|280:28,1,103.999995239258,2|2,0:0|0:0,0:0:0:0:
102,213,181073,2,0,L|204:232,1,103.999995239258,2|8,0:0|0:0,0:0:0:0:
288,252,181282,1,2,0:0:0:0:
288,252,181352,2,0,L|296:192,1,51.999997619629,2|2,0:0|0:0,0:0:0:0:
234,325,181491,1,2,0:0:0:0:
234,325,181561,1,2,0:0:0:0:
234,325,181631,2,0,P|262:341|288:348,1,51.999997619629,2|2,0:0|0:0,0:0:0:0:
366,329,181770,5,8,0:0:0:0:
374,285,181840,1,8,0:0:0:0:
382,241,181910,1,8,0:0:0:0:
390,197,181980,1,8,0:0:0:0:
398,153,182050,6,0,L|392:36,1,103.999995239258,6|2,0:0|0:0,0:0:0:0:
266,201,182329,1,8,0:0:0:0:
152,88,182469,2,0,L|144:160,2,51.999997619629,2|2|2,0:0|0:0|0:0,0:0:0:0:
128,284,182748,6,0,L|16:272,1,103.999995239258,8|2,0:0|0:0,0:0:0:0:
20,184,182957,2,0,L|76:176,1,51.999997619629,0|2,0:0|0:0,0:0:0:0:
361,157,183166,6,0,L|253:124,1,103.999995239258,8|2,0:0|0:0,0:0:0:0:
274,38,183376,2,0,L|331:41,1,51.999997619629,2|2,0:0|0:0,0:0:0:0:
440,244,183585,5,8,0:0:0:0:
264,176,183724,1,2,0:0:0:0:
264,176,183794,1,2,0:0:0:0:
264,176,183864,1,2,0:0:0:0:
400,84,184003,1,8,0:0:0:0:
348,276,184143,6,0,L|156:280,1,160,6|0,0:0|0:0,0:0:0:0:
56,220,184561,2,0,P|44:268|44:308,1,80,2|0,0:0|0:0,0:0:0:0:
232,56,184840,2,0,P|244:104|244:144,1,80,2|0,0:0|0:0,0:0:0:0:
44,220,185119,2,0,P|32:268|32:308,1,80,2|0,0:0|0:0,0:0:0:0:
160,144,185398,5,2,0:0:0:0:
252,308,185538,2,0,L|264:200,1,80,2|0,0:0|0:0,0:0:0:0:
384,64,185817,2,0,L|392:143,1,80,8|0,0:0|0:0,0:0:0:0:
108,216,186096,2,0,L|116:295,1,80,8|0,0:0|0:0,0:0:0:0:
224,108,186375,6,0,P|184:64|80:68,1,160,6|2,0:0|0:0,0:0:0:0:
112,340,186793,5,8,0:0:0:0:
76,200,186933,1,2,0:0:0:0:
256,348,187072,5,8,0:0:0:0:
256,184,187212,1,2,0:0:0:0:
396,272,187351,1,2,0:0:0:0:
396,272,187421,1,0,0:0:0:0:
396,272,187491,1,2,0:0:0:0:
224,264,187631,5,8,0:0:0:0:
352,140,187771,2,0,L|452:132,1,80,2|2,0:0|0:0,0:0:0:0:
96,52,188050,2,0,P|140:44|196:44,1,80,8|2,0:0|0:0,0:0:0:0:
144,269,188329,2,0,P|189:267|244:261,1,80,8|2,0:0|0:0,0:0:0:0:
452,184,188608,6,0,P|368:164|264:148,1,160,6|2,0:0|0:0,0:0:0:0:
88,84,189027,5,8,0:0:0:0:
284,56,189166,1,2,0:0:0:0:
96,228,189306,5,8,0:0:0:0:
292,248,189445,1,2,0:0:0:0:
80,84,189585,5,8,0:0:0:0:
276,56,189724,2,0,L|332:56,1,40,2|2,0:0|0:0,0:0:0:0:
404,72,189864,5,8,0:0:0:0:
312,248,190003,2,0,L|408:236,1,80,2|0,0:0|0:0,0:0:0:0:
96,156,190283,2,0,P|80:196|84:240,1,80,8|0,0:0|0:0,0:0:0:0:
304,84,190562,2,0,P|284:40|244:16,1,80,8|0,0:0|0:0,0:0:0:0:
272,300,190841,5,6,0:0:0:0:
388,164,191050,5,6,0:0:0:0:
448,332,191259,5,6,0:0:0:0:
284,200,191469,5,6,0:0:0:0:
106,185,191678,5,6,0:0:0:0:
183,347,191887,5,6,0:0:0:0:
284,200,192096,6,0,L|296:92,1,95.9999970703126,2|0,0:0|0:0,0:0:0:0:
270,303,192794,6,0,L|295:96,1,200,10|0,0:0|0:0,0:0:0:0:
