osu file format v14

[General]
AudioFilename: audio.mp3
AudioLeadIn: 0
PreviewTime: 58184
Countdown: 1
SampleSet: Soft
StackLeniency: 0.2
Mode: 0
LetterboxInBreaks: 0
WidescreenStoryboard: 0

[Editor]
DistanceSpacing: 0.4
BeatDivisor: 4
GridSize: 8
TimelineZoom: 4.199999

[Metadata]
Title:Tenohira de Odoru
TitleUnicode:掌で踊る
Artist:Soko ni Naru
ArtistUnicode:そこに鳴る
Creator:fartownik
Version:Bomb
Source:
Tags:
BeatmapID:1868671
BeatmapSetID:894226

[Difficulty]
HPDrainRate:6
CircleSize:4
OverallDifficulty:9
ApproachRate:9.8
SliderMultiplier:2
SliderTickRate:1

[Events]
//Background and Video events
0,0,"bg.png",0,0
//Break Periods
2,117407,120775
//Storyboard Layer 0 (Background)
//Storyboard Layer 1 (Fail)
//Storyboard Layer 2 (Pass)
//Storyboard Layer 3 (Foreground)
//Storyboard Sound Samples

[TimingPoints]
696,279.06976744186,4,2,1,55,1,0
696,-100,4,2,1,55,0,0
14021,-80,4,2,1,55,0,0
15207,-133.333333333333,4,2,1,55,0,0
15486,-80,4,2,1,55,0,0
17370,-133.333333333333,4,2,1,55,0,0
18556,-80,4,2,1,55,0,0
19602,-133.333333333333,4,2,1,55,0,0
19882,-80,4,2,1,55,0,0
21695,-66.6666666666667,4,2,1,55,0,0
22882,279.06976744186,4,2,1,55,1,0
22882,-66.6666666666667,4,2,1,55,0,0
24347,-100,4,2,1,55,0,0
24556,-66.6666666666667,4,2,1,55,0,0
25881,-100,4,2,1,55,0,0
26440,-222.222222222221,4,2,1,55,0,0
26998,-66.6666666666667,4,2,1,55,0,0
27277,-100,4,2,1,55,0,0
30591,-100,4,2,1,5,0,0
30661,-100,4,2,1,55,0,0
31184,-66.6666666666667,4,2,1,55,0,0
36486,-100,4,2,1,55,0,0
40672,-66.6666666666667,4,2,1,55,0,0
45137,-133.333333333333,4,2,1,55,0,0
49602,-80,4,2,1,55,0,0
52044,-133.333333333333,4,2,1,55,0,0
53649,-66.6666666666667,4,2,1,55,0,0
53858,-133.333333333333,4,2,1,55,0,0
54068,-66.6666666666667,4,2,1,55,0,0
57277,-100,4,2,1,55,0,0
57777,-200,4,2,1,55,0,0
58602,-66.6666666666667,4,2,1,55,0,1
61044,-100,4,2,1,55,0,1
61951,-66.6666666666667,4,2,1,55,0,1
66905,-50,4,2,1,55,0,1
67463,-66.6666666666667,4,2,1,55,0,1
70812,-50,4,2,1,55,0,1
71858,-66.6666666666667,4,2,1,55,0,1
75835,-50,4,2,1,55,0,1
76393,-66.6666666666667,4,2,1,55,0,1
79742,-50,4,2,1,55,0,1
80021,-66.6666666666667,4,2,1,55,0,1
81068,279.06976744186,4,2,1,55,1,1
81068,-66.6666666666667,4,2,1,55,0,1
83788,-133.333333333333,4,2,1,55,0,1
84347,-222.222222222222,4,2,1,55,0,1
84905,-100,4,2,1,55,0,1
85533,-66.6666666666667,4,2,1,55,0,0
85742,-133.333333333333,4,2,1,55,0,0
87416,-1000,4,2,1,55,0,0
89928,-80,4,2,1,55,0,0
94184,-133.333333333333,4,2,1,55,0,0
94393,-80,4,2,1,55,0,0
97602,-66.6666666666667,4,2,1,55,0,0
97742,-133.333333333333,4,2,1,55,0,0
98300,-25,4,2,1,55,0,0
98788,-100,4,2,1,55,0,0
102626,-66.6666666666667,4,2,1,55,0,0
103254,-100,4,2,1,55,0,0
103602,-66.6666666666667,4,2,1,55,0,0
106742,-133.333333333333,4,2,1,55,0,0
107370,-1000,4,2,1,55,0,0
108277,-66.6666666666667,4,2,1,55,0,0
108486,-57.1428571428571,4,2,1,55,0,0
108626,-50,4,2,1,55,0,0
109463,-66.6666666666667,4,2,1,55,0,0
109602,-57.1428571428571,4,2,1,55,0,0
109742,-50,4,2,1,55,0,0
110579,-66.6666666666667,4,2,1,55,0,0
110788,-57.1428571428571,4,2,1,55,0,0
110858,-50,4,2,1,55,0,0
110998,-44.4444444444445,4,2,1,55,0,0
111207,-66.6666666666667,4,2,1,55,0,0
111835,-50,4,2,1,55,0,0
112812,-133.333333333333,4,2,1,55,0,0
113300,-50,4,2,1,55,0,0
113928,-100,4,2,1,55,0,0
114416,-50,4,2,1,55,0,0
115079,-40,4,2,1,55,0,0
116021,-66.6666666666667,4,2,1,55,0,0
116300,-50,4,2,1,55,0,0
116579,-133.333333333333,4,2,1,55,0,0
121184,-100,4,2,1,55,0,0
123765,-133.333333333333,4,2,1,55,0,0
124533,-100,4,2,1,55,0,0
125300,-50,4,2,1,55,0,0
125858,-80,4,2,1,55,0,0
126486,-50,4,2,1,55,0,0
126905,-80,4,2,1,55,0,0
127602,-46.5116279069767,4,2,1,55,0,0
128091,-80,4,2,1,55,0,0
128719,-44.4444444444445,4,2,1,55,0,0
129137,-80,4,2,1,55,0,0
129835,-44.4444444444445,4,2,1,55,0,0
130114,-133.333333333333,4,2,1,55,0,0
132416,267.857142857143,4,2,1,55,1,0
133799,-66.6666666666667,4,2,1,55,0,0
134509,279.06976744186,4,2,1,55,1,0
134509,279.06976744186,4,2,1,55,1,0
134509,-57.1428571428571,4,2,1,55,0,1
137788,-50,4,2,1,55,0,1
139322,-57.1428571428571,4,2,1,55,0,1
142811,-50,4,2,1,55,0,1
143648,-57.1428571428571,4,2,1,55,0,1
146718,-50,4,2,1,55,0,1
148113,-57.1428571428571,4,2,1,55,0,1
151741,-50,4,2,1,55,0,1
152718,-57.1428571428571,4,2,1,55,0,1
156904,-133.333333333333,4,2,1,55,0,1
157043,-50,4,2,1,55,0,1
159206,-133.333333333333,4,2,1,55,0,1
159695,-222.222222222221,4,2,1,55,0,1
160253,-399.999999999997,4,2,1,55,0,1
160811,-66.6666666666667,4,2,1,55,0,1
161299,-100,4,2,1,55,0,0
167927,-1000,4,2,1,55,0,0
169602,-25,4,2,1,55,0,0
169671,-25,4,2,1,55,0,1
170160,-66.6666666666667,4,2,1,55,0,0
173229,-50,4,2,1,55,0,0
173927,-133.333333333333,4,2,1,55,0,0
174415,-25,4,2,1,55,0,0
175602,-133.333333333333,4,2,1,55,0,0
175881,-66.6666666666667,4,2,1,55,0,0
175950,-66.6666666666667,4,2,1,55,0,1
184671,-80,4,2,1,55,0,1
185927,-66.6666666666667,4,2,1,55,0,1
186346,-50,4,2,1,55,0,1
192625,-200,4,2,1,55,0,1
193322,-25,4,2,1,55,0,1
193392,-25,4,2,1,55,0,0

[HitObjects]
120,209,696,5,0,1:2:0:0:
402,193,835,1,0,1:2:0:0:
224,200,975,6,0,L|208:88,13,100
336,152,2928,6,0,P|384:160|440:136,7,100
376,280,4044,2,0,P|328:272|272:296,7,100,0|0|0|0|0|0|0|8,0:0|0:0|0:0|0:0|0:0|0:0|0:0|1:3,0:0:0:0:
216,352,5091,1,8,1:3:0:0:
216,352,5161,6,0,L|200:192,1,150,4|0,1:2|0:0,0:0:0:0:
198,181,5440,1,0,0:0:0:0:
400,88,5579,2,0,L|344:144,1,50,4|0,1:2|1:2,1:2:0:0:
400,88,5858,5,0,0:0:0:0:
233,42,5998,1,0,0:0:0:0:
104,136,6137,1,0,0:0:0:0:
248,168,6277,5,0,0:0:0:0:
328,176,6416,1,0,0:0:0:0:
336,272,6556,1,0,0:0:0:0:
224,264,6695,1,0,0:0:0:0:
416,16,6835,5,0,0:0:0:0:
424,112,6975,1,0,0:0:0:0:
433,247,7114,5,0,0:0:0:0:
440,344,7254,1,0,0:0:0:0:
288,176,7393,6,0,L|120:184,1,150,6|0,1:2|0:0,0:0:0:0:
114,184,7672,1,0,0:0:0:0:
348,46,7812,2,0,L|376:89,1,50,4|0,1:2|0:0,0:0:0:0:
348,46,8091,5,0,0:0:0:0:
348,46,8161,1,0,0:0:0:0:
348,46,8230,1,0,1:0:0:0:
256,48,8370,1,0,1:0:0:0:
168,96,8509,5,0,1:0:0:0:
192,208,8649,1,0,1:0:0:0:
264,160,8789,1,0,1:0:0:0:
112,200,8928,1,0,1:0:0:0:
216,280,9068,5,0,1:0:0:0:
376,328,9207,1,0,1:0:0:0:
432,168,9347,1,0,1:0:0:0:
288,336,9486,1,0,1:0:0:0:
376,328,9626,5,0,1:0:0:0:
384,48,9765,1,0,1:0:0:0:
304,112,9905,5,0,1:0:0:0:
304,112,9975,1,0,1:0:0:0:
304,112,10044,2,0,P|312:144|312:168,1,50,8|0,1:3|1:0,1:0:0:0:
247,275,10184,2,0,P|213:286|183:285,1,50,8|0,1:3|1:0,0:0:0:0:
114,136,10323,5,0,1:0:0:0:
114,136,10393,1,0,1:0:0:0:
124,125,10463,2,0,L|132:69,1,50,8|8,1:3|1:3,1:0:0:0:
368,140,10602,1,0,1:0:0:0:
368,140,10672,1,0,1:0:0:0:
362,156,10742,6,0,L|309:161,1,50,12|0,1:3|1:0,0:0:0:0:
124,125,10882,2,0,L|180:117,1,50,8|0,1:3|0:0,0:0:0:0:
247,275,11021,2,0,P|240:239|233:218,1,50,8|0,1:3|0:0,0:0:0:0:
174,29,11161,5,0,1:0:0:0:
174,29,11230,1,0,1:0:0:0:
188,40,11300,2,0,P|219:44|244:36,1,50,8|0,1:3|0:0,0:0:0:0:
330,2,11440,6,0,P|351:32|357:45,1,50,2|0,0:0|0:0,0:0:0:0:
399,169,11579,1,0,1:2:0:0:
242,184,11719,2,0,P|271:226|279:242,1,50,2|0,0:0|0:0,0:0:0:0:
320,344,11858,5,12,1:3:0:0:
432,104,11998,1,0,1:0:0:0:
432,104,12137,1,0,1:0:0:0:
472,352,12277,5,8,1:3:0:0:
280,96,12416,1,0,1:0:0:0:
280,96,12556,1,0,1:0:0:0:
216,344,12695,5,12,1:3:0:0:
360,32,12835,1,8,1:3:0:0:
360,32,12975,1,8,1:3:0:0:
416,272,13114,5,8,1:3:0:0:
416,272,13184,1,8,1:3:0:0:
416,272,13254,2,0,B|360:272|360:272|304:296,1,100,8|0,1:3|0:0,0:0:0:0:
216,344,13533,5,2,0:0:0:0:
184,240,13812,5,8,3:0:0:0:
248,40,14091,5,6,1:2:0:0:
216,344,14230,1,0,1:0:0:0:
184,240,14370,6,0,P|176:200|176:168,1,62.5,10|0,1:0|0:0,0:0:0:0:
336,104,14509,1,2,1:0:0:0:
334,112,14579,1,0,1:0:0:0:
332,121,14649,6,8,P|362:125|399:115,1,62.5,10|8,1:3|1:3,1:3:0:0:
474,247,14789,1,8,1:3:0:0:
426,238,14858,1,8,1:3:0:0:
376,253,14928,2,0,L|383:285,1,31.25,2|0,1:0|0:0,0:0:0:0:
352,278,14998,1,8,1:3:0:0:
308,291,15068,1,8,1:3:0:0:
271,272,15137,1,8,1:3:0:0:
266,253,15207,2,0,L|272:201,1,37.5000014305115,8|8,1:3|1:3,0:0:0:0:
158,138,15347,1,8,1:3:0:0:
149,140,15416,1,8,1:3:0:0:
137,143,15486,6,0,P|128:108|131:77,1,62.5,10|0,1:3|0:0,0:0:0:0:
315,28,15626,1,2,1:0:0:0:
338,80,15695,1,0,1:0:0:0:
298,119,15765,2,0,P|223:133|122:72,1,187.5,2|0,1:0|1:0,0:0:0:0:
440,24,16044,5,8,1:0:0:0:
428,109,16114,5,8,1:0:0:0:
415,197,16184,5,8,1:0:0:0:
395,285,16254,5,8,1:0:0:0:
376,376,16323,5,2,1:0:0:0:
104,344,16463,1,0,1:0:0:0:
184,192,16602,6,0,P|184:240|192:264,1,62.5,10|0,1:0|0:0,0:0:0:0:
304,320,16742,1,2,1:0:0:0:
313,318,16812,1,0,1:0:0:0:
322,317,16882,6,8,P|362:314|396:318,1,62.5,10|8,1:3|1:3,1:3:0:0:
447,149,17021,1,10,1:3:0:0:
405,124,17091,1,8,1:3:0:0:
359,127,17161,2,0,L|369:160,1,31.25,2|0,1:0|0:0,0:0:0:0:
335,144,17230,1,8,1:3:0:0:
299,153,17300,1,8,1:3:0:0:
272,139,17370,1,8,1:3:0:0:
260,121,17440,6,8,L|268:83,1,37.5000014305115,8|8,1:3|1:3,1:3:0:0:
88,44,17579,1,8,1:3:0:0:
90,53,17649,1,8,1:3:0:0:
94,62,17719,5,10,1:3:0:0:
143,58,17789,1,2,1:0:0:0:
176,103,17858,1,2,1:0:0:0:
148,153,17928,1,2,1:0:0:0:
90,140,17998,6,0,L|97:184,1,37.5000014305115,0|0,1:0|1:0,0:0:0:0:
145,276,18137,2,0,L|151:316,1,37.5000014305115,0|0,1:0|1:0,0:0:0:0:
111,152,18277,5,10,1:2:0:0:
238,134,18416,2,0,P|276:131|286:132,1,37.5000014305115,2|0,0:0|0:0,0:0:0:0:
378,303,18556,5,4,1:2:0:0:
422,41,18695,1,4,1:2:0:0:
458,214,18835,6,0,P|398:215|372:220,1,62.5,8|0,1:3|0:0,0:0:0:0:
243,312,18975,1,0,1:0:0:0:
245,304,19044,1,0,1:0:0:0:
247,297,19114,2,0,P|245:266|237:230,1,62.5,8|0,3:0|1:0,1:0:0:0:
87,87,19254,5,8,1:3:0:0:
124,63,19323,1,8,1:3:0:0:
167,71,19393,2,0,L|200:57,1,31.25,2|0,1:0|0:0,0:0:0:0:
191,97,19463,1,8,1:3:0:0:
189,128,19533,1,8,1:3:0:0:
174,143,19602,1,8,1:3:0:0:
168,159,19672,6,8,L|174:202,1,37.5000014305115,8|8,1:3|1:3,1:3:0:0:
342,271,19812,1,0,1:3:0:0:
339,281,19882,1,0,1:3:0:0:
337,289,19951,6,0,P|293:300|273:310,1,62.5,10|0,1:3|1:3,1:3:0:0:
79,279,20091,1,0,1:0:0:0:
38,234,20161,1,0,1:0:0:0:
73,187,20230,2,0,P|142:161|264:178,1,187.5,2|0,1:0|1:0,1:0:0:0:
376,56,20509,5,8,1:3:0:0:
296,64,20579,5,8,1:3:0:0:
216,72,20649,5,8,1:3:0:0:
136,80,20719,5,8,1:3:0:0:
56,88,20789,5,6,1:2:0:0:
314,164,20928,6,0,P|267:169|249:174,1,62.5,2|0,1:0|0:0,0:0:0:0:
128,277,21068,1,8,1:3:0:0:
388,210,21207,6,0,B|395:174|395:174|395:147,1,62.5,10|8,1:3|1:3,0:0:0:0:
360,57,21347,1,8,1:3:0:0:
240,24,21486,1,8,1:3:0:0:
108,73,21626,1,8,1:3:0:0:
55,236,21765,6,0,P|63:314|66:325,1,75.0000028610231,4|0,1:2|0:0,0:0:0:0:
446,206,22044,6,0,P|438:284|435:295,1,75.0000028610231,4|0,1:2|0:0,0:0:0:0:
79,149,22323,6,0,P|87:227|90:238,1,75.0000028610231,4|0,1:2|0:0,0:0:0:0:
422,109,22602,6,0,P|414:187|411:198,1,75.0000028610231,4|0,1:2|0:0,0:0:0:0:
337,23,22882,6,0,B|279:40|234:11|234:11|160:39|173:126,1,225.000008583069,4|0,1:2|0:0,0:0:0:0:
239,155,23161,2,0,P|247:206|244:231,1,75.0000028610231,2|0,1:0|0:0,0:0:0:0:
198,311,23300,5,12,1:2:0:0:
53,339,23440,1,2,1:0:0:0:
330,211,23579,1,8,1:0:0:0:
144,96,23719,5,2,1:0:0:0:
416,288,23858,1,8,1:3:0:0:
412,254,23928,1,8,1:3:0:0:
421,233,23998,1,8,1:3:0:0:
413,187,24068,1,8,1:3:0:0:
426,107,24137,6,0,P|375:110|344:117,1,75.0000028610231,4|0,1:2|0:0,0:0:0:0:
118,271,24277,1,0,1:0:0:0:
227,259,24416,6,0,P|220:217|214:201,1,50,2|0,1:2|0:0,0:0:0:0:
64,104,24556,6,0,P|102:111|156:111,1,75.0000028610231,4|0,1:2|0:0,0:0:0:0:
79,117,24835,2,0,P|117:124|171:124,1,75.0000028610231,4|0,1:2|0:0,0:0:0:0:
99,131,25114,6,0,P|137:138|272:25,1,225.000008583069,4|0,1:2|0:0,0:0:0:0:
358,28,25393,1,8,1:3:0:0:
356,38,25463,1,8,1:3:0:0:
352,58,25533,5,8,1:3:0:0:
357,82,25602,1,8,1:3:0:0:
377,108,25672,1,8,1:3:0:0:
397,144,25742,1,8,1:3:0:0:
406,195,25812,1,8,1:3:0:0:
390,256,25881,1,8,1:3:0:0:
329,315,25951,5,8,1:3:0:0:
329,315,26021,1,8,1:3:0:0:
324,318,26091,2,8,P|316:282|318:262,1,50
186,110,26230,5,8,1:3:0:0:
192,107,26300,2,8,P|200:143|198:163,1,50,8|2,1:3|1:2,1:3:0:0:
130,300,26649,6,0,P|153:294|160:295,1,22.4999993133545,2|0,0:0|0:0,0:0:0:0:
278,329,27068,6,0,P|270:275|265:245,1,75.0000028610231,4|0,1:2|0:0,0:0:0:0:
365,55,27347,5,4,0:0:0:0:
424,143,27486,5,2,0:0:0:0:
315,157,27626,1,2,0:0:0:0:
422,150,27765,1,2,0:0:0:0:
317,163,27905,1,2,0:0:0:0:
376,239,28184,5,2,0:0:0:0:
311,329,28323,1,2,0:0:0:0:
429,337,28463,1,2,0:0:0:0:
317,335,28602,6,0,P|303:257|306:121,1,200,2|2,0:0|0:0,0:0:0:0:
111,35,29021,2,0,P|113:99|93:236,1,200,2|0,0:0|0:0,0:0:0:0:
340,50,29440,2,0,P|278:54|236:61,1,100,2|0,0:0|0:0,0:0:0:0:
57,312,29719,5,2,0:0:0:0:
57,312,29858,1,2,0:0:0:0:
153,281,30137,2,2,P|155:239|156:218,1,50
237,324,30416,1,0,0:0:0:0:
240,319,30486,1,0,0:0:0:0:
244,315,30556,2,0,P|248:337|248:366,1,50
248,364,31393,6,0,P|280:256|488:-24,1,450.000017166138,4|4,0:0|1:2,0:0:0:0:
508,112,32091,1,0,1:2:0:0:
273,89,32230,5,8,1:2:0:0:
255,175,32370,1,0,1:2:0:0:
381,89,32509,1,8,1:2:0:0:
398,189,32649,1,0,1:2:0:0:
274,64,32788,1,8,1:2:0:0:
234,191,32928,1,0,1:2:0:0:
384,58,33068,1,8,1:2:0:0:
413,208,33207,1,0,1:2:0:0:
264,39,33347,1,8,1:2:0:0:
207,215,33486,1,0,1:2:0:0:
303,307,33626,5,8,1:2:0:0:
99,300,33765,1,0,1:0:0:0:
105,302,33835,1,0,1:0:0:0:
112,304,33905,1,8,1:2:0:0:
148,123,34044,1,0,1:0:0:0:
141,126,34114,1,0,1:0:0:0:
134,128,34184,6,0,P|192:150|286:144,1,150.000005722046,12|0,1:2|1:0,0:0:0:0:
458,103,34463,2,0,P|400:62|326:36,1,150.000005722046,8|0,1:2|1:0,0:0:0:0:
138,329,34742,2,0,P|192:285|230:216,1,150.000005722046,8|0,1:2|1:0,0:0:0:0:
228,9,35021,2,0,P|243:89|284:152,1,150.000005722046,8|0,1:2|1:0,0:0:0:0:
400,301,35300,5,8,1:3:0:0:
398,293,35370,1,8,1:3:0:0:
396,285,35440,1,8,1:3:0:0:
394,277,35509,1,8,1:3:0:0:
392,269,35579,1,8,1:3:0:0:
390,261,35649,1,8,1:3:0:0:
388,253,35719,1,8,1:3:0:0:
386,245,35788,1,8,1:3:0:0:
384,237,35858,1,8,1:3:0:0:
396,163,35998,6,0,L|380:259,1,75.0000028610231,12|0,1:2|0:0,0:0:0:0:
396,163,36277,6,0,P|304:160|176:216,1,225.000008583069,12|0,1:2|0:0,0:0:0:0:
168,232,36556,6,0,P|176:288|176:296,1,50,8|0,1:3|0:0,0:0:0:0:
51,344,36695,1,8,0:3:0:0:
35,303,36765,1,8,0:3:0:0:
28,268,36835,1,8,0:3:0:0:
32,244,36905,1,8,0:3:0:0:
45,220,36975,1,8,0:3:0:0:
46,196,37044,1,8,0:3:0:0:
39,179,37114,1,8,0:3:0:0:
32,171,37184,1,8,0:3:0:0:
20,147,37254,1,8,0:3:0:0:
40,150,37323,1,8,0:3:0:0:
69,147,37393,1,8,0:3:0:0:
99,127,37463,1,8,0:3:0:0:
114,89,37533,2,8,P|118:62|118:36,3,50,8|8|8|8,0:3|0:3|0:3|0:3,0:3:0:0:
204,25,37812,5,8,0:3:0:0:
233,19,37881,1,8,0:3:0:0:
270,22,37951,1,8,0:3:0:0:
309,46,38021,1,8,0:3:0:0:
330,99,38091,1,8,0:3:0:0:
330,127,38161,1,8,0:3:0:0:
337,146,38230,1,8,0:3:0:0:
366,172,38300,1,8,0:3:0:0:
410,182,38370,1,8,0:3:0:0:
447,160,38440,1,8,0:3:0:0:
466,115,38509,1,8,0:3:0:0:
462,89,38579,1,8,3:0:0:0:
457,102,38649,5,12,1:2:0:0:
482,280,38788,2,0,P|447:285|424:291,1,50,2|2,0:0|0:0,0:0:0:0:
308,287,38928,1,2,0:0:0:0:
301,286,38998,1,2,0:0:0:0:
295,285,39068,1,2,0:0:0:0:
289,285,39137,1,2,0:0:0:0:
282,284,39207,2,0,P|231:289|177:290,1,100,2|2,0:0|0:0,0:0:0:0:
65,273,39486,1,2,0:0:0:0:
130,171,39626,6,2,P|176:173|187:172,1,50,2|2,1:2|0:0,0:0:0:0:
301,154,39765,1,2,0:0:0:0:
311,152,39835,1,2,0:0:0:0:
321,150,39905,1,2,0:0:0:0:
329,150,39975,1,2,0:0:0:0:
338,148,40044,2,0,P|372:144|440:133,1,100,2|2,0:0|1:2,0:0:0:0:
394,19,40323,5,10,1:2:0:0:
299,10,40463,1,0,1:0:0:0:
123,124,40602,1,8,1:2:0:0:
83,209,40742,6,0,P|110:270|250:369,1,225.000008583069,4|0,1:2|0:0,0:0:0:0:
256,352,41021,1,0,1:0:0:0:
342,184,41161,2,0,P|262:205|194:241,1,150.000005722046,8|0,1:0|1:0,0:0:0:0:
119,62,41440,5,8,1:0:0:0:
255,75,41579,1,0,1:0:0:0:
348,46,41719,1,8,1:0:0:0:
475,66,41858,1,0,1:0:0:0:
110,78,41998,5,8,1:0:0:0:
255,75,42137,1,0,1:0:0:0:
341,70,42277,1,8,1:0:0:0:
475,66,42416,1,0,1:0:0:0:
108,106,42556,5,8,1:0:0:0:
255,75,42695,1,0,1:0:0:0:
252,82,42765,1,0,1:0:0:0:
250,91,42835,1,8,1:0:0:0:
475,66,42975,1,0,1:0:0:0:
472,59,43044,1,0,1:0:0:0:
383,25,43114,6,0,P|364:85|377:178,1,150.000005722046,8|0,1:0|1:0,0:0:0:0:
432,328,43393,2,0,P|473:270|499:196,1,150.000005722046,8|0,1:0|1:0,0:0:0:0:
192,33,43672,2,0,P|236:87|305:125,1,150.000005722046,8|0,1:0|1:0,0:0:0:0:
512,120,43951,2,0,P|432:135|369:176,1,150.000005722046,8|0,1:0|1:0,0:0:0:0:
145,286,44230,5,8,1:3:0:0:
155,302,44300,1,8,1:3:0:0:
172,308,44370,1,8,1:3:0:0:
191,301,44440,1,8,1:3:0:0:
198,286,44509,1,8,1:3:0:0:
195,267,44579,1,8,1:3:0:0:
183,252,44649,1,8,1:3:0:0:
165,252,44719,1,8,1:3:0:0:
149,259,44788,6,8,P|95:268|69:265,1,75.0000028610231,12|0,1:2|0:0,1:3:0:0:
245,143,44928,2,8,P|299:134|325:137,1,75.0000028610231,12|0,1:2|0:0,1:3:0:0:
245,143,45207,6,0,P|256:201|372:79,1,375.000014305115,4|2,0:0|0:0,0:0:0:0:
96,173,46184,1,0,0:0:0:0:
213,213,46463,6,0,P|185:285|112:163,1,300.000011444092,0|2,0:0|0:0,0:0:0:0:
245,22,47300,2,0,P|247:65|239:103,1,75.0000028610231
243,256,47579,6,0,B|285:242|312:262|317:262|325:260|353:280|413:261,1,150.000005722046,2|0,0:0|0:0,0:0:0:0:
229,238,47998,2,0,B|271:224|298:244|303:244|311:242|339:262|399:243,1,150.000005722046,2|2,0:0|0:0,0:0:0:0:
456,175,48416,2,0,P|451:126|411:67,1,112.500004291535,2|0,0:0|0:0,0:0:0:0:
399,68,48695,6,0,P|348:77|314:79,1,75.0000028610231,2|0,0:0|0:0,0:0:0:0:
203,39,48975,2,0,P|160:34|124:37,1,75.0000028610231,2|0,0:0|0:0,0:0:0:0:
60,174,49254,2,0,P|74:219|130:261,1,112.500004291535,2|0,0:0|0:0,0:0:0:0:
143,253,49533,2,0,P|133:220|128:202,1,37.5000014305115,2|0,0:0|0:0,0:0:0:0:
285,103,49672,6,0,B|266:139|266:139|59:174,1,250,6|0,1:2|1:0,0:0:0:0:
379,101,50091,2,0,L|325:216,1,125,8|0,1:0|1:0,0:0:0:0:
134,28,50370,1,0,1:0:0:0:
160,119,50509,1,0,1:0:0:0:
213,278,50649,1,8,1:0:0:0:
241,361,50788,6,0,B|339:355|380:330|444:224,1,250,4|0,1:2|1:0,0:0:0:0:
191,201,51207,2,0,P|247:238|314:245,1,125,8|0,1:0|1:0,0:0:0:0:
414,59,51486,1,0,1:0:0:0:
301,74,51626,1,0,1:0:0:0:
126,44,51765,5,8,1:3:0:0:
126,44,51835,1,8,1:3:0:0:
126,44,51905,1,8,1:3:0:0:
82,121,51975,1,0,1:0:0:0:
82,121,52044,6,0,P|97:194|123:268,1,150.000005722046,6|2,0:0|0:0,0:0:0:0:
206,301,52602,1,2,0:0:0:0:
256,167,52742,2,0,P|262:130|266:91,1,75.0000028610231,2|0,0:0|0:0,0:0:0:0:
250,12,53021,5,2,0:0:0:0:
340,83,53161,2,0,P|293:91|261:92,1,75.0000028610231,2|2,0:0|0:0,0:0:0:0:
184,88,53579,1,2,0:0:0:0:
422,38,53719,6,0,B|429:85|429:85|421:126,1,75.0000028610231,4|0,1:2|0:0,0:0:0:0:
353,162,53858,6,0,P|329:186|382:182,1,112.500004291535,6|0,1:2|0:0,0:0:0:0:
380,199,54137,6,0,L|142:217,1,225.000008583069,6|0,1:2|0:0,0:0:0:0:
137,233,54416,1,0,1:0:0:0:
96,49,54556,2,0,P|89:99|90:127,1,75.0000028610231,12|0,1:2|1:0,1:0:0:0:
137,233,54695,1,0,1:0:0:0:
293,35,54835,2,0,P|233:56|212:70,1,75.0000028610231,12|0,1:2|1:0,1:0:0:0:
137,233,54975,1,0,1:0:0:0:
436,146,55114,2,0,P|385:134|356:136,1,75.0000028610231,12|0,1:2|1:0,1:0:0:0:
137,233,55254,1,8,1:3:0:0:
132,241,55323,1,8,1:3:0:0:
128,247,55393,6,0,P|118:212|123:164,1,75.0000028610231,12|0,1:2|0:0,0:0:0:0:
355,61,55533,2,0,P|365:96|360:144,1,75.0000028610231,12|0,1:2|0:0,0:0:0:0:
353,226,55672,1,0,1:2:0:0:
302,303,55812,6,0,P|236:317|220:317,1,75.0000028610231,12|0,1:2|0:0,0:0:0:0:
291,316,56091,2,0,P|225:330|209:330,1,75.0000028610231,12|0,1:2|0:0,0:0:0:0:
277,330,56370,6,0,P|200:335|27:97,1,375.000014305115,12|0,1:2|0:0,0:0:0:0:
166,44,56788,5,2,0:0:0:0:
161,68,56858,1,2,0:0:0:0:
141,94,56928,1,2,0:0:0:0:
121,130,56998,1,2,0:0:0:0:
112,181,57068,1,2,0:0:0:0:
128,242,57137,1,2,0:0:0:0:
189,301,57207,5,2,0:0:0:0:
189,301,57277,1,2,0:0:0:0:
194,304,57347,2,2,P|202:268|200:248,1,50,2|2,0:0|0:0,0:0:0:0:
332,96,57486,5,2,0:0:0:0:
326,93,57556,2,2,P|318:129|320:149,1,50,2|6,0:0|0:0,0:0:0:0:
433,289,57905,6,0,P|411:291|400:294,1,25,2|0,0:0|0:0,0:0:0:0:
433,289,58184,6,0,B|440:252|440:252|434:231|434:231|448:156,1,125,2|0,0:0|0:0,0:0:0:0:
398,83,58602,6,0,B|333:99|333:99|324:95|324:95|262:107|197:75|197:75|144:65|101:95,1,300.000011444092,4|0,1:0|1:0,0:0:0:0:
96,284,59021,2,0,B|78:255|78:255|196:263,1,150.000005722046,8|8,1:0|1:3,0:0:0:0:
277,271,59230,1,8,1:3:0:0:
290,272,59300,2,0,L|371:278,1,75.0000028610231,8|0,1:3|1:0,0:0:0:0:
462,300,59440,1,8,1:3:0:0:
471,264,59509,1,8,1:3:0:0:
464,237,59579,1,8,1:3:0:0:
465,216,59649,1,0,0:0:0:0:
467,203,59719,6,0,B|381:202|339:178|339:178|301:177|253:194|253:194|226:173|161:168,1,300.000011444092,4|0,1:2|1:0,0:0:0:0:
100,315,60137,2,0,B|80:286|80:286|198:274,1,150.000005722046,8|0,1:2|1:0,0:0:0:0:
280,319,60347,1,0,1:0:0:0:
282,304,60416,2,0,L|293:227,1,75.0000028610231,0|0,1:0|1:0,1:0:0:0:
435,181,60556,1,8,1:3:0:0:
442,217,60626,1,8,1:3:0:0:
442,247,60695,1,8,1:3:0:0:
436,262,60765,1,8,1:3:0:0:
435,277,60835,6,0,B|365:281|326:255|326:255|256:248|200:272|200:272|152:304|152:304,1,300.000011444092,4|0,1:2|1:3,0:0:0:0:
51,169,61254,1,8,1:3:0:0:
62,166,61323,1,8,1:3:0:0:
75,163,61393,1,8,1:3:0:0:
87,160,61463,1,8,1:3:0:0:
98,157,61533,5,8,1:3:0:0:
122,211,61602,5,8,1:0:0:0:
178,257,61672,5,8,1:0:0:0:
254,272,61742,5,8,1:0:0:0:
348,253,61812,5,8,1:0:0:0:
426,162,61881,5,8,1:0:0:0:
448,40,61951,6,0,P|380:52|364:60,1,75.0000028610231,12|0,1:2|0:0,0:0:0:0:
286,211,62230,2,0,P|342:250|359:256,1,75.0000028610231,12|0,1:2|0:0,0:0:0:0:
312,8,62509,2,0,P|283:71|281:88,1,75.0000028610231,12|0,1:2|0:0,0:0:0:0:
336,328,62788,2,0,P|404:316|420:307,1,75.0000028610231,12|0,1:2|0:0,0:0:0:0:
144,96,63068,6,0,B|200:160|272:152|272:152|232:144|200:96,1,225.000008583069,6|0,1:2|0:0,0:0:0:0:
192,32,63347,1,0,1:0:0:0:
342,124,63486,2,0,P|334:196|258:227,1,150.000005722046,8|2,1:0|0:0,0:0:0:0:
96,200,63765,1,0,1:0:0:0:
248,304,63905,6,0,P|216:304|168:320,1,75.0000028610231,2|0,0:0|0:0,0:0:0:0:
48,360,64044,1,8,1:0:0:0:
270,228,64184,1,2,0:0:0:0:
205,109,64323,5,0,1:0:0:0:
394,30,64463,1,2,1:2:0:0:
394,38,64533,1,0,1:0:0:0:
394,44,64602,2,0,P|352:49|316:33,1,75.0000028610231,8|0,1:0|0:0,0:0:0:0:
187,25,64742,6,0,P|156:46|129:81,1,75.0000028610231,2|0,1:2|0:0,0:0:0:0:
67,237,64881,1,0,1:0:0:0:
263,174,65021,2,0,P|298:228|310:240,1,75.0000028610231,2|0,0:0|0:0,0:0:0:0:
460,327,65161,1,8,1:0:0:0:
449,126,65300,5,2,1:2:0:0:
448,119,65370,1,0,1:0:0:0:
447,112,65440,1,6,1:2:0:0:
184,80,65579,1,8,1:0:0:0:
384,32,65719,2,0,P|376:88|368:104,1,75.0000028610231,2|0,0:0|0:0,0:0:0:0:
232,168,65858,1,8,1:0:0:0:
480,24,65998,1,2,1:2:0:0:
128,160,66137,1,8,1:0:0:0:
383,204,66277,1,2,1:2:0:0:
385,197,66347,1,0,1:2:0:0:
386,190,66416,2,0,P|342:199|311:214,1,75.0000028610231,8|0,1:0|0:0,0:0:0:0:
189,328,66556,6,0,B|166:346|166:346|182:219,1,150.000005722046,6|8,1:2|1:3,0:0:0:0:
133,67,66765,1,0,1:0:0:0:
97,65,66835,2,0,P|57:82|32:110,1,75.0000028610231,8|0,1:3|0:0,0:0:0:0:
314,211,66975,6,0,P|371:236|413:237,1,100,4|0,1:2|0:0,0:0:0:0:
297,199,67254,2,0,P|354:176|385:147,1,100,4|0,1:2|0:0,0:0:0:0:
276,180,67533,6,0,B|296:144|298:108|298:108|329:53|330:-12|330:-12|369:97,1,300.000011444092,4|0,1:2|1:0,0:0:0:0:
350,270,67951,2,0,P|319:262|210:312,1,150.000005722046,8|0,1:0|1:0,0:0:0:0:
106,326,68161,1,0,1:0:0:0:
108,304,68230,2,0,L|116:218,1,75.0000028610231,0|0,1:0|1:0,0:0:0:0:
88,124,68370,1,8,1:3:0:0:
124,132,68440,1,8,1:3:0:0:
153,129,68509,1,8,1:3:0:0:
170,134,68579,1,8,1:3:0:0:
186,129,68649,6,0,B|223:117|250:127|250:127|288:141|328:128|328:128|362:147|430:132|430:132|404:158|394:187,1,300.000011444092,4|0,1:2|1:0,0:0:0:0:
278,326,69068,2,0,P|254:263|172:225,1,150.000005722046,8|0,1:0|1:0,0:0:0:0:
81,211,69277,1,0,1:0:0:0:
91,192,69347,2,0,L|126:118,1,75.0000028610231,0|0,1:0|1:0,1:0:0:0:
177,30,69486,1,8,1:3:0:0:
223,44,69556,1,8,1:3:0:0:
248,69,69626,1,8,1:3:0:0:
256,90,69695,1,8,1:3:0:0:
255,106,69765,6,0,B|245:158|250:197|250:197|235:302|229:262|229:262|213:219,1,225.000008583069,4|0,1:2|0:0,0:0:0:0:
136,213,70044,2,0,P|105:214|58:236,1,75.0000028610231,8|8,1:3|1:3,0:0:0:0:
368,324,70184,1,0,1:3:0:0:
365,310,70254,1,8,1:3:0:0:
362,297,70323,1,8,1:3:0:0:
360,285,70393,1,8,1:3:0:0:
358,274,70463,5,8,1:3:0:0:
366,220,70533,5,8,1:0:0:0:
334,152,70602,5,8,1:0:0:0:
247,96,70672,5,8,1:0:0:0:
124,103,70742,5,8,1:0:0:0:
49,216,70812,5,8,1:0:0:0:
87,358,70881,6,0,P|140:327|176:295,1,100,8|0,1:0|0:0,0:0:0:0:
265,0,71161,2,0,P|249:59|246:107,1,100,8|0,1:0|0:0,0:0:0:0:
169,301,71440,2,0,P|138:248|106:212,1,100,8|0,1:0|0:0,0:0:0:0:
246,97,71719,2,0,P|305:112|353:115,1,100,8|0,1:0|0:0,0:0:0:0:
112,218,71998,6,0,B|86:222|70:183|70:183|141:141|164:152|229:174,1,225.000008583069,4|0,1:2|0:0,0:0:0:0:
287,227,72277,1,0,1:0:0:0:
443,71,72416,1,8,1:0:0:0:
370,40,72556,6,0,P|376:115|385:128,1,75.0000028610231,2|0,0:0|0:0,0:0:0:0:
441,221,72695,1,0,1:0:0:0:
165,136,72835,2,0,P|214:171|231:174,1,75.0000028610231,2|0,0:0|0:0,0:0:0:0:
441,221,72975,1,8,1:0:0:0:
117,338,73114,2,0,P|176:328|190:318,1,75.0000028610231,2|0,0:0|0:0,0:0:0:0:
441,221,73254,5,0,1:2:0:0:
275,74,73393,1,2,0:0:0:0:
315,274,73533,1,10,1:2:0:0:
315,265,73602,1,0,0:0:0:0:
316,257,73672,2,0,P|271:262|179:332,1,150.000005722046,2|0,1:2|1:0,0:0:0:0:
99,81,73951,6,0,P|112:145|109:163,1,75.0000028610231,2|0,1:2|0:0,0:0:0:0:
70,262,74091,2,0,B|87:278|87:278|112:144,1,150.000005722046,8|0,1:2|1:2,1:2:0:0:
370,54,74370,5,6,1:3:0:0:
395,290,74509,1,8,1:3:0:0:
137,311,74649,1,8,1:0:0:0:
134,302,74719,1,8,1:3:0:0:
130,292,74788,2,8,P|178:293|214:304,1,75.0000028610231,8|8,1:3|1:3,1:3:0:0:
78,214,74928,5,0,0:3:0:0:
234,48,75068,1,8,1:3:0:0:
408,192,75207,1,8,1:0:0:0:
406,201,75277,1,8,1:3:0:0:
404,208,75347,2,8,P|390:150|392:123,1,75.0000028610231,8|8,1:3|1:3,1:3:0:0:
452,46,75486,5,8,1:3:0:0:
422,294,75626,1,8,1:3:0:0:
321,305,75765,6,0,P|267:312|243:317,1,75.0000028610231,8|0,1:0|0:0,0:0:0:0:
79,130,75905,6,0,P|90:59|98:29,1,100,6|0,1:2|0:0,0:0:0:0:
90,150,76184,2,0,P|117:123|175:85,1,100,6|0,1:2|0:0,0:0:0:0:
94,176,76463,6,0,B|140:200|184:189|184:189|247:218|249:300,1,225.000008583069,4|0,1:2|0:0,0:0:0:0:
221,369,76742,1,0,1:0:0:0:
452,100,76881,2,0,B|421:92|421:92|432:223,1,150.000005722046,8|0,1:0|1:0,0:0:0:0:
322,30,77161,5,8,1:0:0:0:
322,30,77300,2,0,P|288:59|243:65,1,75.0000028610231,8|0,1:0|0:0,0:0:0:0:
167,25,77440,1,0,1:0:0:0:
151,269,77579,6,0,B|164:301|224:315|267:301|287:244|287:244|274:222|225:202,1,225.000008583069,4|0,1:0|0:0,0:0:0:0:
174,191,77858,1,0,1:0:0:0:
228,23,77998,2,0,B|299:27|299:27|310:20|310:20|389:28,1,150.000005722046,8|0,1:0|1:0,0:0:0:0:
84,134,78277,5,8,1:3:0:0:
97,183,78347,1,8,1:3:0:0:
89,216,78416,1,8,1:3:0:0:
98,240,78486,1,8,1:3:0:0:
93,263,78556,1,8,1:3:0:0:
98,275,78626,1,8,1:3:0:0:
98,286,78695,6,0,P|30:232|56:94,1,225.000008583069,4|0,1:2|0:0,0:0:0:0:
116,45,78975,1,0,1:0:0:0:
343,194,79114,2,0,P|299:190|262:203,1,75.0000028610231,8|0,1:0|0:0,0:0:0:0:
188,262,79254,1,8,1:0:0:0:
456,263,79393,5,0,1:0:0:0:
428,123,79533,1,8,1:0:0:0:
299,42,79672,1,8,1:0:0:0:
93,130,79812,6,0,B|57:143|33:203|33:203|99:243|148:251|214:183,1,300.000011444092,4|0,1:2|0:0,0:0:0:0:
258,118,80091,6,0,P|289:160|290:207,1,75.0000028610231,8|0,1:0|0:0,0:0:0:0:
443,312,80230,1,8,3:0:0:0:
403,295,80300,1,8,3:0:0:0:
370,296,80370,1,8,3:0:0:0:
345,312,80440,1,8,3:0:0:0:
321,318,80509,5,8,3:0:0:0:
301,310,80579,1,8,3:0:0:0:
283,278,80649,1,8,3:0:0:0:
294,229,80719,1,8,3:0:0:0:
355,198,80788,6,0,B|372:171|372:171|229:172,1,150.000005722046,12|0,1:0|0:0,0:0:0:0:
87,144,81068,6,0,L|123:251,1,100.000003814697,4|0,1:2|0:0,0:0:0:0:
298,362,81254,2,0,L|372:277,1,100.000003814697,8|0,1:3|0:0,0:0:0:0:
382,68,81440,2,0,L|271:45,1,100.000003814697,8|0,1:3|0:0,0:0:0:0:
82,219,81626,6,0,L|160:301,1,100.000003814697,4|0,1:2|0:0,0:0:0:0:
365,328,81812,2,0,L|397:220,1,100.000003814697,8|0,1:3|0:0,0:0:0:0:
317,26,81998,2,0,L|208:52,1,100.000003814697,8|0,1:3|0:0,0:0:0:0:
110,290,82184,6,0,L|215:331,1,100.000003814697,4|0,1:2|0:0,0:0:0:0:
413,269,82370,2,0,L|396:157,1,100.000003814697,8|0,1:3|0:0,0:0:0:0:
242,15,82556,2,0,L|153:86,1,100.000003814697,8|0,1:3|0:0,0:0:0:0:
146,374,82742,6,0,L|283:366,1,100.000003814697,4|0,1:2|0:0,0:0:0:0:
468,196,82928,2,0,L|392:82,1,100.000003814697,8|0,1:3|0:0,0:0:0:0:
150,5,83114,2,0,L|89:128,1,100.000003814697,8|0,1:3|0:0,0:0:0:0:
207,161,83300,6,0,B|223:129|167:41|47:121|63:225|135:273|135:273|311:257,1,450.000017166138,4|0,1:0|0:0,0:0:0:0:
352,356,83858,6,0,B|372:291|324:207|324:207|303:241|275:262,1,225.000008583069,2|0,0:0|0:0,0:0:0:0:
384,104,84416,6,0,P|389:147|453:216,1,134.999995880127,2|0,0:0|0:0,0:0:0:0:
452,297,84974,6,0,L|88:312,1,350,2|0,0:0|0:0,0:0:0:0:
52,249,85533,6,0,P|97:235|137:239,1,75.0000028610231,4|0,1:2|0:0,0:0:0:0:
124,236,85812,6,0,L|106:74,1,150.000005722046,2|0,0:0|0:0,0:0:0:0:
215,23,86230,2,0,L|197:180,1,150.000005722046,2|0,0:0|0:0,0:0:0:0:
343,238,86649,2,0,L|284:92,1,150.000005722046,2|0,0:0|0:0,0:0:0:0:
508,50,87067,2,0,L|397:154,1,150.000005722046,2|0,0:0|0:0,0:0:0:0:
432,325,87486,1,2,0:0:0:0:
432,325,87626,6,0,P|397:300|431:331,1,150,0|8,0:0|0:3,0:0:0:0:
429,334,89998,5,4,1:2:0:0:
336,48,90137,1,0,1:0:0:0:
232,32,90277,6,0,P|192:40|168:48,1,62.5,10|0,1:0|0:0,0:0:0:0:
228,229,90416,1,2,1:0:0:0:
236,228,90486,1,0,1:0:0:0:
245,225,90556,2,0,P|237:193|226:164,1,62.5,2|0,1:0|1:0,1:0:0:0:
70,125,90695,1,0,1:0:0:0:
62,174,90765,1,0,1:0:0:0:
69,206,90835,2,0,L|103:210,1,31.25,2|0,1:2|0:0,0:0:0:0:
70,228,90905,1,0,1:0:0:0:
67,241,90974,1,0,1:0:0:0:
63,249,91044,1,0,1:0:0:0:
51,272,91114,1,0,1:0:0:0:
78,270,91184,1,0,1:0:0:0:
113,276,91254,1,0,1:0:0:0:
144,296,91323,1,0,1:0:0:0:
168,336,91393,6,0,L|242:326,1,62.5,2|0,1:0|1:0,1:0:0:0:
344,296,91533,2,0,L|418:286,1,62.5,2|0,1:0|1:0,1:0:0:0:
184,344,91672,1,10,1:0:0:0:
360,312,91812,1,0,1:0:0:0:
112,160,91951,5,8,1:0:0:0:
192,168,92021,5,8,1:0:0:0:
272,176,92091,5,8,1:0:0:0:
352,184,92161,5,8,1:0:0:0:
432,192,92230,5,10,1:0:0:0:
113,246,92370,1,0,1:0:0:0:
197,271,92509,6,0,P|197:239|189:207,1,62.5,2|0,1:0|0:0,0:0:0:0:
86,75,92649,1,0,1:0:0:0:
82,68,92719,1,0,1:0:0:0:
79,61,92788,2,0,P|118:52|148:54,1,62.5,2|0,1:0|1:0,1:0:0:0:
241,27,92928,1,0,1:0:0:0:
287,28,92998,1,0,1:0:0:0:
326,39,93067,2,0,L|321:4,1,31.25,2|0,1:2|1:0,1:0:0:0:
345,49,93137,1,0,1:0:0:0:
367,49,93207,1,0,1:0:0:0:
380,44,93277,1,0,1:0:0:0:
391,36,93347,1,0,1:0:0:0:
398,52,93416,1,0,1:0:0:0:
405,79,93486,1,0,1:0:0:0:
401,117,93556,1,0,1:0:0:0:
378,158,93626,6,0,L|298:147,1,62.5,2|0,1:0|0:0,0:0:0:0:
200,191,93765,2,0,L|120:180,1,62.5,2|0,1:0|0:0,0:0:0:0:
363,174,93905,1,8,1:3:0:0:
353,204,93974,1,8,1:3:0:0:
359,244,94044,1,8,1:3:0:0:
390,285,94114,1,8,1:3:0:0:
450,299,94184,5,2,0:0:0:0:
287,288,94323,2,0,P|281:259|282:238,1,37.5000014305115,2|0,1:2|0:0,0:0:0:0:
346,73,94463,5,6,1:2:0:0:
97,276,94602,1,0,1:0:0:0:
54,197,94742,6,0,P|94:189|121:189,1,62.5,10|0,1:0|0:0,0:0:0:0:
280,251,94881,1,0,1:0:0:0:
288,252,94951,1,0,1:0:0:0:
296,254,95021,6,0,P|287:216|279:190,1,62.5,2|0,1:0|1:0,1:0:0:0:
346,73,95161,1,0,1:0:0:0:
400,76,95230,1,0,1:0:0:0:
436,92,95300,2,0,L|445:59,1,31.25,2|0,1:0|0:0,0:0:0:0:
456,111,95370,1,0,1:0:0:0:
467,131,95440,1,0,1:0:0:0:
473,149,95509,1,0,1:0:0:0:
474,160,95579,1,0,1:0:0:0:
471,182,95649,1,0,1:0:0:0:
466,213,95719,1,0,1:0:0:0:
460,255,95788,1,0,1:0:0:0:
451,308,95858,6,0,P|398:311|384:312,1,62.5,2|0,1:0|0:0,0:0:0:0:
264,288,95998,2,0,P|211:291|197:292,1,62.5,0|0,1:0|0:0,0:0:0:0:
440,328,96137,1,8,1:3:0:0:
256,304,96277,1,8,1:3:0:0:
104,24,96416,5,8,1:0:0:0:
96,104,96486,5,8,1:0:0:0:
88,184,96556,5,8,1:0:0:0:
80,264,96626,5,8,1:0:0:0:
72,344,96695,6,0,B|90:358|90:358|207:346,1,125,2|0,1:0|1:0,0:0:0:0:
367,334,96974,1,8,1:0:0:0:
367,334,97114,2,0,P|359:298|359:270,1,62.5,2|0,1:0|1:0,1:0:0:0:
456,72,97254,5,10,1:0:0:0:
336,32,97393,1,10,1:0:0:0:
160,80,97533,1,10,1:0:0:0:
80,264,97672,2,0,P|80:328|88:360,1,75.0000028610231,10|0,1:0|0:0,0:0:0:0:
312,168,97951,6,0,P|288:168|272:176,1,37.5000014305115,4|0,3:0|0:0,0:0:0:0:
400,232,98161,2,0,P|424:232|440:224,1,37.5000014305115,4|0,3:0|0:0,0:0:0:0:
215,106,98370,6,0,B|195:151|190:179|205:221|205:221|213:259|203:296|203:296|190:326,1,200,12|0,1:0|0:0,0:0:0:0:
200,300,98788,6,0,P|152:252|64:261,1,150,4|0,1:2|0:0,0:0:0:0:
52,149,99067,1,8,1:3:0:0:
49,139,99137,1,8,1:3:0:0:
46,126,99207,2,0,P|37:94|30:75,1,50,8|0,1:3|1:3,1:3:0:0:
171,17,99347,5,8,1:3:0:0:
220,17,99416,1,8,1:3:0:0:
257,27,99486,1,8,1:3:0:0:
283,39,99556,1,8,1:3:0:0:
301,55,99626,1,8,1:3:0:0:
311,68,99695,1,8,1:3:0:0:
317,79,99765,2,8,P|295:89|264:90,1,50,8|8,1:3|1:3,1:3:0:0:
147,120,99905,5,8,1:3:0:0:
145,132,99974,1,8,1:3:0:0:
140,152,100044,1,8,1:3:0:0:
132,180,100114,1,8,1:3:0:0:
123,216,100184,1,8,1:3:0:0:
110,267,100254,1,8,1:3:0:0:
98,318,100323,2,0,L|113:365,1,50,8|0,1:3|1:3,1:3:0:0:
284,368,100463,5,0,1:0:0:0:
340,360,100533,1,0,1:0:0:0:
375,343,100602,1,0,1:0:0:0:
398,323,100672,1,0,1:0:0:0:
409,308,100742,1,0,1:0:0:0:
417,292,100812,1,0,1:0:0:0:
421,282,100881,2,0,P|390:280|361:288,1,50,8|0,1:3|1:0,1:0:0:0:
257,221,101021,5,8,1:3:0:0:
278,181,101091,1,8,1:3:0:0:
312,167,101161,1,8,1:3:0:0:
337,144,101230,1,8,1:3:0:0:
346,122,101300,1,8,1:3:0:0:
343,107,101370,1,8,1:3:0:0:
337,97,101440,2,8,P|331:59|330:45,1,50,8|8,1:3|1:3,1:3:0:0:
188,13,101579,5,8,1:3:0:0:
185,24,101649,1,8,1:3:0:0:
177,46,101719,1,8,1:3:0:0:
155,75,101788,1,8,1:3:0:0:
112,95,101858,1,8,1:3:0:0:
56,97,101928,1,8,1:3:0:0:
14,54,101998,2,8,P|4:96|3:112,1,50,8|8,1:3|1:3,1:3:0:0:
106,287,102137,5,8,1:3:0:0:
137,278,102207,1,8,1:3:0:0:
165,274,102277,6,0,P|205:282|223:289,1,50,2|0,1:2|1:3,1:3:0:0:
337,144,102416,2,0,P|315:116|307:102,1,50,2|0,1:2|0:0,0:0:0:0:
154,88,102556,2,0,P|132:110|111:118,1,50,10|0,1:2|0:0,0:0:0:0:
201,306,102695,6,0,P|245:287|275:285,1,75.0000028610231,2|2,1:0|1:0,0:0:0:0:
457,298,102835,5,8,1:0:0:0:
453,261,102905,5,8,1:0:0:0:
431,215,102974,5,8,1:0:0:0:
378,163,103044,5,8,1:0:0:0:
289,141,103114,5,8,1:0:0:0:
188,164,103184,5,8,1:0:0:0:
132,274,103254,6,0,P|188:304|344:228,1,250,6|0,1:2|0:0,0:0:0:0:
378,163,103672,6,0,P|333:157|287:183,1,75.0000028610231,10|0,1:2|1:2,0:0:0:0:
264,80,103811,2,0,P|227:107|213:158,1,75.0000028610231,10|0,1:2|1:2,0:0:0:0:
104,112,103951,2,0,P|98:157|124:203,1,75.0000028610231,10|0,1:2|1:2,0:0:0:0:
24,304,104091,2,0,P|51:340|102:354,1,75.0000028610231,10|0,1:2|1:2,0:0:0:0:
224,328,104230,6,0,P|247:299|255:263,1,75.0000028610231,10|0,1:2|1:2,0:0:0:0:
216,320,104370,2,0,P|226:284|219:247,1,75.0000028610231,10|0,1:2|1:2,0:0:0:0:
191,293,104509,2,0,P|187:255|167:224,1,75.0000028610231,10|0,1:2|1:2,0:0:0:0:
140,295,104649,2,0,P|122:262|91:241,1,75.0000028610231,10|0,1:2|1:2,0:0:0:0:
104,31,104788,6,0,P|147:56|184:63,1,75.0000028610231,10|0,1:2|0:0,0:0:0:0:
221,160,104928,2,0,P|269:147|300:126,1,75.0000028610231,10|0,1:2|1:0,0:0:0:0:
343,23,105067,5,8,1:2:0:0:
411,90,105137,5,8,1:0:0:0:
408,177,105207,5,8,1:0:0:0:
370,229,105277,5,8,1:0:0:0:
373,275,105347,5,8,1:0:0:0:
390,299,105416,5,8,1:0:0:0:
393,306,105486,6,0,B|423:326|440:313|437:269|398:253|344:274|344:274|326:314|283:336,1,225.000008583069,4|0,1:0|0:0,0:0:0:0:
180,236,105765,2,0,P|212:252|252:252,1,75.0000028610231,0|0,1:0|1:0,0:0:0:0:
288,48,105905,1,8,1:0:0:0:
291,331,106044,2,0,P|323:307|339:275,1,75.0000028610231,0|0,1:0|1:0,0:0:0:0:
288,48,106184,1,8,1:0:0:0:
496,328,106323,2,0,P|488:256|480:240,1,75.0000028610231,0|0,1:0|1:0,0:0:0:0:
288,48,106463,5,8,1:0:0:0:
305,44,106533,1,8,1:0:0:0:
343,33,106602,1,8,1:0:0:0:
361,30,106672,1,8,1:0:0:0:
312,144,106812,6,0,L|320:200,1,37.5000014305115,2|0,0:0|0:0,0:0:0:0:
312,144,107021,6,0,P|264:136|192:168,1,112.500004291535,2|0,0:0|0:0,0:0:0:0:
157,233,107300,2,0,L|149:273,1,37.5000014305115,2|0,0:0|0:0,0:0:0:0:
251,272,107440,6,0,L|248:254,1,15,8|0,0:3|0:3,0:3:0:0:
208,32,107719,5,4,1:0:0:0:
272,360,108137,1,4,1:0:0:0:
376,80,108416,6,0,P|428:69|447:54,1,75.0000028610231,2|0,0:0|0:0,0:0:0:0:
385,116,108556,6,0,P|429:85|444:49,1,87.500000834465,2|0,0:0|0:0,0:0:0:0:
413,147,108695,6,0,P|441:101|441:53,1,100,2|0,0:0|0:0,0:0:0:0:
124,88,108835,5,4,1:0:0:0:
365,320,109254,1,4,1:0:0:0:
224,88,109533,6,0,L|304:96,1,75.0000028610231,2|0,0:0|0:0,0:0:0:0:
309,67,109672,6,0,L|212:91,1,87.500000834465,2|0,0:0|0:0,0:0:0:0:
214,35,109812,6,0,L|310:67,1,100,2|0,0:0|0:0,0:0:0:0:
89,176,109951,5,4,1:0:0:0:
417,240,110370,1,4,1:0:0:0:
176,272,110649,6,0,P|168:224|168:192,1,75.0000028610231,2|0,0:0|0:0,0:0:0:0:
183,111,110788,6,0,P|175:167|167:199,1,87.500000834465,2|0,0:0|0:0,0:0:0:0:
237,265,110928,6,0,P|192:233|165:193,1,100,2|0,0:0|0:0,0:0:0:0:
65,152,111067,6,0,P|121:168|168:197,1,112.500004291535,2|0,0:0|0:0,0:0:0:0:
416,144,111207,5,4,1:2:0:0:
416,144,111347,2,0,P|360:152|328:160,1,75.0000028610231,0|0,1:0|0:0,0:0:0:0:
237,265,111486,1,0,1:0:0:0:
237,265,111626,2,0,P|288:280|320:288,1,75.0000028610231,12|0,1:2|0:0,0:0:0:0:
166,196,111905,2,0,B|137:238|117:253|117:253|94:286|138:259|138:259,1,100,12|0,1:2|0:0,0:0:0:0:
264,168,112184,6,0,B|272:152|272:152|256:72,1,100,4|0,1:2|0:0,0:0:0:0:
80,24,112323,1,8,1:3:0:0:
78,32,112393,1,8,1:3:0:0:
76,40,112463,1,8,1:3:0:0:
74,48,112533,1,8,1:3:0:0:
58,123,112602,6,0,B|74:143|74:143|361:120,1,300,4|0,1:2|0:0,0:0:0:0:
415,155,112881,6,2,L|422:121,11,18.7500007152558
415,155,113300,6,0,B|423:139|423:139|407:59,1,100,4|0,1:2|0:0,0:0:0:0:
152,40,113440,1,8,1:3:0:0:
150,48,113509,1,8,1:3:0:0:
148,56,113579,1,8,1:3:0:0:
146,64,113649,1,8,1:3:0:0:
130,139,113719,6,0,B|146:159|146:159|433:136,1,300,4|0,1:2|0:0,0:0:0:0:
496,136,113998,6,2,L|488:168,11,25
496,136,114416,6,0,B|504:120|504:120|488:40,1,100,4|0,1:2|0:0,0:0:0:0:
233,21,114556,1,8,1:3:0:0:
231,29,114626,1,8,1:3:0:0:
229,37,114695,1,8,1:3:0:0:
227,45,114765,1,8,1:3:0:0:
211,120,114835,6,0,B|227:140|227:140|514:117,1,300,4|0,1:2|0:0,0:0:0:0:
505,220,115114,6,0,B|457:258|412:248|412:248|324:340|197:343|105:263|69:128|110:6|283:-10|351:23|369:61,1,750,2|0,1:0|0:0,0:0:0:0:
386,131,115672,5,12,1:2:0:0:
116,60,115812,1,0,1:0:0:0:
116,60,115951,1,0,1:0:0:0:
218,134,116091,6,0,P|226:71|211:20,1,75.0000028610231,12|0,1:2|0:0,0:0:0:0:
45,164,116230,1,2,0:0:0:0:
45,164,116370,2,0,P|62:225|95:272,1,100,12|0,1:2|0:0,0:0:0:0:
306,44,116509,1,2,0:0:0:0:
94,331,116649,6,0,P|153:328|215:130,1,300.000011444092,6|0,0:0|0:0,0:0:0:0:
217,133,121254,6,0,P|257:129|335:131,1,100,2|0,1:2|0:0,0:0:0:0:
398,200,121533,1,8,0:0:0:0:
363,296,121812,1,8,0:0:0:0:
260,285,122091,1,8,0:0:0:0:
203,141,122370,6,0,P|195:86|193:35,1,100,2|0,1:2|0:0,0:0:0:0:
369,0,122649,1,8,0:0:0:0:
446,75,122928,1,8,0:0:0:0:
406,168,123207,1,8,0:0:0:0:
190,152,123486,6,0,P|138:159|81:158,1,100,2|0,1:2|0:0,0:0:0:0:
49,282,123765,1,8,0:0:0:0:
58,286,123905,6,0,P|94:284|142:283,1,75.0000028610231,2|8,0:0|0:0,0:0:0:0:
253,314,124184,1,0,0:0:0:0:
263,311,124323,2,0,P|315:309|347:305,1,75.0000028610231,10|0,0:0|0:0,0:0:0:0:
448,177,124602,6,0,P|452:124|450:72,1,100,8|0,1:2|0:0,0:0:0:0:
282,34,124881,1,8,0:0:0:0:
228,130,125161,1,8,0:0:0:0:
308,207,125440,6,0,P|265:233|201:233,1,100,10|0,1:2|0:0,0:0:0:0:
57,43,125579,2,0,L|86:351,1,300,6|0,1:2|0:0,0:0:0:0:
215,352,125858,5,0,1:3:0:0:
209,345,125928,1,0,1:3:0:0:
201,337,125998,2,0,P|253:324|295:328,1,62.5,8|0,1:3|1:3,1:3:0:0:
414,351,126137,1,8,1:3:0:0:
411,336,126207,1,8,1:3:0:0:
407,309,126277,1,8,1:3:0:0:
421,271,126347,1,8,1:3:0:0:
409,221,126416,1,8,1:3:0:0:
401,163,126486,1,8,1:3:0:0:
403,100,126556,6,0,P|352:102|305:125,1,100,6|0,1:2|0:0,0:0:0:0:
101,342,126695,2,0,L|73:39,1,300,0|0,1:0|0:0,0:0:0:0:
269,41,126974,5,8,1:3:0:0:
267,48,127044,1,8,1:3:0:0:
266,56,127114,2,8,P|228:62|192:60,1,62.5,8|8,1:3|1:3,1:3:0:0:
161,180,127254,1,8,1:3:0:0:
212,168,127323,1,8,1:3:0:0:
247,182,127393,1,8,1:3:0:0:
269,189,127463,1,8,1:3:0:0:
288,187,127533,1,8,1:3:0:0:
298,181,127602,1,8,1:3:0:0:
311,170,127672,6,0,L|304:288,1,107.50000164032,4|0,1:2|0:0,0:0:0:0:
96,32,127812,2,0,L|128:360,1,322.50000492096,4|0,1:2|0:0,0:0:0:0:
303,269,128091,5,8,1:3:0:0:
299,262,128161,1,8,1:3:0:0:
295,255,128230,2,8,P|262:261|232:272,1,62.5,8|8,1:3|1:3,1:3:0:0:
187,96,128370,1,8,1:3:0:0:
203,93,128440,1,8,1:3:0:0:
237,82,128509,1,8,1:3:0:0:
271,46,128579,1,8,1:3:0:0:
329,25,128649,1,8,1:3:0:0:
393,35,128719,1,8,1:3:0:0:
435,93,128788,6,0,L|416:216,1,112.500004291535,4|0,1:2|0:0,0:0:0:0:
144,352,128928,2,0,L|110:10,1,337.500012874604,4|0,1:2|0:0,0:0:0:0:
271,46,129207,5,8,1:3:0:0:
268,56,129277,1,8,1:3:0:0:
265,66,129347,2,8,P|247:59|221:25,1,62.5,8|8,1:3|1:3,1:3:0:0:
393,35,129486,1,8,1:3:0:0:
404,105,129556,1,0,1:3:0:0:
390,151,129626,1,0,1:3:0:0:
374,188,129695,1,0,1:3:0:0:
374,218,129765,1,0,1:3:0:0:
383,233,129835,1,0,1:3:0:0:
387,241,129905,6,0,B|345:288|282:259|282:259|297:171|408:174|488:205,1,337.500012874604,12|0,1:0|0:0,0:0:0:0:
424,312,130184,6,0,P|377:338|317:347,1,112.500004291535,2|0,0:0|0:0,0:0:0:0:
248,319,130463,2,0,L|261:261,1,37.5000014305115,2|0,0:0|0:0,0:0:0:0:
256,282,130742,2,0,P|232:292|207:293,1,37.5000014305115,2|0,0:0|0:0,0:0:0:0:
140,300,130881,2,0,L|153:242,1,37.5000014305115,2|0,0:0|0:0,0:0:0:0:
34,159,131161,6,0,P|75:174|126:171,1,75.0000028610231,2|2,0:0|0:0,0:0:0:0:
190,165,131440,2,0,L|184:116,1,37.5000014305115,2|0,0:0|0:0,0:0:0:0:
185,127,131719,2,0,P|214:132|231:132,1,37.5000014305115,2|0,0:0|0:0,0:0:0:0:
304,128,131858,2,0,L|298:79,1,37.5000014305115,2|0,0:0|0:0,0:0:0:0:
299,90,132137,2,0,P|340:105|391:102,1,75.0000028610231,2|0,0:0|0:0,0:0:0:0:
448,83,132416,5,12,1:2:0:0:
92,56,132594,1,12,1:2:0:0:
230,335,132773,1,12,1:2:0:0:
414,53,132951,1,12,1:2:0:0:
43,74,133130,5,12,1:2:0:0:
265,364,133308,1,12,1:2:0:0:
451,27,133487,1,12,1:2:0:0:
17,111,133666,1,12,1:2:0:0:
429,336,133844,6,0,L|424:266,1,50.0000019073487,14|0,0:0|0:0,0:0:0:0:
87,59,134509,6,0,B|63:115|63:115|85:165|85:165|76:211|105:254|158:254|188:221,1,262.500002503395,4|0,1:2|0:0,0:0:0:0:
240,171,134788,2,0,P|285:162|342:165,1,87.500000834465,0|0,1:0|0:0,0:0:0:0:
429,336,134927,1,8,1:0:0:0:
436,344,135067,1,8,1:3:0:0:
436,344,135136,1,8,1:3:0:0:
436,344,135206,1,8,1:3:0:0:
437,228,135346,1,8,1:0:0:0:
312,61,135485,1,8,1:3:0:0:
80,64,135625,6,0,B|79:88|67:110|67:110|76:151|76:192|76:192|51:240|60:282|60:282|85:253,1,262.500002503395,4|0,1:2|0:0,0:0:0:0:
172,229,135904,2,0,P|223:227|278:245,1,87.500000834465,0|0,1:0|0:0,0:0:0:0:
342,356,136043,1,8,1:0:0:0:
352,361,136183,2,0,P|403:363|458:345,1,87.500000834465,0|0,1:0|0:0,0:0:0:0:
454,77,136322,1,8,1:3:0:0:
383,48,136392,1,8,1:3:0:0:
317,48,136462,1,8,1:3:0:0:
260,70,136532,1,8,1:3:0:0:
219,84,136602,1,8,1:3:0:0:
178,81,136671,1,8,1:3:0:0:
158,68,136741,6,0,B|124:42|124:42|157:276,1,262.500002503395,4|0,1:2|0:0,0:0:0:0:
243,298,137020,2,0,P|280:314|339:314,1,87.500000834465,8|0,1:3|1:0,1:0:0:0:
475,195,137160,1,8,1:3:0:0:
471,168,137229,1,8,1:3:0:0:
476,129,137299,1,8,1:3:0:0:
497,81,137369,1,0,1:3:0:0:
488,58,137439,5,8,1:0:0:0:
436,35,137509,5,8,1:0:0:0:
351,34,137578,5,8,1:0:0:0:
267,80,137648,5,8,1:0:0:0:
217,176,137718,5,8,1:0:0:0:
243,298,137788,5,8,1:0:0:0:
357,368,137857,6,0,P|375:315|372:258,1,100,12|0,1:2|0:0,0:0:0:0:
197,80,138136,2,0,P|198:137|226:187,1,100,12|0,1:2|0:0,0:0:0:0:
451,243,138415,2,0,P|409:202|357:192,1,100,12|0,1:2|0:0,0:0:0:0:
157,235,138695,2,0,P|200:257|267:248,1,100,12|0,1:2|0:0,0:0:0:0:
426,105,138974,6,0,B|456:97|477:53|477:53|401:1|327:30|279:91,1,300,4|0,1:2|0:0,0:0:0:0:
295,171,139253,1,0,1:0:0:0:
113,88,139392,2,0,P|108:191|159:236,1,175.00000166893,8|2,1:0|0:0,0:0:0:0:
251,251,139671,1,0,1:0:0:0:
23,355,139811,6,0,P|30:315|48:265,1,87.500000834465,2|0,0:0|0:0,0:0:0:0:
181,120,139950,1,8,1:2:0:0:
195,322,140090,1,2,0:0:0:0:
74,150,140229,5,0,1:2:0:0:
319,148,140369,1,2,0:0:0:0:
312,150,140439,1,0,0:0:0:0:
304,152,140509,2,0,P|295:105|311:64,1,87.500000834465,8|0,1:2|0:0,0:0:0:0:
357,222,140648,6,0,P|307:239|275:232,1,87.500000834465,2|0,1:2|0:0,0:0:0:0:
74,150,140788,1,0,1:2:0:0:
195,322,140927,2,0,P|157:282|143:247,1,87.500000834465,2|0,1:2|0:0,0:0:0:0:
143,39,141067,1,8,1:0:0:0:
388,39,141206,1,2,0:0:0:0:
390,47,141276,1,0,0:0:0:0:
392,55,141346,6,0,P|344:70|308:68,1,87.500000834465,12|0,1:2|0:0,0:0:0:0:
130,159,141485,1,8,1:3:0:0:
130,159,141555,1,8,1:3:0:0:
130,159,141625,2,8,L|125:246,1,87.500000834465,8|8,1:3|1:3,1:3:0:0:
349,196,141764,5,10,1:2:0:0:
351,188,141834,1,0,1:3:0:0:
351,180,141904,2,0,P|303:165|266:170,1,87.500000834465,8|0,1:3|1:3,1:3:0:0:
182,314,142043,1,10,1:2:0:0:
184,322,142113,1,0,1:3:0:0:
184,330,142183,2,0,P|136:345|96:342,1,87.500000834465,8|0,1:3|1:3,1:3:0:0:
45,177,142322,1,10,1:2:0:0:
46,170,142392,1,8,1:3:0:0:
47,162,142462,5,4,1:2:0:0:
295,50,142602,2,0,P|244:66|203:59,2,87.500000834465,0|8|8,1:2|1:3|1:2,0:0:0:0:
412,112,142881,6,0,P|458:138|490:187,1,100,12|0,1:2|0:0,0:0:0:0:
379,263,143160,2,0,P|359:321|325:356,1,100,12|0,1:2|0:0,0:0:0:0:
213,267,143299,1,2,0:0:0:0:
295,50,143439,6,0,B|249:75|214:73|174:49|174:49|133:11|54:24|39:86|48:112,1,300,4|0,1:2|0:0,0:0:0:0:
109,199,143718,2,0,P|122:162|121:112,1,87.500000834465,2|0,1:2|0:0,0:0:0:0:
25,183,143857,1,8,1:0:0:0:
213,267,143997,5,8,1:3:0:0:
213,267,144067,1,8,1:3:0:0:
213,267,144136,1,8,1:3:0:0:
203,162,144276,1,8,1:3:0:0:
295,50,144415,1,8,1:3:0:0:
492,104,144555,6,0,B|514:109|540:134|537:175|537:175|470:216|418:203|376:165,1,262.500002503395,4|0,1:2|0:0,0:0:0:0:
370,92,144834,1,0,1:0:0:0:
312,216,144974,2,0,P|328:288|336:304,1,87.500000834465,8|0,1:0|0:0,0:0:0:0:
480,360,145113,1,0,1:0:0:0:
280,134,145253,1,8,1:3:0:0:
256,139,145322,1,8,1:3:0:0:
234,137,145392,1,8,1:3:0:0:
200,118,145462,1,8,1:3:0:0:
148,97,145532,1,8,1:3:0:0:
87,112,145602,1,8,1:3:0:0:
47,184,145671,6,0,B|69:224|69:224|317:210,1,262.500002503395,4|0,1:2|0:0,0:0:0:0:
360,244,145950,2,0,P|367:203|339:151,1,87.500000834465,8|0,1:3|0:0,0:0:0:0:
126,30,146090,1,0,1:3:0:0:
158,94,146160,1,0,1:3:0:0:
209,120,146229,1,0,1:3:0:0:
249,123,146299,1,0,1:3:0:0:
277,116,146369,5,8,1:3:0:0:
329,131,146439,5,8,1:3:0:0:
371,173,146508,5,8,1:3:0:0:
389,262,146578,5,8,1:3:0:0:
319,362,146648,5,8,1:3:0:0:
202,367,146718,5,8,1:3:0:0:
113,271,146788,6,0,P|114:202|127:159,1,100,12|0,1:2|0:0,0:0:0:0:
487,274,147067,2,0,P|459:337|430:371,1,100,12|0,1:2|0:0,0:0:0:0:
49,129,147346,2,0,P|98:80|138:59,1,100,12|0,1:2|0:0,0:0:0:0:
359,336,147625,2,0,P|294:360|249:364,1,100,12|0,1:2|0:0,0:0:0:0:
186,3,147904,6,0,B|269:32|307:107|296:175|270:194|270:194|243:175|247:137,1,300,4|0,1:2|0:0,0:0:0:0:
361,99,148183,2,0,P|413:87|458:86,1,87.500000834465,0|0,1:0|1:0,0:0:0:0:
494,264,148322,1,8,1:0:0:0:
494,264,148462,6,0,P|432:259|397:248,1,87.500000834465,2|0,1:2|0:0,0:0:0:0:
246,144,148602,1,0,1:0:0:0:
358,333,148741,2,0,P|315:287|303:257,1,87.500000834465,2|0,1:2|0:0,0:0:0:0:
276,44,148881,1,8,1:2:0:0:
447,171,149020,1,0,1:0:0:0:
161,192,149160,5,0,1:0:0:0:
478,62,149299,1,2,1:2:0:0:
477,68,149369,1,0,1:2:0:0:
476,75,149439,2,0,P|430:76|384:55,1,87.500000834465,8|0,1:2|0:0,0:0:0:0:
243,129,149578,2,0,B|148:101|79:116|64:162,1,175.00000166893,2|0,1:2|1:0,0:0:0:0:
315,170,149857,2,0,P|320:112|307:78,1,87.500000834465,2|0,1:2|0:0,0:0:0:0:
142,28,149997,1,8,1:0:0:0:
105,257,150136,5,2,1:2:0:0:
103,265,150206,1,0,1:2:0:0:
102,272,150276,1,0,1:2:0:0:
360,312,150415,1,8,1:3:0:0:
170,322,150555,2,0,P|185:279|172:228,1,87.500000834465,8|0,1:3|0:0,0:0:0:0:
76,141,150695,5,8,1:3:0:0:
78,148,150764,1,8,1:3:0:0:
80,155,150834,1,8,1:3:0:0:
356,128,150974,1,8,1:3:0:0:
286,177,151113,2,0,P|271:134|284:83,1,87.500000834465,8|0,1:3|0:0,0:0:0:0:
461,56,151253,5,8,1:3:0:0:
417,313,151392,1,8,1:3:0:0:
153,266,151532,1,8,1:3:0:0:
146,264,151602,1,8,1:3:0:0:
138,262,151671,1,8,1:3:0:0:
420,231,151811,6,0,P|370:245|337:286,1,100,4|0,1:2|0:0,0:0:0:0:
152,67,152090,2,0,P|178:111|226:132,1,100,4|0,1:2|0:0,0:0:0:0:
138,262,152369,6,0,B|116:225|130:182|130:182|41:233|31:291|59:362,1,300,4|0,1:2|0:0,0:0:0:0:
136,344,152648,1,0,1:0:0:0:
376,120,152788,2,0,B|336:112|336:112|360:256,1,175.00000166893,8|0,1:0|1:0,0:0:0:0:
128,56,153067,1,8,1:0:0:0:
128,56,153206,2,0,P|192:80|216:80,1,87.500000834465,8|0,1:0|1:0,1:0:0:0:
320,32,153346,1,0,1:0:0:0:
119,192,153485,6,0,B|40:189|16:93|86:28|240:21|185:280|136:325,1,437.500004172325,4|0,1:2|0:0,0:0:0:0:
21,339,153904,2,0,B|0:311|0:311|150:320,1,175.00000166893,8|0,1:0|1:0,0:0:0:0:
412,276,154183,1,0,1:3:0:0:
305,319,154322,1,0,1:3:0:0:
307,312,154392,1,0,1:3:0:0:
309,305,154462,1,0,1:3:0:0:
51,130,154602,6,0,B|98:86|185:84|238:162|238:162|178:185,1,262.500002503395,4|0,1:2|0:0,0:0:0:0:
118,212,154881,1,0,1:0:0:0:
309,108,155020,2,0,P|326:175|322:208,1,87.500000834465,8|0,1:0|0:0,0:0:0:0:
312,303,155160,1,0,1:0:0:0:
118,212,155299,5,8,1:0:0:0:
191,18,155439,1,8,1:0:0:0:
222,309,155578,1,8,1:0:0:0:
176,138,155718,6,0,B|101:61|32:77|5:91|-9:156|12:183|64:178,1,262.500002503395,4|0,1:2|0:0,0:0:0:0:
118,212,155997,2,0,P|131:279|129:310,1,87.500000834465,8|0,1:3|0:0,0:0:0:0:
219,226,156136,1,8,1:3:0:0:
236,225,156206,1,8,1:3:0:0:
268,225,156276,1,8,1:3:0:0:
301,235,156346,1,8,1:3:0:0:
346,261,156415,1,8,1:3:0:0:
357,249,156485,1,8,1:3:0:0:
371,208,156555,1,8,1:3:0:0:
347,148,156625,1,8,1:3:0:0:
289,111,156695,2,8,P|237:103|192:107,1,87.500000834465,8|0,1:3|1:0,1:3:0:0:
202,105,156974,6,0,P|194:128|193:147,1,37.5000014305115,2|0,0:0|0:0,0:0:0:0:
224,304,157113,6,0,L|202:102,1,200,4|0,1:2|0:0,0:0:0:0:
364,8,157532,6,0,L|305:202,1,200,4|0,1:2|0:0,0:0:0:0:
8,347,157950,6,0,L|138:190,1,200,4|0,1:2|0:0,0:0:0:0:
512,185,158369,6,0,L|331:277,1,200,4|0,1:2|0:0,0:0:0:0:
9,89,158788,6,0,L|118:80,1,100,4|0,1:2|0:0,0:0:0:0:
200,21,158927,5,8,1:3:0:0:
198,52,158997,1,8,1:3:0:0:
219,106,159067,1,8,1:3:0:0:
217,170,159136,1,8,1:3:0:0:
234,248,159206,6,0,B|209:267|179:275|179:275|210:288|254:279|254:279|295:295|352:295,1,225.000008583069,6|0,1:2|0:0,0:0:0:0:
412,353,159764,6,0,P|428:305|384:216,1,134.999995880127,2|0,0:0|0:0,0:0:0:0:
404,141,160322,6,0,P|357:151|332:170,1,75,2|0,0:0|0:0,0:0:0:0:
136,340,160881,6,0,L|166:21,1,300.000011444092,2|2,0:0|0:0,0:0:0:0:
289,38,161299,6,0,P|346:36|439:94,1,150,6|2,1:2|0:0,0:0:0:0:
456,256,161718,1,2,0:0:0:0:
280,248,161857,5,0,0:0:0:0:
344,184,161997,1,0,0:0:0:0:
368,280,162136,1,2,0:0:0:0:
208,88,162276,5,0,0:0:0:0:
280,128,162415,1,0,0:0:0:0:
208,168,162555,1,2,0:0:0:0:
416,16,162695,5,0,0:0:0:0:
387,81,162834,1,0,0:0:0:0:
344,24,162974,1,2,0:0:0:0:
168,24,163113,5,0,0:0:0:0:
136,120,163253,2,0,P|144:176|160:216,1,100,2|0,1:2|0:0,0:0:0:0:
240,280,163532,6,0,P|304:304|440:312,1,200,2|2,1:2|0:0,0:0:0:0:
480,240,163950,1,0,0:0:0:0:
352,96,164090,5,0,0:0:0:0:
312,168,164229,1,0,0:0:0:0:
424,128,164369,1,2,0:0:0:0:
232,168,164508,5,0,0:0:0:0:
160,216,164648,1,0,0:0:0:0:
288,240,164788,1,2,0:0:0:0:
112,48,164927,5,0,0:0:0:0:
16,72,165067,1,0,0:0:0:0:
112,152,165206,1,2,0:0:0:0:
88,304,165346,5,2,0:0:0:0:
168,336,165485,1,2,0:0:0:0:
168,336,165555,1,2,0:0:0:0:
168,336,165625,1,2,0:0:0:0:
160,216,165764,6,0,L|152:32,1,150,2|0,1:2|0:0,0:0:0:0:
153,45,166043,1,2,0:0:0:0:
280,64,166183,2,0,P|330:75|378:49,1,100,2|0,0:0|0:0,0:0:0:0:
432,208,166462,1,0,0:0:0:0:
432,208,166602,2,0,P|416:176|424:136,1,50,2|0,1:2|0:0,0:0:0:0:
472,88,166741,1,0,0:0:0:0:
400,312,166881,5,2,1:2:0:0:
400,312,167020,2,0,P|336:336|296:320,1,100,2|0,0:0|0:0,0:0:0:0:
168,192,167299,1,2,0:2:0:0:
168,192,167438,2,0,P|236:194|266:225,1,100,2|0,0:0|0:0,0:0:0:0:
64,320,167718,1,2,0:0:0:0:
48,192,167857,1,0,0:0:0:0:
48,192,167927,1,0,0:0:0:0:
48,192,167997,6,0,L|34:78,1,115,2|0,0:0|0:0,0:0:0:0:
118,25,169671,5,0,1:0:0:0:
118,25,169741,1,0,1:0:0:0:
118,25,169811,2,0,B|187:37|213:14|213:14|263:13|326:39,1,200,12|0,1:2|0:0,0:0:0:0:
72,320,170229,5,12,1:0:0:0:
440,64,170648,1,12,1:0:0:0:
316,137,170788,1,0,1:0:0:0:
317,147,170857,1,0,1:0:0:0:
320,154,170927,6,0,B|305:139|252:128|207:76|270:-78|386:-69|493:26|446:163|375:256,1,525.000020027161,6|0,1:0|0:0,0:0:0:0:
335,330,171485,5,10,1:0:0:0:
330,325,171555,1,0,1:0:0:0:
325,321,171625,1,0,1:0:0:0:
319,316,171695,1,0,1:0:0:0:
233,311,171764,5,10,1:0:0:0:
241,294,171834,1,0,1:0:0:0:
247,280,171904,1,0,1:0:0:0:
255,265,171974,1,0,1:0:0:0:
328,209,172043,5,10,1:0:0:0:
323,169,172113,1,0,1:0:0:0:
319,132,172183,1,0,1:0:0:0:
314,93,172253,1,0,1:0:0:0:
221,41,172322,6,0,P|174:46|136:61,1,75.0000028610231,10|0,1:0|1:0,1:0:0:0:
90,144,172462,1,0,1:0:0:0:
96,160,172532,2,0,L|137:163,1,37.5000014305115,2|0,1:0|0:0,0:0:0:0:
104,176,172602,6,0,P|100:217|75:280,1,75.0000028610231,12|0,1:2|0:0,0:0:0:0:
320,344,172741,2,0,P|376:328|400:328,1,75.0000028610231,4|0,1:2|0:0,0:0:0:0:
104,176,173020,2,0,P|53:147|36:130,1,75.0000028610231,12|0,1:2|0:0,0:0:0:0:
456,272,173299,6,0,P|472:328|472:376,1,100,8|0,1:2|0:0,0:0:0:0:
400,176,173439,2,0,P|371:226|337:260,1,100,8|0,1:2|0:0,0:0:0:0:
426,75,173578,2,0,P|362:91|298:83,1,100,8|0,1:0|0:0,0:0:0:0:
328,89,173962,6,0,L|402:179,1,112.500004291535,2|2,0:0|0:0,0:0:0:0:
399,175,174555,6,0,B|359:187|359:187|332:213|332:213|298:219|298:219|278:250|278:250|244:253|244:253|224:272,1,200,8|0,1:0|0:0,0:0:0:0:
232,263,175671,6,0,P|208:271|238:267,1,112.500004291535,8|0,0:3|0:0,0:0:0:0:
248,184,175950,6,0,P|200:184|168:208,1,75.0000028610231,4|0,1:0|0:0,0:0:0:0:
319,341,176090,1,0,1:0:0:0:
317,332,176160,1,0,1:0:0:0:
316,324,176229,2,0,P|368:344|408:344,1,75.0000028610231,10|0,1:0|0:0,0:0:0:0:
424,224,176369,2,0,P|474:201|503:173,1,75.0000028610231,2|0,1:0|0:0,0:0:0:0:
456,56,176508,5,10,1:0:0:0:
395,38,176578,1,8,1:3:0:0:
346,46,176648,1,8,1:3:0:0:
297,57,176718,1,8,1:3:0:0:
262,52,176788,2,8,L|266:95,1,37.5000014305115,10|8,1:0|1:3,1:3:0:0:
239,50,176857,1,8,1:3:0:0:
222,44,176927,1,8,1:3:0:0:
210,36,176997,1,8,1:3:0:0:
202,29,177067,2,8,P|157:39|127:55,1,75.0000028610231,8|8,1:3|1:3,1:3:0:0:
72,176,177206,1,8,1:3:0:0:
73,184,177276,1,8,1:3:0:0:
75,193,177346,5,10,1:0:0:0:
92,193,177415,1,8,1:3:0:0:
128,204,177485,1,10,1:0:0:0:
158,237,177555,1,8,1:3:0:0:
160,289,177625,2,0,P|233:310|355:228,1,225.000008583069,10|0,1:0|1:2,1:2:0:0:
232,40,177904,5,8,1:0:0:0:
242,120,177974,5,8,1:0:0:0:
255,199,178043,5,8,1:0:0:0:
268,278,178113,5,8,1:0:0:0:
279,355,178183,6,0,P|240:367|192:367,1,75.0000028610231,6|0,1:0|0:0,0:0:0:0:
88,269,178322,2,0,P|128:275|171:296,1,75.0000028610231,2|0,1:0|0:0,0:0:0:0:
351,234,178462,2,0,L|336:144,1,75.0000028610231,10|0,1:0|0:0,0:0:0:0:
432,56,178602,1,8,1:3:0:0:
429,48,178671,1,8,1:3:0:0:
426,42,178741,5,10,1:0:0:0:
412,38,178811,1,8,1:3:0:0:
386,47,178881,1,8,1:3:0:0:
352,56,178950,1,8,1:3:0:0:
310,41,179020,2,8,L|318:0,1,37.5000014305115,10|8,1:0|0:0,1:3:0:0:
254,25,179090,1,8,1:3:0:0:
196,39,179160,1,8,1:3:0:0:
160,102,179229,1,8,1:3:0:0:
156,183,179299,5,8,1:3:0:0:
158,195,179369,1,8,1:3:0:0:
160,207,179439,1,8,1:3:0:0:
162,221,179508,1,8,1:3:0:0:
164,233,179578,2,0,L|177:316,1,75.0000028610231,10|0,1:0|1:0,0:0:0:0:
417,295,179718,1,8,1:3:0:0:
408,297,179788,1,8,1:3:0:0:
397,298,179857,2,8,P|351:294|250:148,1,225.000008583069,10|8,1:0|1:3,1:3:0:0:
272,80,180136,1,0,0:0:0:0:
424,32,180276,2,0,P|432:88|432:112,1,75.0000028610231,2|0,1:2|0:0,0:0:0:0:
200,40,180415,6,0,P|152:40|112:56,1,75.0000028610231,6|0,1:0|0:0,0:0:0:0:
344,165,180555,1,0,1:0:0:0:
342,175,180625,1,0,1:0:0:0:
339,184,180695,2,0,P|387:184|427:168,1,75.0000028610231,10|0,1:0|0:0,0:0:0:0:
488,272,180834,2,0,L|476:353,1,75.0000028610231,2|0,1:0|0:0,0:0:0:0:
324,332,180974,5,10,1:0:0:0:
260,317,181043,1,8,1:3:0:0:
202,315,181113,1,8,1:3:0:0:
159,324,181183,1,8,1:3:0:0:
129,332,181253,2,8,L|124:373,1,37.5000014305115,10|0,1:0|0:0,1:0:0:0:
107,333,181322,1,8,1:3:0:0:
91,328,181392,1,8,1:3:0:0:
79,329,181462,1,8,1:3:0:0:
68,331,181532,2,8,P|56:278|54:255,1,75.0000028610231,8|8,1:3|1:3,1:3:0:0:
154,97,181671,1,0,1:0:0:0:
159,103,181741,1,0,1:0:0:0:
164,109,181811,5,2,1:0:0:0:
181,103,181881,1,8,1:3:0:0:
224,103,181950,1,2,1:0:0:0:
269,131,182020,1,8,1:3:0:0:
290,193,182090,2,0,P|278:277|174:368,1,225.000008583069,10|0,1:0|0:0,0:0:0:0:
64,334,182369,5,8,1:0:0:0:
51,253,182439,5,8,1:0:0:0:
37,175,182508,5,8,1:0:0:0:
23,95,182578,5,8,1:0:0:0:
8,16,182648,5,6,1:0:0:0:
256,33,182788,2,0,P|205:41|164:58,1,75.0000028610231,2|0,1:0|0:0,0:0:0:0:
132,170,182927,1,8,1:0:0:0:
363,75,183067,2,0,P|329:121|322:152,1,75.0000028610231,2|0,1:0|1:0,0:0:0:0:
352,315,183206,6,0,P|340:272|319:244,1,75.0000028610231,2|0,1:0|0:0,0:0:0:0:
198,272,183346,2,0,P|143:266|109:272,1,75.0000028610231,10|0,1:0|1:0,0:0:0:0:
33,360,183485,1,2,1:0:0:0:
71,86,183625,5,0,1:0:0:0:
74,96,183695,1,0,1:0:0:0:
78,105,183764,2,0,P|126:112|223:69,1,150.000005722046,10|0,1:0|1:0,1:0:0:0:
304,32,183974,1,0,0:0:0:0:
307,64,184043,6,0,L|316:141,1,75.0000028610231,10|0,1:0|0:0,0:0:0:0:
335,315,184183,1,10,1:0:0:0:
122,247,184322,1,0,1:0:0:0:
410,109,184462,6,0,L|386:191,1,75.0000028610231,10|0,1:0|1:0,1:0:0:0:
307,384,184602,1,10,1:0:0:0:
84,179,184741,6,0,B|98:134|139:141|179:145|180:228|109:252,1,187.5,4|0,1:2|0:0,0:0:0:0:
96,256,185020,1,2,0:0:0:0:
72,80,185160,2,0,P|128:64|200:96,1,125,2|0,0:0|0:0,0:0:0:0:
240,216,185439,2,0,P|291:242|368:224,1,125,2|0,0:0|0:0,0:0:0:0:
480,128,185718,1,2,0:0:0:0:
480,128,185857,2,0,P|432:136|416:152,1,62.5
360,336,185997,5,12,1:2:0:0:
360,336,186136,2,0,P|432:344|448:336,1,75.0000028610231,0|0,1:0|0:0,0:0:0:0:
240,104,186276,1,0,1:0:0:0:
240,104,186415,2,0,P|224:168|240:208,1,100,12|0,1:2|0:0,0:0:0:0:
480,128,186695,2,0,P|496:72|480:24,1,100,12|0,1:2|0:0,0:0:0:0:
208,32,186974,6,0,B|164:18|98:46|50:104|50:104|74:134|83:174|63:216,1,300,4|0,0:2|0:0,0:0:0:0:
16,280,187253,1,0,1:0:0:0:
256,336,187392,6,0,P|224:272|192:240,1,100,8|0,1:2|0:0,0:0:0:0:
16,280,187532,1,0,1:0:0:0:
384,173,187671,2,0,P|311:146|272:149,1,100,12|0,1:2|1:0,1:0:0:0:
16,280,187811,1,0,1:0:0:0:
433,0,187950,2,0,P|354:11|326:25,1,100,8|0,1:2|0:0,0:0:0:0:
16,280,188090,1,8,1:3:0:0:
19,289,188160,1,8,1:3:0:0:
22,298,188229,5,12,1:2:0:0:
22,298,188369,2,0,P|40:226|36:178,1,100,0|0,1:0|0:0,0:0:0:0:
13,53,188508,1,0,0:0:0:0:
13,53,188648,2,0,P|75:36|119:41,1,100,12|0,1:2|0:0,0:0:0:0:
231,250,188927,2,0,P|167:241|128:219,1,100,12|0,1:2|0:0,0:0:0:0:
325,92,189206,6,0,B|386:69|470:91|486:197|486:197|447:215|409:195,1,300,4|0,1:2|0:0,0:0:0:0:
331,179,189485,1,0,1:0:0:0:
55,130,189625,6,0,P|119:102|158:100,1,100,8|0,1:0|0:0,0:0:0:0:
331,179,189764,1,0,1:0:0:0:
136,278,189904,2,0,P|142:234|169:177,1,100,8|0,1:2|0:0,0:0:0:0:
331,179,190043,1,0,1:0:0:0:
278,332,190183,2,0,P|250:269|245:234,1,100,8|0,1:2|0:0,0:0:0:0:
331,179,190322,1,8,1:3:0:0:
341,178,190392,1,8,1:3:0:0:
350,176,190462,6,0,P|297:155|251:157,1,100,12|0,1:2|0:0,0:0:0:0:
186,364,190602,2,0,P|242:354|280:329,1,100,12|0,1:2|0:0,0:0:0:0:
253,63,190881,2,0,P|200:85|169:119,1,100,12|0,1:2|0:0,0:0:0:0:
341,384,191160,2,0,P|361:331|360:285,1,100,12|0,1:2|0:0,0:0:0:0:
80,46,191439,6,0,L|98:177,1,100,12|0,1:2|0:0,0:0:0:0:
426,102,191648,2,0,L|408:233,1,100,12|0,1:2|0:0,0:0:0:0:
119,119,191857,2,0,L|137:250,1,100,12|0,1:2|0:0,0:0:0:0:
386,171,192067,2,0,L|368:302,1,100,12|0,1:2|0:0,0:0:0:0:
92,197,192276,2,0,L|110:328,1,100,12|0,1:2|0:0,0:0:0:0:
412,242,192485,2,0,L|394:373,1,100,12|0,1:2|0:0,0:0:0:0:
141,317,192695,6,0,P|169:307|196:305,1,50,2|0,0:0|0:0,0:0:0:0:
323,223,192974,2,0,L|329:172,1,50,2|0,0:0|0:0,0:0:0:0:
264,49,193392,6,0,L|52:71,1,200,12|0,1:2|0:0,0:0:0:0:
