osu file format v14

[General]
AudioFilename: audio.mp3
AudioLeadIn: 0
PreviewTime: 72987
Countdown: 0
SampleSet: Soft
StackLeniency: 0.2
Mode: 0
LetterboxInBreaks: 0
WidescreenStoryboard: 0

[Editor]
Bookmarks: 30461,58287,86982,100921,121764,149590,177416,206112,220051,240894,268720
DistanceSpacing: 0.3
BeatDivisor: 4
GridSize: 4
TimelineZoom: 2.3

[Metadata]
Title:Sunrise
TitleUnicode:千年の暁 ~朱雀征魂戦~
Artist:Soken Masayoshi
ArtistUnicode:祖堅正慶
Creator:kanor
Version:The Scarlet Bloodletter
Source:ファイナルファンタジーXIV: 漆黒のヴィランズ
Tags:Square Enix ファイナルファンタジーXIV: 漆黒のヴィランズ 反逆者 Online Final Fantasy XIV SHADOWBRINGERS FFXIV Stormblood 狂乱の前奏曲 Prelude in Violet 英雄への鎮魂歌 A Requiem For Heroes 千年の暁 ~朱雀征魂戦~ Sennen no Akatsuki ~Suzaku Seikonsen~ Suzaku's boss battle theme game 南條愛乃 Nanjo Yoshino 祖堅正慶 Soken Masayoshi Original Soundtrack OST Garden Instrumental video game japanese
BeatmapID:2292493
BeatmapSetID:1097108

[Difficulty]
HPDrainRate:6
CircleSize:4.5
OverallDifficulty:8
ApproachRate:9
SliderMultiplier:1.7
SliderTickRate:1

[Events]
//Background and Video events
0,0,"suzaku.jpg",0,0
//Break Periods
2,114950,121215
//Storyboard Layer 0 (Background)
//Storyboard Layer 1 (Fail)
//Storyboard Layer 2 (Pass)
//Storyboard Layer 3 (Foreground)
//Storyboard Layer 4 (Overlay)
//Storyboard Sound Samples

[TimingPoints]
2686,434.782608695652,4,2,1,50,1,0
2686,-133.333333333333,4,2,1,50,0,0
6055,-133.333333333333,4,2,1,5,0,0
6164,-133.333333333333,4,2,1,50,0,0
9533,-133.333333333333,4,2,1,5,0,0
9642,-133.333333333333,4,2,1,50,0,0
13012,-133.333333333333,4,2,1,5,0,0
13120,-133.333333333333,4,2,1,50,0,0
16164,-133.333333333333,4,2,1,50,0,0
16490,-133.333333333333,4,2,1,5,0,0
16599,-100,4,2,1,55,0,0
19968,-100,4,2,1,5,0,0
20077,-100,4,2,1,55,0,0
23446,-100,4,2,1,5,0,0
23555,-100,4,2,1,55,0,0
26925,-100,4,2,1,5,0,0
27033,-100,4,2,1,55,0,0
30512,-66.6666666666667,4,2,2,60,0,0
30946,-83.3333333333333,4,2,2,60,0,0
31816,-66.6666666666667,4,2,2,60,0,0
32251,-83.3333333333333,4,2,2,60,0,0
38772,-66.6666666666667,4,2,2,60,0,0
39207,-83.3333333333333,4,2,2,60,0,0
43120,-66.6666666666667,4,2,2,60,0,0
43555,-83.3333333333333,4,2,2,60,0,0
44207,-66.6666666666667,4,2,2,60,0,0
44859,-83.3333333333333,4,2,2,60,0,0
45729,-66.6666666666667,4,2,2,60,0,0
46164,-83.3333333333333,4,2,2,60,0,0
47468,-66.6666666666667,4,2,2,60,0,0
47903,-83.3333333333333,4,2,2,60,0,0
51381,-66.6666666666667,4,2,2,60,0,0
51816,-83.3333333333333,4,2,2,60,0,0
52685,-66.6666666666667,4,2,2,60,0,0
53120,-83.3333333333333,4,2,2,60,0,0
58338,-133.333333333333,4,2,2,50,0,0
72685,-200,4,2,2,50,0,0
73120,434.782608695652,4,2,2,50,1,0
73989,-200,4,2,2,40,0,0
85293,-100,4,2,2,60,0,0
87033,-66.6666666666667,4,2,2,70,0,0
99206,-55.5555555555556,4,2,2,70,0,0
100946,-66.6666666666667,4,2,2,70,0,0
121815,-133.333333333333,4,2,1,50,0,0
125185,-133.333333333333,4,2,1,5,0,0
125293,-133.333333333333,4,2,1,50,0,0
128663,-133.333333333333,4,2,1,5,0,0
128772,-133.333333333333,4,2,1,50,0,0
132141,-133.333333333333,4,2,1,5,0,0
132250,-133.333333333333,4,2,1,50,0,0
135619,-133.333333333333,4,2,1,5,0,0
135728,-100,4,2,1,55,0,0
139098,-100,4,2,1,5,0,0
139206,-100,4,2,1,55,0,0
142576,-100,4,2,1,5,0,0
142685,-100,4,2,1,55,0,0
146054,-100,4,2,1,5,0,0
146163,-100,4,2,1,55,0,0
149641,-83.3333333333333,4,2,2,60,0,0
162250,-66.6666666666667,4,2,1,60,0,0
162685,-83.3333333333333,4,2,2,60,0,0
177467,-133.333333333333,4,2,2,50,0,0
189641,-100,4,2,2,50,0,0
191815,-200,4,2,2,50,0,0
192250,434.782608695652,4,2,2,60,1,0
193119,-200,4,2,2,40,0,0
204423,-100,4,2,2,60,0,0
206163,-66.6666666666667,4,2,2,70,0,0
232250,-55.5555555555556,4,2,2,70,0,0
233989,-333.333333333333,4,2,1,50,0,0
240945,-133.333333333333,4,2,1,50,0,0
244315,-133.333333333333,4,2,1,5,0,0
244423,-133.333333333333,4,2,1,50,0,0
247793,-133.333333333333,4,2,1,5,0,0
247902,-133.333333333333,4,2,1,50,0,0
251271,-133.333333333333,4,2,1,5,0,0
251380,-133.333333333333,4,2,1,50,0,0
254749,-133.333333333333,4,2,1,5,0,0
254858,-100,4,2,1,55,0,0
258228,-100,4,2,1,5,0,0
258336,-100,4,2,1,55,0,0
261706,-100,4,2,1,5,0,0
261815,-100,4,2,1,55,0,0
265184,-100,4,2,1,5,0,0
265293,-100,4,2,1,55,0,0
268771,-100,4,2,2,60,0,0
272141,-100,4,2,2,5,0,0

[Colours]
Combo1 : 244,200,95
Combo2 : 225,55,47
Combo3 : 166,66,32
Combo4 : 205,23,12
SliderTrackOverride : 35,35,35

[HitObjects]
64,192,2686,6,0,L|0:184,1,63.7500024318696,4|0,0:0|0:0,0:0:0:0:
80,264,3338,5,2,0:0:0:0:
0,184,3555,2,0,L|64:192,1,63.7500024318696,2|0,0:0|0:0,0:0:0:0:
80,264,4207,5,2,0:0:0:0:
64,192,4425,2,0,L|0:184,1,63.7500024318696,2|0,0:0|0:0,0:0:0:0:
80,264,5077,5,2,0:0:0:0:
0,184,5294,2,0,L|64:192,1,63.7500024318696,2|0,0:0|0:0,0:0:0:0:
80,264,5729,2,0,P|126:262|168:308,1,95.6250036478044,2|0,0:0|0:0,0:0:0:0:
172,312,6164,6,0,L|164:248,1,63.7500024318696,2|0,0:0|0:0,0:0:0:0:
244,328,6816,5,2,0:0:0:0:
164,248,7033,2,0,L|172:312,1,63.7500024318696,2|0,0:0|0:0,0:0:0:0:
244,328,7685,5,2,0:0:0:0:
172,312,7903,2,0,L|164:248,1,63.7500024318696,2|0,0:0|0:0,0:0:0:0:
244,328,8555,5,2,0:0:0:0:
164,248,8772,2,0,L|172:312,1,63.7500024318696,2|0,0:0|0:0,0:0:0:0:
316,368,9207,2,0,L|324:244,1,95.6250036478044,2|0,0:0|0:0,0:0:0:0:
324,252,9642,5,2,0:0:0:0:
396,272,9859,1,0,0:0:0:0:
324,252,10294,5,2,0:0:0:0:
376,200,10511,1,2,0:0:0:0:
452,216,10729,1,0,0:0:0:0:
324,252,11164,5,2,0:0:0:0:
304,180,11381,1,2,0:0:0:0:
356,123,11599,1,0,0:0:0:0:
324,252,12033,5,2,0:0:0:0:
251,233,12250,1,2,0:0:0:0:
228,159,12468,1,0,0:0:0:0:
260,20,12685,2,0,P|300:12|372:24,1,95.6250036478044,2|0,0:0|0:0,0:0:0:0:
384,28,13120,5,2,0:0:0:0:
472,8,13338,1,0,0:0:0:0:
384,28,13772,5,2,0:0:0:0:
444,94,13990,1,2,0:0:0:0:
404,156,14207,1,0,0:0:0:0:
404,156,14642,5,2,0:0:0:0:
308,136,14860,1,2,0:0:0:0:
270,208,15077,1,0,0:0:0:0:
270,208,15512,5,2,0:0:0:0:
152,232,15730,1,2,0:0:0:0:
109,145,15947,1,0,0:0:0:0:
164,4,16164,2,0,P|180:52|164:104,1,95.6250036478044,4|0,0:1|0:0,0:0:0:0:
109,145,16599,6,0,L|19:141,1,85,4|0,0:0|0:0,0:0:0:0:
0,72,17033,1,8,0:0:0:0:
9,208,17251,2,0,L|52:212,1,42.5,2|0,0:0|0:0,0:0:0:0:
196,272,17468,2,0,P|224:312|212:368,1,85,2|0,1:1|0:0,0:0:0:0:
152,368,17903,1,8,0:0:0:0:
116,276,18120,5,2,0:0:0:0:
120,260,18229,1,0,0:0:0:0:
124,244,18338,2,0,P|155:206|212:203,1,85,2|0,1:0|0:0,0:0:0:0:
344,200,18772,1,8,0:0:0:0:
268,168,18990,2,0,L|260:236,1,42.5,2|0,0:0|0:0,0:0:0:0:
256,148,19207,5,2,1:0:0:0:
220,44,19425,1,0,0:0:0:0:
368,28,19642,2,0,B|308:12|308:12|240:32,1,127.5,10|0,0:0|0:0,0:0:0:0:
304,84,20077,6,0,B|352:100|352:100|396:92,1,85,2|0,1:0|0:0,0:0:0:0:
512,56,20512,1,8,0:0:0:0:
436,0,20729,2,0,L|444:76,1,42.5,2|0,0:0|0:0,0:0:0:0:
512,132,20946,2,0,L|500:240,1,85,2|0,1:0|0:0,0:0:0:0:
340,228,21381,1,8,0:0:0:0:
408,168,21599,5,2,0:0:0:0:
408,168,21707,1,0,0:0:0:0:
408,168,21816,2,0,L|420:276,1,85,2|0,1:0|0:0,0:0:0:0:
432,380,22251,1,8,0:0:0:0:
472,304,22468,2,0,P|498:295|520:284,1,42.5,2|0,0:0|0:0,0:0:0:0:
368,332,22685,6,0,P|328:331|268:308,1,85,2|0,1:0|0:0,0:0:0:0:
48,232,23120,2,0,P|24:264|44:352,1,127.5,10|0,0:0|0:0,0:0:0:0:
60,360,23555,5,2,1:0:0:0:
120,320,23772,1,0,0:0:0:0:
188,348,23990,1,8,0:0:0:0:
120,320,24207,2,0,L|112:268,1,42.5,2|0,0:0|0:0,0:0:0:0:
144,116,24425,5,2,1:0:0:0:
78,160,24642,1,0,0:0:0:0:
3,129,24860,1,8,0:0:0:0:
64,48,25077,2,0,L|72:100,1,42.5,2|0,0:0|0:0,0:0:0:0:
164,208,25294,6,0,P|204:184|260:192,1,85,2|0,1:0|0:0,0:0:0:0:
376,264,25729,1,8,0:0:0:0:
392,336,25946,1,2,0:0:0:0:
360,340,26055,1,0,0:0:0:0:
332,320,26164,1,2,1:0:0:0:
320,204,26381,1,0,0:0:0:0:
492,264,26599,2,0,P|480:204|520:140,1,127.5,10|0,0:0|0:0,0:0:0:0:
512,80,27033,5,2,1:0:0:0:
444,28,27251,1,0,0:0:0:0:
360,32,27468,1,8,0:0:0:0:
312,96,27685,5,2,0:0:0:0:
304,116,27794,1,0,0:0:0:0:
304,136,27903,1,2,1:0:0:0:
324,236,28120,1,0,0:0:0:0:
240,308,28338,1,8,0:0:0:0:
112,288,28555,2,0,L|108:232,1,42.5,2|0,0:0|0:0,0:0:0:0:
16,68,28772,6,0,P|0:104|16:164,1,85,2|0,1:0|0:0,0:0:0:0:
212,232,29207,2,0,P|228:196|212:136,1,85,2|2,1:0|0:0,0:0:0:0:
152,140,29533,2,0,L|160:204,1,42.5,2|0,0:0|1:0,0:0:0:0:
328,344,29859,1,10,0:0:0:0:
324,328,29968,1,2,0:0:0:0:
320,312,30077,2,0,L|380:320,1,42.5,10|8,0:0|0:0,0:0:0:0:
512,232,30294,2,0,L|452:240,1,42.5,10|8,0:0|0:0,0:0:0:0:
285,205,30512,6,0,B|363:213|363:213|415:177|415:177|362:173,1,191.250007295609,6|0,0:1|0:0,0:0:0:0:
456,5,30946,2,0,B|427:45|427:45|452:110,1,101.999996887207,8|0,0:0|0:0,0:0:0:0:
456,106,31272,2,0,L|524:110,1,50.9999984436036,2|0,0:0|0:0,0:0:0:0:
342,33,31490,1,0,0:0:0:0:
336,18,31599,2,0,L|261:13,1,50.9999984436036,2|0,0:0|0:0,0:0:0:0:
180,191,31816,5,8,0:0:0:0:
192,200,31925,2,0,P|260:170|244:101,1,127.500004863739,2|0,0:0|0:0,0:0:0:0:
249,111,32251,1,2,0:0:0:0:
32,12,32468,5,2,0:0:0:0:
8,88,32685,1,8,0:0:0:0:
176,119,32903,5,0,0:0:0:0:
182,99,33012,1,2,0:0:0:0:
73,186,33229,5,0,0:0:0:0:
67,206,33338,1,2,0:0:0:0:
256,262,33555,5,8,0:0:0:0:
262,242,33664,2,0,P|243:201|174:218,1,101.999996887207,2|0,0:0|0:0,0:0:0:0:
176,209,33990,5,2,0:0:0:0:
241,335,34207,1,2,0:0:0:0:
378,293,34425,1,8,0:0:0:0:
318,163,34642,1,0,0:0:0:0:
315,158,34751,1,2,0:0:0:0:
312,153,34859,5,0,0:0:0:0:
391,13,35077,1,2,0:0:0:0:
455,67,35294,1,8,0:0:0:0:
464,78,35403,2,0,B|436:102|436:102|366:88,1,101.999996887207,2|0,0:0|0:0,0:0:0:0:
351,84,35729,5,2,0:0:0:0:
512,150,35946,1,2,0:0:0:0:
437,295,36164,2,0,B|401:257|401:257|417:209,1,101.999996887207,8|0,0:0|0:0,0:0:0:0:
424,191,36490,2,0,L|303:209,1,101.999996887207,2|0,0:0|0:0,0:0:0:0:
308,194,36816,2,0,L|242:205,1,50.9999984436036,2|0,0:0|0:0,0:0:0:0:
97,105,37033,1,8,0:0:0:0:
114,102,37142,1,2,0:0:0:0:
131,99,37251,1,2,0:0:0:0:
148,97,37359,1,2,0:0:0:0:
165,95,37468,6,0,B|190:145|190:145|155:208,1,101.999996887207,2|2,0:0|0:0,0:0:0:0:
58,347,37903,2,0,B|34:302|34:302|56:256,1,101.999996887207,8|0,0:0|0:0,0:0:0:0:
69,242,38229,2,0,B|110:249|110:249|124:260|124:260|166:265,1,101.999996887207,2|0,0:0|0:0,0:0:0:0:
174,280,38555,2,0,L|230:287,1,50.9999984436036,2|0,0:0|0:0,0:0:0:0:
339,136,38772,5,8,0:0:0:0:
327,124,38881,2,0,P|268:132|247:198,1,127.500004863739,2|0,0:0|0:0,0:0:0:0:
257,202,39207,1,2,0:0:0:0:
444,336,39425,5,2,0:0:0:0:
468,260,39642,1,8,0:0:0:0:
342,204,39860,5,0,0:0:0:0:
336,224,39969,1,2,0:0:0:0:
445,137,40186,5,0,0:0:0:0:
451,117,40295,1,2,0:0:0:0:
262,61,40512,5,8,0:0:0:0:
256,81,40621,2,0,P|275:122|344:105,1,101.999996887207,2|0,0:0|0:0,0:0:0:0:
342,114,40947,5,2,0:0:0:0:
200,9,41164,2,0,L|99:24,1,101.999996887207,2|8,0:0|0:0,0:0:0:0:
82,13,41490,2,0,B|50:56|50:56|74:111,1,101.999996887207,2|0,0:0|0:0,0:0:0:0:
80,118,41816,1,2,0:0:0:0:
184,225,42033,2,0,B|155:182|155:182|173:135,1,101.999996887207,2|8,0:0|0:0,0:0:0:0:
182,119,42359,1,2,0:0:0:0:
340,148,42577,1,0,0:0:0:0:
350,157,42685,6,0,B|324:180|324:180|244:171,1,101.999996887207,2|2,0:0|0:0,0:0:0:0:
101,244,43120,2,0,B|211:216|171:302|286:274,1,191.250007295609,8|0,0:0|0:0,0:0:0:0:
301,266,43555,2,0,B|283:316|283:316|320:373,1,101.999996887207,2|0,0:0|0:0,0:0:0:0:
382,315,43881,2,0,L|392:280,1,25.4999992218018,2|0,0:0|0:0,0:0:0:0:
378,302,43990,2,0,L|396:236,1,50.9999984436036,2|0,0:0|0:0,0:0:0:0:
496,123,44207,1,2,0:0:0:0:
512,142,44316,1,2,0:0:0:0:
501,165,44425,6,0,B|416:178|416:178|364:151|364:151|410:143,1,191.250007295609,6|0,0:1|0:0,0:0:0:0:
292,0,44859,2,0,B|324:41|324:41|293:99,1,101.999996887207,8|0,0:0|0:0,0:0:0:0:
286,93,45185,2,0,L|221:105,1,50.9999984436036,2|0,0:0|0:0,0:0:0:0:
136,28,45403,1,0,0:0:0:0:
148,35,45512,2,0,L|198:26,1,50.9999984436036,2|0,0:0|0:0,0:0:0:0:
221,190,45729,5,8,0:0:0:0:
206,200,45838,2,0,P|149:188|148:114,1,127.500004863739,2|0,0:0|0:0,0:0:0:0:
151,117,46164,5,2,0:0:0:0:
30,227,46381,1,2,0:0:0:0:
107,374,46599,2,0,B|138:331|138:331|121:286,1,101.999996887207,8|0,0:0|0:0,0:0:0:0:
117,270,46925,2,0,B|162:262|162:262|169:253|169:253|217:246,1,101.999996887207,2|0,0:0|0:0,0:0:0:0:
224,261,47251,2,0,L|285:249,1,50.9999984436036,2|0,0:0|0:0,0:0:0:0:
433,272,47468,5,8,0:0:0:0:
440,287,47577,2,0,P|401:334|315:304,1,127.500004863739,2|0,0:0|0:0,0:0:0:0:
332,315,47903,5,2,0:0:0:0:
459,190,48120,1,2,0:0:0:0:
288,135,48338,1,8,0:0:0:0:
415,10,48555,1,0,0:0:0:0:
416,16,48664,1,2,0:0:0:0:
417,22,48772,5,0,0:0:0:0:
288,135,48990,1,2,0:0:0:0:
356,191,49207,1,8,0:0:0:0:
364,180,49316,2,0,B|383:151|383:151|354:74,1,101.999996887207,2|0,0:0|0:0,0:0:0:0:
353,74,49642,5,2,0:0:0:0:
230,200,49859,1,2,0:0:0:0:
196,25,50077,1,8,0:0:0:0:
73,151,50294,5,0,0:0:0:0:
92,144,50403,1,2,0:0:0:0:
230,200,50620,5,0,0:0:0:0:
211,207,50729,1,2,0:0:0:0:
65,338,50946,5,8,0:0:0:0:
89,330,51054,1,2,0:0:0:0:
113,322,51163,1,0,0:0:0:0:
137,314,51272,1,2,0:0:0:0:
162,307,51381,6,0,B|253:325|253:325|296:298|296:298|231:285,1,191.250007295609,6|0,0:0|0:0,0:0:0:0:
215,110,51816,2,0,B|199:158|199:158|234:205,1,101.999996887207,8|0,0:0|0:0,0:0:0:0:
248,198,52142,2,0,L|309:206,1,50.9999984436036,2|0,0:0|0:0,0:0:0:0:
140,73,52359,1,0,0:0:0:0:
128,81,52468,2,0,L|61:72,1,50.9999984436036,2|0,0:0|0:0,0:0:0:0:
247,16,52685,5,8,0:0:0:0:
262,10,52794,2,0,P|314:42|306:109,1,127.500004863739,2|0,0:0|0:0,0:0:0:0:
298,115,53120,5,2,0:0:0:0:
474,37,53338,1,2,0:0:0:0:
418,216,53555,2,0,B|387:176|387:176|406:129,1,101.999996887207,8|0,0:0|0:0,0:0:0:0:
419,120,53881,1,2,0:0:0:0:
432,113,53990,2,0,L|488:123,1,50.9999984436036,0|0,0:0|0:0,0:0:0:0:
338,245,54207,2,0,L|287:236,1,50.9999984436036,2|0,0:0|0:0,0:0:0:0:
122,346,54425,5,8,0:0:0:0:
155,357,54533,1,2,0:0:0:0:
190,350,54642,1,0,0:0:0:0:
216,325,54751,1,0,0:0:0:0:
220,289,54859,6,0,B|195:261|195:261|209:177,1,101.999996887207,2|2,0:0|0:0,0:0:0:0:
26,99,55294,1,8,0:0:0:0:
21,113,55403,2,0,B|89:92|89:92|122:111,1,101.999996887207,2|0,0:0|0:0,0:0:0:0:
129,115,55729,2,0,L|110:229,1,101.999996887207,2|2,0:0|0:0,0:0:0:0:
223,113,56164,5,8,0:0:0:0:
227,87,56272,1,2,0:0:0:0:
231,62,56381,1,0,0:0:0:0:
235,37,56490,1,2,0:0:0:0:
239,12,56599,6,0,L|179:30,1,50.9999984436036,2|0,0:0|0:0,0:0:0:0:
129,115,56816,2,0,L|69:133,1,50.9999984436036,2|0,0:0|0:0,0:0:0:0:
373,81,57033,2,0,L|313:99,1,50.9999984436036,8|0,0:0|0:0,0:0:0:0:
263,184,57251,2,0,L|203:202,1,50.9999984436036,2|0,0:0|0:0,0:0:0:0:
413,285,57468,6,0,B|432:236|432:236|402:193,1,101.999996887207,2|2,0:0|0:0,0:0:0:0:
395,183,57794,1,0,0:0:0:0:
384,172,57903,2,0,L|368:234,1,50.9999984436036,8|2,0:0|0:0,0:0:0:0:
211,351,58120,2,0,L|224:302,1,50.9999984436036,0|2,0:0|0:0,0:0:0:0:
297,261,58338,5,6,0:0:0:0:
297,261,58555,1,2,0:0:0:0:
352,328,58772,2,0,L|268:332,1,63.7500024318696,0|0,0:0|0:0,0:0:0:0:
416,360,59207,2,0,P|492:361|500:312,1,127.500004863739,8|0,0:0|0:0,0:0:0:0:
502,323,59859,1,2,0:0:0:0:
480,192,60077,6,0,B|469:157|459:122|456:106|523:94|521:127|505:154,2,127.500004863739,2|2|8,0:0|0:0|0:0,0:0:0:0:
480,192,61381,2,0,L|476:272,1,63.7500024318696,0|0,0:0|0:0,0:0:0:0:
344,152,61816,5,2,0:0:0:0:
312,88,62033,1,2,0:0:0:0:
348,24,62251,2,0,P|376:12|420:20,1,63.7500024318696,0|0,0:0|0:0,0:0:0:0:
292,96,62685,2,0,B|216:123|250:62|166:78,1,127.500004863739,8|0,0:0|0:0,0:0:0:0:
24,24,63338,5,2,0:0:0:0:
96,8,63555,2,0,P|96:38|104:140,1,127.500004863739,2|0,0:0|0:0,0:0:0:0:
103,135,64425,5,8,0:0:0:0:
40,264,64642,1,2,0:0:0:0:
8,200,64859,2,0,P|24:196|80:204,1,63.7500024318696,0|0,0:0|0:0,0:0:0:0:
208,308,65294,6,0,L|216:236,1,63.7500024318696,6|2,0:0|0:0,0:0:0:0:
208,308,65946,1,0,0:0:0:0:
132,316,66164,2,0,B|50:307|87:360|-10:340,1,127.500004863739,8|0,0:0|0:0,0:0:0:0:
132,316,66816,1,2,0:0:0:0:
208,308,67033,5,0,0:0:0:0:
276,340,67468,1,0,0:0:0:0:
348,364,67903,5,8,0:0:0:0:
420,336,68120,1,2,0:0:0:0:
476,284,68338,1,0,0:0:0:0:
496,200,68555,1,0,0:0:0:0:
492,64,68772,6,0,L|500:136,1,63.7500024318696,6|2,0:0|0:0,0:0:0:0:
496,200,69425,1,0,0:0:0:0:
492,64,69642,2,0,L|500:136,1,63.7500024318696,8|2,0:0|0:0,0:0:0:0:
312,80,70077,2,0,L|320:8,1,63.7500024318696,0|2,0:0|0:0,0:0:0:0:
396,136,70512,5,4,0:0:0:0:
412,60,70729,1,0,0:0:0:0:
248,160,70946,5,0,0:0:0:0:
232,84,71163,1,8,0:0:0:0:
312,272,71381,5,0,0:0:0:0:
320,232,71490,1,2,0:0:0:0:
328,196,71598,1,0,0:0:0:0:
264,336,71816,5,0,0:0:0:0:
180,296,72033,1,0,0:0:0:0:
160,296,72142,1,2,0:0:0:0:
136,296,72251,5,8,0:0:0:0:
84,356,72468,1,8,0:0:0:0:
16,324,72685,2,0,P|13:303|8:232,1,85,2|4,0:0|0:3,0:0:0:0:
315,139,73989,5,0,0:0:0:0:
512,148,74641,5,2,0:0:0:0:
464,96,74859,2,0,L|476:-20,2,85,2|0|8,0:0|0:0|0:3,0:0:0:0:
416,264,76598,6,0,L|428:380,1,85,2|0,0:0|0:0,0:0:0:0:
425,348,77467,1,8,0:3:0:0:
352,224,78120,5,2,0:0:0:0:
288,256,78337,2,0,P|244:268|188:252,1,85,2|0,0:0|0:0,0:0:0:0:
16,284,79206,5,8,0:3:0:0:
32,360,79641,1,8,0:3:0:0:
16,284,80076,2,0,B|32:252|16:220|16:220|32:188|32:188|28:160|36:104,1,170,2|8,0:0|0:3,0:0:0:0:
34,120,81598,5,2,0:0:0:0:
104,96,81815,2,0,B|148:108|148:108|200:88,2,85,2|0|8,0:0|0:0|0:3,0:0:0:0:
268,40,83120,1,2,0:0:0:0:
268,40,83554,6,0,L|276:132,1,85,2|0,0:0|0:0,0:0:0:0:
103,277,84424,2,0,L|95:369,1,85,8|0,0:3|0:0,0:0:0:0:
95,361,85076,1,8,0:3:0:0:
16,104,85293,6,0,P|44:136|48:196,1,85,2|0,0:0|0:0,0:0:0:0:
284,312,85728,2,0,P|252:340|191:344,1,85,2|0,0:0|0:0,0:0:0:0:
173,228,86163,2,0,P|197:193|200:152,1,85,2|0,0:0|0:0,0:0:0:0:
172,88,86489,1,2,0:0:0:0:
199,151,86598,2,0,L|275:131,1,42.5,0|2,0:0|0:0,0:0:0:0:
320,32,86815,2,0,L|400:40,1,42.5,0|2,0:0|0:0,0:0:0:0:
398,244,87033,6,0,B|356:227|356:227|343:138,1,127.500004863739,6|0,0:1|0:0,0:0:0:0:
434,100,87359,1,0,0:0:0:0:
424,108,87467,2,0,L|436:187,1,63.7500024318696,8|0,0:0|0:0,0:0:0:0:
497,316,87685,1,0,0:0:0:0:
507,309,87793,1,0,0:0:0:0:
503,296,87902,6,0,B|437:278|462:349|361:322,1,127.500004863739,2|0,0:0|0:0,0:0:0:0:
292,303,88228,1,0,0:0:0:0:
304,299,88337,2,0,L|292:372,1,63.7500024318696,8|0,0:0|0:0,0:0:0:0:
111,315,88554,1,2,0:0:0:0:
100,307,88663,1,0,0:0:0:0:
99,294,88772,6,0,P|157:222|257:239,1,191.250007295609,2|0,0:0|0:0,0:0:0:0:
344,192,89206,5,8,0:0:0:0:
333,199,89315,2,0,B|307:167|307:167|324:73,1,127.500004863739,0|0,0:0|0:0,0:0:0:0:
329,65,89641,6,0,L|399:53,1,63.7500024318696,2|0,0:0|0:0,0:0:0:0:
158,0,89859,2,0,L|95:10,1,63.7500024318696,0|0,0:0|0:0,0:0:0:0:
231,93,90076,2,0,L|241:30,1,63.7500024318696,8|0,0:0|0:0,0:0:0:0:
136,96,90293,2,0,L|125:158,1,63.7500024318696,2|0,0:0|0:0,0:0:0:0:
247,231,90511,6,0,P|186:228|132:283,1,127.500004863739,2|0,0:0|0:0,0:0:0:0:
102,345,90837,1,0,0:0:0:0:
97,357,90946,2,0,L|176:345,1,63.7500024318696,8|0,0:0|0:0,0:0:0:0:
286,322,91163,1,0,0:0:0:0:
273,320,91272,1,0,0:0:0:0:
260,318,91380,6,0,L|247:393,1,63.7500024318696,2|0,0:0|0:0,0:0:0:0:
393,241,91598,1,0,0:0:0:0:
380,239,91707,1,0,0:0:0:0:
367,237,91815,2,0,L|354:312,1,63.7500024318696,8|0,0:0|0:0,0:0:0:0:
468,196,92033,1,2,0:0:0:0:
470,183,92141,1,0,0:0:0:0:
472,170,92250,6,0,P|407:103|315:112,1,191.250007295609,2|0,0:0|0:0,0:0:0:0:
243,31,92685,5,8,0:0:0:0:
240,43,92793,2,0,B|314:24,1,63.7500024318696,0|0,0:0|0:0,0:0:0:0:
209,181,93011,5,0,0:0:0:0:
217,190,93120,2,0,L|233:107,1,63.7500024318696,2|0,0:0|0:0,0:0:0:0:
146,34,93337,2,0,L|133:96,1,63.7500024318696,0|2,0:0|0:0,0:0:0:0:
37,225,93554,1,8,0:0:0:0:
13,215,93663,1,2,0:0:0:0:
0,192,93772,1,0,0:0:0:0:
3,166,93880,1,2,0:0:0:0:
18,145,93989,6,0,B|93:132|60:192|152:178,1,127.500004863739,6|0,0:0|0:0,0:0:0:0:
230,196,94315,1,0,0:0:0:0:
217,190,94424,2,0,L|206:260,1,63.7500024318696,8|0,0:0|0:0,0:0:0:0:
363,384,94641,1,0,0:0:0:0:
375,382,94750,1,0,0:0:0:0:
387,379,94859,6,0,P|392:313|337:282,1,127.500004863739,2|0,0:0|0:0,0:0:0:0:
207,252,95185,1,0,0:0:0:0:
204,264,95293,2,0,L|266:251,1,63.7500024318696,8|0,0:0|0:0,0:0:0:0:
337,194,95511,1,2,0:0:0:0:
326,186,95620,1,0,0:0:0:0:
316,177,95728,6,0,B|383:163|383:163|438:180|438:180|520:164,1,191.250007295609,2|0,0:0|0:0,0:0:0:0:
504,87,96163,5,8,0:0:0:0:
512,77,96272,2,0,P|503:35|409:40,1,127.500004863739,2|0,0:0|0:0,0:0:0:0:
418,26,96598,6,0,L|406:95,1,63.7500024318696,2|0,0:0|0:0,0:0:0:0:
236,202,96815,2,0,L|248:139,1,63.7500024318696,0|0,0:0|0:0,0:0:0:0:
328,45,97033,2,0,L|252:56,1,63.7500024318696,8|0,0:0|0:0,0:0:0:0:
96,167,97250,2,0,L|159:157,1,63.7500024318696,2|0,0:0|0:0,0:0:0:0:
321,250,97467,5,2,0:0:0:0:
315,238,97576,2,0,P|253:237|212:284,1,127.500004863739
125,329,97902,1,8,0:0:0:0:
130,317,98011,2,0,P|191:316|232:363,1,127.500004863739
318,384,98337,5,2,0:0:0:0:
336,379,98446,1,0,0:0:0:0:
354,373,98554,1,0,0:0:0:0:
372,367,98663,1,0,0:0:0:0:
390,360,98772,2,0,L|402:285,1,63.7500024318696,8|0,0:0|0:0,0:0:0:0:
319,125,98989,2,0,L|329:62,1,63.7500024318696,2|0,0:0|0:0,0:0:0:0:
451,232,99206,5,4,0:0:0:0:
512,177,99315,2,0,B|482:145|482:145|414:137|384:181,1,152.999995330811,2|0,0:0|0:0,0:0:0:0:
373,198,99641,2,0,L|284:216,1,76.4999976654053,10|0,0:0|0:0,0:0:0:0:
148,319,99859,2,0,L|73:334,1,76.4999976654053,2|0,0:0|0:0,0:0:0:0:
233,356,100076,6,0,B|185:325|185:325|203:229,1,152.999995330811,6|0,0:0|0:0,0:0:0:0:
115,152,100402,1,2,0:0:0:0:
128,159,100511,2,0,L|112:242,1,76.4999976654053,8|2,0:0|0:0,0:0:0:0:
40,136,100728,1,0,0:0:0:0:
31,123,100837,1,2,0:0:0:0:
28,105,100946,6,0,B|60:101|76:73|76:73|112:61|184:93,1,127.500004863739,6|0,0:1|0:0,0:0:0:0:
380,108,101272,1,0,0:0:0:0:
380,108,101380,2,0,P|324:100|324:20,1,127.500004863739,8|0,0:0|0:0,0:0:0:0:
208,8,101706,5,0,0:0:0:0:
216,4,101815,2,0,B|203:33|226:64|226:64|230:100|201:141,1,127.500004863739,2|0,0:0|0:0,0:0:0:0:
44,216,102141,1,0,0:0:0:0:
59,215,102250,2,0,P|99:215|127:227,1,63.7500024318696,8|0,0:0|0:0,0:0:0:0:
108,376,102467,2,0,P|76:377|46:367,1,63.7500024318696,2|0,0:0|0:0,0:0:0:0:
12,296,102685,6,0,B|41:308|72:286|72:286|108:282|152:314,1,127.500004863739,2|0,0:0|0:0,0:0:0:0:
292,264,103011,1,0,0:0:0:0:
296,252,103119,2,0,P|216:200|175:246,1,127.500004863739,8|0,0:0|0:0,0:0:0:0:
208,344,103446,1,0,0:0:0:0:
220,348,103554,6,0,L|212:276,1,63.7500024318696,2|0,0:0|0:0,0:0:0:0:
503,330,103772,2,0,L|468:384,1,63.7500024318696,0|0,0:0|0:0,0:0:0:0:
304,300,103989,2,0,L|308:227,1,63.7500024318696,8|0,0:0|0:0,0:0:0:0:
407,254,104206,2,0,L|392:316,1,63.7500024318696,2|0,0:0|0:0,0:0:0:0:
504,64,104424,6,0,B|416:72|484:8|332:32,1,127.500004863739,2|0,0:0|0:0,0:0:0:0:
400,100,104750,1,0,0:0:0:0:
508,56,104859,2,0,B|420:64|488:0|336:24,1,127.500004863739,8|0,0:0|0:0,0:0:0:0:
400,100,105185,1,0,0:0:0:0:
512,48,105293,6,0,B|424:56|492:-8|340:16,1,127.500004863739,2|0,0:0|0:0,0:0:0:0:
400,100,105619,1,0,0:0:0:0:
388,96,105728,2,0,L|384:188,1,63.7500024318696,8|0,0:0|0:0,0:0:0:0:
272,276,105946,2,0,L|274:339,1,63.7500024318696,2|0,0:0|0:0,0:0:0:0:
364,232,106163,6,0,B|332:228|316:200|316:200|280:188|208:220,1,127.500004863739,2|0,0:0|0:0,0:0:0:0:
140,220,106489,5,0,0:0:0:0:
128,224,106598,1,8,0:0:0:0:
116,228,106706,2,0,B|80:236|56:212|56:212|24:248|-24:232,1,127.500004863739
64,360,107033,6,0,B|72:320|72:320|56:268,1,63.7500024318696,2|0,0:0|0:0,0:0:0:0:
38,88,107250,2,0,B|28:120|28:120|36:152,1,63.7500024318696,0|2,0:0|0:0,0:0:0:0:
140,220,107467,5,8,0:0:0:0:
150,196,107576,1,2,0:0:0:0:
173,183,107685,1,0,0:0:0:0:
199,186,107793,1,2,0:0:0:0:
220,201,107902,6,0,B|256:276|196:248|224:340,1,127.500004863739,6|0,0:0|0:0,0:0:0:0:
280,364,108228,1,0,0:0:0:0:
284,348,108337,1,8,0:0:0:0:
408,324,108554,5,0,0:0:0:0:
400,348,108663,1,0,0:0:0:0:
413,375,108772,2,0,P|479:380|510:325,1,127.500004863739,2|0,0:0|0:0,0:0:0:0:
464,128,109098,1,0,0:0:0:0:
452,125,109206,2,0,L|465:187,1,63.7500024318696,8|0,0:0|0:0,0:0:0:0:
492,264,109424,1,2,0:0:0:0:
500,256,109533,1,0,0:0:0:0:
508,248,109641,6,0,B|452:264|452:264|392:224|392:224|312:244,1,191.250007295609,2|0,0:0|0:0,0:0:0:0:
188,0,110076,2,0,P|146:9|151:103,1,127.500004863739,8|0,0:0|0:0,0:0:0:0:
136,152,110402,1,0,0:0:0:0:
127,162,110511,6,0,L|196:150,1,63.7500024318696
332,238,110728,2,0,L|395:226,1,63.7500024318696,0|0,0:0|0:0,0:0:0:0:
256,264,110946,2,0,L|245:188,1,63.7500024318696,8|0,0:0|0:0,0:0:0:0:
296,88,111163,2,0,L|306:151,1,63.7500024318696,2|0,0:0|0:0,0:0:0:0:
352,324,111380,6,0,B|264:308|312:384|184:340,1,127.500004863739,2|0,0:0|0:0,0:0:0:0:
128,268,111706,1,0,0:0:0:0:
128,268,111815,2,0,B|160:272|164:296|164:296|148:324|148:324|156:370,1,127.500004863739,8|2,0:0|0:0,0:0:0:0:
76,380,112141,5,0,0:0:0:0:
76,380,112250,2,0,B|44:376|40:352|40:352|56:324|56:324|47:277,1,127.500004863739,2|0,0:0|0:0,0:0:0:0:
0,192,112576,1,0,0:0:0:0:
4,164,112685,1,8,0:0:0:0:
7,131,112793,2,0,P|67:147|119:79,1,127.500004863739,2|0,0:0|0:0,0:0:0:0:
264,80,113119,5,6,0:0:0:0:
212,28,113228,2,0,B|179:53|179:53|175:109|219:137,1,127.500004863739,2|0,0:0|0:0,0:0:0:0:
113,108,113554,2,0,P|103:141|101:180,1,63.7500024318696,10|0,0:0|0:0,0:0:0:0:
208,292,113772,2,0,P|217:325|220:364,1,63.7500024318696,2|0,0:0|0:0,0:0:0:0:
144,240,113989,6,0,B|183:204|183:204|256:217,1,127.500004863739,6|0,0:0|0:0,0:0:0:0:
324,188,114315,1,2,0:0:0:0:
384,232,114424,2,0,P|413:235|460:208,1,63.7500024318696,8|2,0:0|0:0,0:0:0:0:
504,64,114641,1,0,0:0:0:0:
492,32,114750,1,2,0:0:0:0:
412,227,121815,6,0,L|404:291,1,63.7500024318696,4|0,0:0|0:0,0:0:0:0:
484,211,122467,5,2,0:0:0:0:
404,291,122684,2,0,L|412:227,1,63.7500024318696,2|0,0:0|0:0,0:0:0:0:
484,211,123336,5,2,0:0:0:0:
412,227,123554,2,0,L|404:291,1,63.7500024318696,2|0,0:0|0:0,0:0:0:0:
484,211,124206,5,2,0:0:0:0:
404,291,124423,2,0,L|412:227,1,63.7500024318696,2|0,0:0|0:0,0:0:0:0:
436,115,124858,2,0,P|400:145|353:143,1,95.6250036478044,2|0,0:0|0:0,0:0:0:0:
333,131,125293,6,0,L|269:139,1,63.7500024318696,2|0,0:0|0:0,0:0:0:0:
371,58,125946,5,2,0:0:0:0:
269,139,126162,2,0,L|333:131,1,63.7500024318696,2|0,0:0|0:0,0:0:0:0:
371,58,126816,5,2,0:0:0:0:
333,131,127032,2,0,L|269:139,1,63.7500024318696,2|0,0:0|0:0,0:0:0:0:
371,58,127685,5,2,0:0:0:0:
269,139,127901,2,0,L|333:131,1,63.7500024318696,2|0,0:0|0:0,0:0:0:0:
309,0,128336,2,0,L|206:13,1,95.6250036478044,2|0,0:0|0:0,0:0:0:0:
196,16,128771,5,2,0:0:0:0:
155,80,128988,1,0,0:0:0:0:
155,80,129423,5,2,0:0:0:0:
114,144,129640,1,2,0:0:0:0:
73,208,129858,1,0,0:0:0:0:
73,208,130293,5,2,0:0:0:0:
114,144,130510,1,2,0:0:0:0:
155,80,130728,1,0,0:0:0:0:
155,80,131162,5,2,0:0:0:0:
205,137,131379,1,2,0:0:0:0:
281,145,131597,1,0,0:0:0:0:
413,34,131814,2,0,P|369:29|328:62,1,95.6250036478044,2|0,0:0|0:0,0:0:0:0:
325,76,132249,5,2,0:0:0:0:
363,142,132467,1,0,0:0:0:0:
495,65,132901,5,2,0:0:0:0:
363,142,133119,1,2,0:0:0:0:
431,175,133336,1,0,0:0:0:0:
299,252,133771,5,2,0:0:0:0:
431,175,133989,1,2,0:0:0:0:
363,142,134206,1,0,0:0:0:0:
495,65,134641,5,2,0:0:0:0:
363,142,134859,1,2,0:0:0:0:
431,175,135076,1,0,0:0:0:0:
299,252,135293,2,0,L|189:227,1,95.6250036478044,4|0,0:1|0:0,0:0:0:0:
187,234,135728,6,0,P|187:273|149:308,1,85,4|0,0:0|0:0,0:0:0:0:
123,178,136162,1,8,0:0:0:0:
14,241,136380,2,0,L|59:237,1,42.5,2|0,0:0|0:0,0:0:0:0:
189,120,136597,2,0,L|282:109,1,85,2|0,1:1|0:0,0:0:0:0:
422,163,137032,1,8,0:0:0:0:
396,16,137249,5,2,0:0:0:0:
383,19,137358,1,0,0:0:0:0:
370,22,137467,2,0,L|357:129,1,85,2|0,1:0|0:0,0:0:0:0:
502,195,137901,1,8,0:0:0:0:
502,195,138119,2,0,L|506:152,1,42.5,2|0,0:0|0:0,0:0:0:0:
366,283,138336,5,2,1:0:0:0:
422,163,138554,1,0,0:0:0:0:
504,290,138771,2,0,B|470:265|470:265|369:281,1,127.5,10|0,0:0|0:0,0:0:0:0:
366,283,139206,6,0,P|369:324|342:356,1,85,2|0,1:0|0:0,0:0:0:0:
194,278,139641,1,8,0:0:0:0:
254,369,139858,2,0,L|265:308,1,42.5,2|0,0:0|0:0,0:0:0:0:
120,223,140075,2,0,L|101:325,1,85,2|0,1:0|0:0,0:0:0:0:
203,194,140510,1,8,0:0:0:0:
50,130,140728,5,2,0:0:0:0:
45,141,140836,1,0,0:0:0:0:
40,153,140945,2,0,L|137:140,1,85,2|0,1:0|0:0,0:0:0:0:
289,116,141380,1,8,0:0:0:0:
203,194,141597,2,0,L|210:152,1,42.5,2|0,0:0|0:0,0:0:0:0:
377,83,141815,6,0,L|359:173,1,85,2|0,1:0|0:0,0:0:0:0:
511,279,142249,2,0,P|465:237|404:245,1,127.5,10|0,0:0|0:0,0:0:0:0:
387,256,142684,5,2,1:0:0:0:
347,316,142901,1,0,0:0:0:0:
375,384,143119,1,8,0:0:0:0:
347,316,143337,2,0,L|295:308,1,42.5,2|0,0:0|0:0,0:0:0:0:
159,136,143554,5,2,1:0:0:0:
203,202,143771,1,0,0:0:0:0:
172,277,143989,1,8,0:0:0:0:
203,202,144206,2,0,L|255:194,1,42.5,2|0,0:0|0:0,0:0:0:0:
335,227,144423,6,0,L|322:132,1,85,2|0,1:0|0:0,0:0:0:0:
479,13,144858,1,8,0:0:0:0:
392,77,145075,1,2,0:0:0:0:
394,89,145184,1,0,0:0:0:0:
396,101,145293,1,2,1:0:0:0:
512,140,145510,1,0,0:0:0:0:
394,0,145728,2,0,B|327:-10|346:48|257:33,1,127.5,10|0,0:0|0:0,0:0:0:0:
256,29,146162,5,2,1:0:0:0:
189,82,146380,1,0,0:0:0:0:
176,165,146597,1,8,0:0:0:0:
221,236,146814,5,2,0:0:0:0:
241,229,146923,1,0,0:0:0:0:
252,210,147032,1,2,1:0:0:0:
189,82,147249,1,0,0:0:0:0:
94,191,147467,1,8,0:0:0:0:
94,191,147684,6,0,L|103:246,1,42.5,2|0,0:0|0:0,0:0:0:0:
0,336,147902,2,0,P|40:315|82:316,1,85,2|0,1:0|0:0,0:0:0:0:
231,364,148337,2,0,P|267:384|309:384,1,85,2|2,1:0|0:0,0:0:0:0:
330,372,148663,2,0,L|322:318,1,42.5,2|0,0:0|1:0,0:0:0:0:
472,276,148988,5,10,0:0:0:0:
470,284,149097,1,2,0:0:0:0:
468,292,149206,2,0,L|527:284,1,42.5,10|8,0:0|0:0,0:0:0:0:
510,358,149424,2,0,L|467:363,1,42.5,10|8,0:0|0:0,0:0:0:0:
412,232,149641,5,6,0:1:0:0:
320,192,149859,1,2,0:0:0:0:
260,264,150076,1,8,0:0:0:0:
132,176,150293,5,0,0:0:0:0:
152,172,150402,1,2,0:0:0:0:
172,168,150512,2,0,L|164:228,1,50.9999984436036,0|0,0:0|0:0,0:0:0:0:
104,372,150729,2,0,P|56:340|0:358,1,101.999996887207,2|8,0:0|0:0,0:0:0:0:
14,347,151055,2,0,P|82:317|80:256,1,101.999996887207,2|0,0:0|0:0,0:0:0:0:
96,272,151381,5,2,0:0:0:0:
24,216,151598,1,2,0:0:0:0:
96,88,151815,1,8,0:0:0:0:
0,4,152033,5,0,0:0:0:0:
20,10,152142,1,2,0:0:0:0:
36,140,152359,5,0,0:0:0:0:
16,134,152468,1,2,0:0:0:0:
192,132,152685,5,8,0:0:0:0:
198,112,152794,2,0,P|179:71|110:88,1,101.999996887207,2|0,0:0|0:0,0:0:0:0:
112,79,153120,5,2,0:0:0:0:
132,188,153337,1,2,0:0:0:0:
156,308,153555,1,8,0:0:0:0:
96,260,153772,5,0,0:0:0:0:
91,263,153881,1,2,0:0:0:0:
86,266,153989,1,0,0:0:0:0:
80,380,154207,1,2,0:0:0:0:
208,224,154424,1,8,0:0:0:0:
199,235,154533,2,0,B|227:259|227:259|297:245,1,101.999996887207,2|0,0:0|0:0,0:0:0:0:
312,241,154859,5,2,0:0:0:0:
464,224,155076,1,2,0:0:0:0:
400,360,155293,2,0,B|380:312|380:312|392:248,1,101.999996887207,8|0,0:0|0:0,0:0:0:0:
396,264,155619,2,0,B|386:313|386:313|406:361,1,101.999996887207,2|0,0:0|0:0,0:0:0:0:
512,296,155946,2,0,L|446:307,1,50.9999984436036,2|0,0:0|0:0,0:0:0:0:
444,120,156163,5,8,0:0:0:0:
461,123,156272,1,2,0:0:0:0:
478,126,156381,1,0,0:0:0:0:
495,128,156489,1,2,0:0:0:0:
512,130,156598,6,0,P|528:88|496:28,1,101.999996887207,2|2,0:0|0:0,0:0:0:0:
228,0,157033,2,0,P|212:42|244:102,1,101.999996887207,8|0,0:0|0:0,0:0:0:0:
240,112,157359,2,0,B|233:153|233:153|222:167|222:167|217:209,1,101.999996887207,2|0,0:0|0:0,0:0:0:0:
202,217,157685,2,0,L|195:273,1,50.9999984436036,2|0,0:0|0:0,0:0:0:0:
116,360,157902,5,8,0:0:0:0:
120,343,158011,2,0,P|76:304|16:320,1,101.999996887207,2|0,0:0|0:0,0:0:0:0:
17,321,158337,5,2,0:0:0:0:
72,212,158555,1,2,0:0:0:0:
16,32,158772,1,8,0:0:0:0:
4,136,158990,5,0,0:0:0:0:
1,156,159099,1,2,0:0:0:0:
172,56,159315,5,0,0:0:0:0:
175,36,159424,1,2,0:0:0:0:
84,96,159642,5,8,0:0:0:0:
84,116,159750,2,0,B|125:123|125:123|139:134|139:134|181:139,1,101.999996887207,2|0,0:0|0:0,0:0:0:0:
184,156,160077,5,2,0:0:0:0:
336,100,160293,1,2,0:0:0:0:
252,68,160511,1,8,0:0:0:0:
256,80,160620,2,0,B|272:208,1,101.999996887207,2|0,0:0|0:0,0:0:0:0:
272,204,160946,5,2,0:0:0:0:
288,372,161162,1,2,0:0:0:0:
220,280,161380,1,8,0:0:0:0:
232,284,161489,2,0,B|360:300,1,101.999996887207,2|0,0:0|0:0,0:0:0:0:
512,376,161815,6,0,P|460:369|488:300,1,101.999996887207,2|2,0:0|0:0,0:0:0:0:
512,164,162250,6,0,B|402:192|442:106|327:134,1,191.250007295609,8|0,0:0|0:0,0:0:0:0:
332,132,162685,6,0,B|374:127|374:127|388:116|388:116|429:109,1,101.999996887207,2|0,0:0|0:0,0:0:0:0:
476,32,163011,6,0,L|486:67,1,25.4999992218018,2|0,0:0|0:0,0:0:0:0:
484,16,163120,2,0,L|502:82,1,50.9999984436036,2|0,0:0|0:0,0:0:0:0:
348,28,163337,1,2,0:0:0:0:
344,40,163446,1,2,0:0:0:0:
340,56,163554,5,6,0:1:0:0:
240,88,163772,1,0,0:0:0:0:
136,24,163989,1,8,0:0:0:0:
20,128,164206,5,0,0:0:0:0:
16,144,164315,1,2,0:0:0:0:
12,160,164424,2,0,L|84:152,1,50.9999984436036,0|0,0:0|0:0,0:0:0:0:
124,112,164641,1,2,0:0:0:0:
264,248,164859,1,8,0:0:0:0:
264,260,164967,2,0,P|232:300|180:280,1,101.999996887207,2|0,0:0|0:0,0:0:0:0:
176,276,165294,5,2,0:0:0:0:
0,320,165511,1,2,0:0:0:0:
72,376,165729,2,0,B|103:333|103:333|86:288,1,101.999996887207,8|0,0:0|0:0,0:0:0:0:
100,216,166055,2,0,B|145:208|145:208|152:199|152:199|200:192,1,101.999996887207,2|0,0:0|0:0,0:0:0:0:
260,160,166381,2,0,L|321:148,1,50.9999984436036,2|0,0:0|0:0,0:0:0:0:
512,264,166598,5,8,0:0:0:0:
497,257,166707,2,0,P|450:296|472:368,1,101.999996887207,2|0,0:0|0:0,0:0:0:0:
456,352,167033,5,2,0:0:0:0:
408,224,167250,1,2,0:0:0:0:
488,80,167468,1,8,0:0:0:0:
504,152,167685,5,0,0:0:0:0:
498,153,167794,1,2,0:0:0:0:
492,154,167902,1,0,0:0:0:0:
320,72,168120,1,2,0:0:0:0:
380,120,168337,1,8,0:0:0:0:
388,109,168446,2,0,B|407:80|407:80|378:3,1,101.999996887207,2|0,0:0|0:0,0:0:0:0:
377,3,168772,5,2,0:0:0:0:
248,120,168989,1,2,0:0:0:0:
80,16,169207,1,8,0:0:0:0:
188,40,169424,5,0,0:0:0:0:
204,28,169533,1,2,0:0:0:0:
20,104,169750,5,0,0:0:0:0:
4,116,169859,1,2,0:0:0:0:
88,36,170076,5,8,0:0:0:0:
96,60,170184,1,2,0:0:0:0:
104,84,170293,1,0,0:0:0:0:
112,108,170402,1,2,0:0:0:0:
118,131,170511,5,6,0:0:0:0:
112,232,170728,1,0,0:0:0:0:
0,312,170946,2,0,B|48:272|92:316,1,101.999996887207,8|0,0:0|0:0,0:0:0:0:
148,360,171272,2,0,L|209:368,1,50.9999984436036,2|0,0:0|0:0,0:0:0:0:
392,296,171489,1,0,0:0:0:0:
380,304,171598,2,0,L|313:295,1,50.9999984436036,2|0,0:0|0:0,0:0:0:0:
188,256,171815,5,8,0:0:0:0:
203,262,171924,2,0,P|255:230|245:172,1,101.999996887207,2|0,0:0|0:0,0:0:0:0:
249,176,172250,5,2,0:0:0:0:
272,72,172468,1,2,0:0:0:0:
448,160,172685,2,0,B|417:200|417:200|436:247,1,101.999996887207,8|0,0:0|0:0,0:0:0:0:
449,256,173011,1,2,0:0:0:0:
462,263,173120,2,0,L|518:253,1,50.9999984436036,0|0,0:0|0:0,0:0:0:0:
368,131,173337,2,0,L|317:140,1,50.9999984436036,2|0,0:0|0:0,0:0:0:0:
488,100,173555,5,8,0:0:0:0:
499,67,173663,1,2,0:0:0:0:
492,32,173772,1,0,0:0:0:0:
467,6,173881,1,0,0:0:0:0:
431,2,173989,6,0,B|403:27|403:27|319:13,1,101.999996887207,2|2,0:0|0:0,0:0:0:0:
88,44,174424,1,8,0:0:0:0:
83,58,174533,2,0,B|151:37|151:37|184:56,1,101.999996887207,2|0,0:0|0:0,0:0:0:0:
191,60,174859,2,0,L|172:174,1,101.999996887207,2|2,0:0|0:0,0:0:0:0:
40,300,175294,5,8,0:0:0:0:
44,274,175402,1,2,0:0:0:0:
48,249,175511,1,0,0:0:0:0:
52,224,175620,1,2,0:0:0:0:
56,200,175729,6,0,P|32:189|4:188,1,50.9999984436036,2|0,0:0|0:0,0:0:0:0:
168,264,175946,2,0,P|152:243|128:227,1,50.9999984436036,2|0,0:0|0:0,0:0:0:0:
48,156,176163,6,0,P|22:159|-3:171,1,50.9999984436036,8|0,0:0|0:0,0:0:0:0:
180,284,176380,2,0,P|156:273|128:272,1,50.9999984436036,2|0,0:0|0:0,0:0:0:0:
296,376,176598,6,0,B|315:327|315:327|285:284,1,101.999996887207,2|2,0:0|0:0,0:0:0:0:
278,274,176924,1,0,0:0:0:0:
267,263,177033,2,0,L|251:325,1,50.9999984436036,8|2,0:0|0:0,0:0:0:0:
400,152,177250,2,0,L|413:103,1,50.9999984436036,0|2,0:0|0:0,0:0:0:0:
333,206,177467,5,6,0:0:0:0:
207,163,177685,2,0,B|281:170|260:121|323:122,1,127.500004863739,2|0,0:0|0:0,0:0:0:0:
214,79,178337,2,0,P|181:72|147:62,1,63.7500024318696,8|0,0:0|0:0,0:0:0:0:
63,196,178772,2,0,P|96:203|130:213,1,63.7500024318696,0|2,0:0|0:0,0:0:0:0:
218,225,179206,6,0,P|211:194|207:163,1,63.7500024318696,2|0,0:0|0:0,0:0:0:0:
124,211,179641,2,0,P|138:275|152:354,1,127.500004863739,2|8,0:0|0:0,0:0:0:0:
149,335,180511,2,0,P|206:297|228:302,1,95.6250036478044,0|0,0:0|0:0,0:0:0:0:
246,314,180946,6,0,B|270:341|270:341|388:316,1,127.500004863739,2|0,0:0|0:0,0:0:0:0:
438,301,181598,1,0,0:0:0:0:
318,187,181815,2,0,L|309:250,1,63.7500024318696,8|0,0:0|0:0,0:0:0:0:
430,364,182250,2,0,L|437:300,1,63.7500024318696,0|2,0:0|0:0,0:0:0:0:
400,230,182685,6,0,P|449:268|512:266,2,127.500004863739,2|0|8,0:0|0:0|0:0,0:0:0:0:
331,140,183772,1,2,0:0:0:0:
326,151,183989,2,0,L|406:140,1,63.7500024318696,0|0,0:0|0:0,0:0:0:0:
266,0,184424,6,0,L|250:117,1,95.6250036478044,6|0,0:0|0:0,0:0:0:0:
241,106,184859,2,0,P|192:102|169:72,1,63.7500024318696,0|0,0:0|0:0,0:0:0:0:
11,75,185293,2,0,P|57:33|120:34,1,127.500004863739,8|0,0:0|0:0,0:0:0:0:
182,93,185946,1,2,0:0:0:0:
84,178,186163,6,0,L|89:114,1,63.7500024318696,0|0,0:0|0:0,0:0:0:0:
182,93,186598,2,0,L|170:240,1,127.500004863739,0|8,0:0|0:0,0:0:0:0:
32,292,187250,1,2,0:0:0:0:
38,281,187467,2,0,P|73:262|118:267,1,63.7500024318696,0|0,0:0|0:0,0:0:0:0:
229,342,187902,6,0,P|270:365|318:356,1,95.6250036478044,6|0,0:0|0:0,0:0:0:0:
332,347,188337,2,0,L|325:278,1,63.7500024318696,0|0,0:0|0:0,0:0:0:0:
492,175,188772,5,8,0:0:0:0:
483,205,188989,1,2,0:0:0:0:
459,226,189206,1,0,0:0:0:0:
428,236,189424,1,2,0:0:0:0:
397,227,189641,6,0,P|358:200|280:205,1,127.5,4|0,0:0|0:0,0:0:0:0:
262,214,190076,1,0,0:0:0:0:
386,69,190293,1,8,0:0:0:0:
327,12,190511,5,4,0:0:0:0:
310,25,190619,2,0,B|290:45|290:45|309:107,1,85,2|0,0:0|0:0,0:0:0:0:
313,119,190946,1,0,0:0:0:0:
171,270,191163,5,0,0:0:0:0:
164,250,191272,1,2,0:0:0:0:
157,229,191380,1,8,0:0:0:0:
262,214,191598,1,8,0:0:0:0:
114,125,191815,2,0,L|198:140,1,85,2|4,0:0|0:3,0:0:0:0:
197,139,193119,5,0,0:0:0:0:
0,148,193771,5,2,0:0:0:0:
48,96,193989,2,0,L|36:-20,2,85,2|0|8,0:0|0:0|0:3,0:0:0:0:
96,264,195728,6,0,L|84:380,1,85,2|0,0:0|0:0,0:0:0:0:
87,348,196597,1,8,0:3:0:0:
160,224,197250,5,2,0:0:0:0:
224,256,197467,2,0,P|268:268|324:252,1,85,2|0,0:0|0:0,0:0:0:0:
496,284,198336,5,8,0:3:0:0:
480,360,198771,1,8,0:3:0:0:
496,284,199206,2,0,B|480:252|496:220|496:220|480:188|480:188|484:160|476:104,1,170,2|8,0:0|0:3,0:0:0:0:
478,120,200728,5,2,0:0:0:0:
408,96,200945,2,0,B|364:108|364:108|312:88,2,85,2|0|8,0:0|0:0|0:3,0:0:0:0:
244,40,202250,1,2,0:0:0:0:
244,40,202684,6,0,L|236:132,1,85,2|0,0:0|0:0,0:0:0:0:
324,212,203554,2,0,L|332:304,1,85,8|0,0:3|0:0,0:0:0:0:
80,312,204206,1,8,0:3:0:0:
80,312,204423,6,0,P|52:343|44:384,1,85,2|0,0:0|0:0,0:0:0:0:
323,183,204858,2,0,P|281:174|250:147,1,85,2|0,0:0|0:0,0:0:0:0:
14,239,205293,2,0,P|48:215|90:212,1,85,2|0,0:0|0:0,0:0:0:0:
163,247,205619,1,2,0:0:0:0:
90,212,205728,2,0,L|96:170,1,42.5,0|2,0:0|0:0,0:0:0:0:
250,147,205945,2,0,L|241:89,1,42.5,0|2,0:0|0:0,0:0:0:0:
136,0,206163,6,0,B|94:17|94:17|81:106,1,127.500004863739,6|0,0:1|0:0,0:0:0:0:
172,144,206489,1,0,0:0:0:0:
162,136,206597,2,0,L|174:57,1,63.7500024318696,8|0,0:0|0:0,0:0:0:0:
352,44,206815,1,0,0:0:0:0:
342,37,206923,1,0,0:0:0:0:
346,24,207032,6,0,B|412:6|387:77|488:50,1,127.500004863739,2|0,0:0|0:0,0:0:0:0:
496,152,207358,1,0,0:0:0:0:
508,148,207467,2,0,L|496:221,1,63.7500024318696,8|0,0:0|0:0,0:0:0:0:
300,256,207684,2,0,L|312:183,1,63.7500024318696,2|0,0:0|0:0,0:0:0:0:
248,328,207902,6,0,P|306:256|406:273,1,191.250007295609,2|0,0:0|0:0,0:0:0:0:
512,368,208336,1,8,0:0:0:0:
501,375,208445,2,0,B|475:343|475:343|492:249,1,127.500004863739,2|0,0:0|0:0,0:0:0:0:
396,265,208771,6,0,L|408:335,1,63.7500024318696,2|0,0:0|0:0,0:0:0:0:
344,384,208989,2,0,L|334:321,1,63.7500024318696,0|0,0:0|0:0,0:0:0:0:
172,344,209206,2,0,L|235:354,1,63.7500024318696,8|0,0:0|0:0,0:0:0:0:
64,284,209423,2,0,L|2:273,1,63.7500024318696,2|0,0:0|0:0,0:0:0:0:
160,324,209641,6,0,P|163:263|108:209,1,127.500004863739,2|0,0:0|0:0,0:0:0:0:
8,120,209967,1,0,0:0:0:0:
3,132,210076,2,0,L|82:120,1,63.7500024318696,8|0,0:0|0:0,0:0:0:0:
200,36,210293,1,0,0:0:0:0:
202,23,210402,1,0,0:0:0:0:
204,10,210510,6,0,L|129:-3,1,63.7500024318696,2|0,0:0|0:0,0:0:0:0:
232,140,210728,1,0,0:0:0:0:
230,153,210837,1,0,0:0:0:0:
228,166,210945,2,0,L|303:179,1,63.7500024318696,8|0,0:0|0:0,0:0:0:0:
504,124,211163,1,2,0:0:0:0:
506,111,211271,1,0,0:0:0:0:
508,96,211380,6,0,B|492:50|424:42|424:42|396:114|320:78,1,191.250007295609,2|0,0:0|0:0,0:0:0:0:
292,24,211815,1,8,0:0:0:0:
289,36,211923,2,0,B|363:17,1,63.7500024318696,2|0,0:0|0:0,0:0:0:0:
436,164,212141,1,0,0:0:0:0:
428,155,212250,6,0,L|412:238,1,63.7500024318696,2|0,0:0|0:0,0:0:0:0:
499,311,212467,2,0,L|512:249,1,63.7500024318696,0|2,0:0|0:0,0:0:0:0:
324,340,212684,1,8,0:0:0:0:
300,330,212793,1,2,0:0:0:0:
287,307,212902,1,0,0:0:0:0:
290,281,213010,1,2,0:0:0:0:
305,260,213119,6,0,B|380:247|347:307|439:293,1,127.500004863739,6|0,0:0|0:0,0:0:0:0:
512,312,213445,1,0,0:0:0:0:
499,306,213554,2,0,L|488:376,1,63.7500024318696,8|0,0:0|0:0,0:0:0:0:
415,217,213771,1,0,0:0:0:0:
427,215,213880,1,0,0:0:0:0:
439,212,213989,6,0,P|444:146|389:115,1,127.500004863739,2|0,0:0|0:0,0:0:0:0:
396,128,214315,1,0,0:0:0:0:
393,140,214423,2,0,L|455:127,1,63.7500024318696,8|0,0:0|0:0,0:0:0:0:
316,64,214641,1,2,0:0:0:0:
320,48,214750,1,0,0:0:0:0:
324,32,214858,6,0,B|292:56|292:56|256:52|256:52|228:28|228:28|192:24|192:24|156:44|156:44|144:96,1,191.250007295609,2|0,0:0|0:0,0:0:0:0:
8,156,215293,1,8,0:0:0:0:
0,144,215402,2,0,P|9:102|103:107,1,127.500004863739,2|0,0:0|0:0,0:0:0:0:
96,96,215728,6,0,L|84:165,1,63.7500024318696,2|0,0:0|0:0,0:0:0:0:
24,237,215945,2,0,L|12:300,1,63.7500024318696,0|0,0:0|0:0,0:0:0:0:
112,104,216163,6,0,L|100:173,1,63.7500024318696,8|0,0:0|0:0,0:0:0:0:
176,304,216380,2,0,L|164:367,1,63.7500024318696,2|0,0:0|0:0,0:0:0:0:
140,240,216597,5,2,0:0:0:0:
146,228,216706,2,0,P|208:227|249:274,1,127.500004863739
360,384,217032,5,8,0:0:0:0:
346,384,217141,2,0,P|314:330|334:271,1,127.500004863739,0|0,0:0|0:0,0:0:0:0:
384,128,217467,5,2,0:0:0:0:
365,131,217576,1,0,0:0:0:0:
347,135,217684,1,0,0:0:0:0:
328,140,217793,1,0,0:0:0:0:
308,144,217902,2,0,L|296:219,1,63.7500024318696,8|0,0:0|0:0,0:0:0:0:
484,368,218119,2,0,L|494:305,1,63.7500024318696,2|0,0:0|0:0,0:0:0:0:
512,136,218336,5,4,0:0:0:0:
457,197,218445,2,0,B|425:167|425:167|417:99|456:72,1,127.500004863739,2|0,0:0|0:0,0:0:0:0:
457,197,218771,2,0,L|371:213,1,63.7500024318696,10|0,0:0|0:0,0:0:0:0:
276,64,218989,2,0,L|347:49,1,63.7500024318696,2|0,0:0|0:0,0:0:0:0:
176,252,219206,6,0,B|208:222|208:222|216:154|177:127,1,127.500004863739,6|0,0:0|0:0,0:0:0:0:
120,20,219532,1,2,0:0:0:0:
133,27,219641,2,0,L|136:148,1,63.7500024318696,8|2,0:0|0:0,0:0:0:0:
0,193,219858,1,0,0:0:0:0:
4,174,219967,1,2,0:0:0:0:
7,155,220076,6,0,P|89:161|120:203,1,127.500004863739,6|0,0:1|0:0,0:0:0:0:
223,248,220402,1,0,0:0:0:0:
235,262,220510,2,0,P|172:257|126:299,1,127.500004863739,8|0,0:0|0:0,0:0:0:0:
290,375,220836,1,0,0:0:0:0:
306,384,220945,6,0,B|283:358|295:324|295:324|328:293|315:247,1,127.500004863739,2|0,0:0|0:0,0:0:0:0:
408,202,221271,1,0,0:0:0:0:
391,211,221380,2,0,P|396:247|407:283,1,63.7500024318696,8|0,0:0|0:0,0:0:0:0:
496,143,221597,2,0,P|490:106|480:71,1,63.7500024318696,2|0,0:0|0:0,0:0:0:0:
303,81,221815,6,0,P|341:129|403:129,1,127.500004863739,2|0,0:0|0:0,0:0:0:0:
347,18,222141,1,0,0:0:0:0:
331,7,222249,2,0,B|306:-6|276:1|276:1|250:36|195:28,1,127.500004863739,8|0,0:0|0:0,0:0:0:0:
141,121,222576,1,0,0:0:0:0:
153,106,222684,6,0,L|224:119,1,63.7500024318696,2|0,0:0|0:0,0:0:0:0:
308,203,222902,2,0,P|308:172|288:149,1,63.7500024318696,0|0,0:0|0:0,0:0:0:0:
129,227,223119,6,0,L|200:240,1,63.7500024318696,8|0,0:0|0:0,0:0:0:0:
283,323,223337,2,0,P|284:291|264:268,1,63.7500024318696,2|0,0:0|0:0,0:0:0:0:
78,371,223554,6,0,B|143:365|118:324|196:326,1,127.500004863739,2|0,0:0|0:0,0:0:0:0:
373,295,223880,1,0,0:0:0:0:
379,313,223989,6,0,B|313:307|338:266|260:268,1,127.500004863739,8|0,0:0|0:0,0:0:0:0:
108,221,224315,1,0,0:0:0:0:
102,239,224424,6,0,B|168:233|143:192|221:194,1,127.500004863739,2|0,0:0|0:0,0:0:0:0:
307,134,224749,1,0,0:0:0:0:
289,142,224858,2,0,L|300:69,1,63.7500024318696,8|0,0:0|0:0,0:0:0:0:
507,35,225076,2,0,L|497:98,1,63.7500024318696,2|0,0:0|0:0,0:0:0:0:
299,79,225293,6,0,B|338:73|357:47|357:47|397:38|437:75,1,127.500004863739,2|0,0:0|0:0,0:0:0:0:
422,137,225619,1,0,0:0:0:0:
404,144,225728,2,0,L|393:218,1,63.7500024318696,8|0,0:0|0:0,0:0:0:0:
492,273,225945,5,0,0:0:0:0:
502,265,226054,1,0,0:0:0:0:
512,258,226163,2,0,L|421:275,1,63.7500024318696,2|0,0:0|0:0,0:0:0:0:
235,321,226380,2,0,L|225:389,1,63.7500024318696,0|2,0:0|0:0,0:0:0:0:
325,354,226597,5,8,0:0:0:0:
341,326,226706,1,2,0:0:0:0:
342,294,226815,1,0,0:0:0:0:
329,264,226923,1,2,0:0:0:0:
303,244,227032,6,0,P|272:194|302:120,1,127.500004863739,6|0,0:0|0:0,0:0:0:0:
374,129,227358,1,0,0:0:0:0:
371,148,227467,1,8,0:0:0:0:
211,82,227684,5,0,0:0:0:0:
223,67,227793,1,0,0:0:0:0:
220,47,227902,2,0,P|176:2|114:0,1,127.500004863739,2|0,0:0|0:0,0:0:0:0:
35,63,228228,1,0,0:0:0:0:
49,50,228336,2,0,L|62:112,1,63.7500024318696,8|0,0:0|0:0,0:0:0:0:
135,187,228554,1,2,0:0:0:0:
141,176,228663,1,0,0:0:0:0:
139,163,228771,6,0,B|197:106|260:136|260:136|273:167|309:171,1,191.250007295609,2|0,0:0|0:0,0:0:0:0:
396,12,229206,2,0,P|340:34|338:95,1,127.500004863739,8|0,0:0|0:0,0:0:0:0:
469,148,229532,1,0,0:0:0:0:
482,134,229641,6,0,B|452:128|428:102|428:102|449:147|425:204|361:203,1,191.250007295609,2|0,0:0|0:0,0:0:0:0:
207,306,230076,2,0,P|242:257|315:266,1,127.500004863739,8|2,0:0|0:0,0:0:0:0:
398,281,230402,1,2,0:0:0:0:
382,291,230510,6,0,L|371:363,1,63.7500024318696,2|0,0:0|0:0,0:0:0:0:
511,350,230728,1,0,0:0:0:0:
496,337,230836,1,0,0:0:0:0:
481,324,230945,2,0,L|495:238,1,63.7500024318696,8|0,0:0|0:0,0:0:0:0:
498,135,231163,5,2,0:0:0:0:
506,151,231271,1,0,0:0:0:0:
498,168,231380,2,0,B|426:159|455:217|373:200,1,127.500004863739,2|0,0:0|0:0,0:0:0:0:
328,114,231706,1,0,0:0:0:0:
320,131,231815,2,0,L|400:113,1,63.7500024318696,8|2,0:0|0:0,0:0:0:0:
476,26,232032,2,0,L|413:39,1,63.7500024318696,0|0,0:0|0:0,0:0:0:0:
192,124,232249,5,6,0:0:0:0:
238,188,232358,2,0,B|285:152|285:152|288:105|234:41,1,152.999995330811,2|0,0:0|0:0,0:0:0:0:
241,46,232684,2,0,P|280:34|311:19,1,76.4999976654053,10|0,0:0|0:0,0:0:0:0:
71,197,232902,2,0,P|32:209|0:223,1,76.4999976654053,2|0,0:0|0:0,0:0:0:0:
118,116,233119,6,0,B|147:134|171:142|171:142|159:193|152:245,1,152.999995330811,6|0,0:0|0:0,0:0:0:0:
244,360,233445,1,2,0:0:0:0:
226,344,233554,2,0,P|231:304|241:263,1,76.4999976654053,8|2,0:0|0:0,0:0:0:0:
335,221,233771,1,0,0:0:0:0:
331,243,233880,1,2,0:0:0:0:
359,283,233989,6,0,L|466:278,2,101.999996887207,0|2|0,0:0|0:0|0:0,0:0:0:0:
359,283,236597,1,2,0:0:0:0:
144,188,237467,6,0,P|128:148|139:81,2,101.999996887207,0|2|0,0:0|0:0|0:0,0:0:0:0:
256,192,240076,1,2,0:0:0:0:
72,228,240945,6,0,L|80:164,1,63.7500024318696,4|0,0:0|0:0,0:0:0:0:
0,244,241597,5,2,0:0:0:0:
80,164,241814,2,0,L|72:228,1,63.7500024318696,2|0,0:0|0:0,0:0:0:0:
0,244,242466,5,2,0:0:0:0:
72,228,242684,2,0,L|80:164,1,63.7500024318696,2|0,0:0|0:0,0:0:0:0:
0,244,243336,5,2,0:0:0:0:
80,164,243553,2,0,L|72:228,1,63.7500024318696,2|0,0:0|0:0,0:0:0:0:
108,360,243988,2,0,P|154:362|196:316,1,95.6250036478044,2|0,0:0|0:0,0:0:0:0:
208,312,244423,6,0,L|272:320,1,63.7500024318696,2|0,0:0|0:0,0:0:0:0:
192,240,245075,5,2,0:0:0:0:
272,320,245292,2,0,L|208:312,1,63.7500024318696,2|0,0:0|0:0,0:0:0:0:
192,240,245944,5,2,0:0:0:0:
208,312,246162,2,0,L|272:320,1,63.7500024318696,2|0,0:0|0:0,0:0:0:0:
192,240,246814,5,2,0:0:0:0:
272,320,247031,2,0,L|208:312,1,63.7500024318696,2|0,0:0|0:0,0:0:0:0:
208,168,247466,2,0,L|332:176,1,95.6250036478044,2|0,0:0|0:0,0:0:0:0:
332,176,247901,5,2,0:0:0:0:
312,248,248118,1,0,0:0:0:0:
332,176,248553,5,2,0:0:0:0:
384,228,248770,1,2,0:0:0:0:
368,304,248988,1,0,0:0:0:0:
332,176,249423,5,2,0:0:0:0:
404,156,249640,1,2,0:0:0:0:
461,208,249858,1,0,0:0:0:0:
332,176,250292,5,2,0:0:0:0:
351,103,250509,1,2,0:0:0:0:
425,80,250727,1,0,0:0:0:0:
296,44,250944,2,0,P|264:16|204:20,1,95.6250036478044,2|0,0:0|0:0,0:0:0:0:
188,24,251379,5,2,0:0:0:0:
208,112,251597,1,0,0:0:0:0:
192,132,252032,5,2,0:0:0:0:
212,220,252250,1,2,0:0:0:0:
232,228,252466,1,0,0:0:0:0:
256,236,252902,5,2,0:0:0:0:
236,324,253120,1,2,0:0:0:0:
216,332,253336,1,0,0:0:0:0:
192,340,253771,5,2,0:0:0:0:
88,308,253989,1,2,0:0:0:0:
68,312,254205,1,0,0:0:0:0:
8,360,254423,2,0,P|-8:312|8:260,1,95.6250036478044,4|0,0:1|0:0,0:0:0:0:
32,248,254858,6,0,P|32:209|-6:174,1,85,4|0,0:0|0:0,0:0:0:0:
80,112,255292,1,8,0:0:0:0:
0,40,255510,2,0,L|4:85,1,42.5,2|0,0:0|0:0,0:0:0:0:
160,136,255727,2,0,L|171:229,1,85,2|0,1:1|0:0,0:0:0:0:
260,368,256162,1,8,0:0:0:0:
407,342,256379,5,2,0:0:0:0:
404,329,256488,1,0,0:0:0:0:
401,316,256597,2,0,L|294:303,1,85,2|0,1:0|0:0,0:0:0:0:
180,344,257031,1,8,0:0:0:0:
180,344,257249,2,0,L|137:340,1,42.5,2|0,0:0|0:0,0:0:0:0:
260,368,257467,5,2,1:0:0:0:
300,228,257684,1,0,0:0:0:0:
488,220,257901,2,0,B|454:195|454:195|353:211,1,127.5,10|0,0:0|0:0,0:0:0:0:
300,228,258336,6,0,P|297:187|324:155,1,85,2|0,1:0|0:0,0:0:0:0:
360,48,258771,1,8,0:0:0:0:
252,64,258988,2,0,L|313:75,1,42.5,2|0,0:0|0:0,0:0:0:0:
512,32,259205,2,0,L|410:13,1,85,2|0,1:0|0:0,0:0:0:0:
323,155,259640,1,8,0:0:0:0:
184,16,259858,5,2,0:0:0:0:
173,11,259966,1,0,0:0:0:0:
161,6,260075,2,0,L|174:103,1,85,2|0,1:0|0:0,0:0:0:0:
128,248,260510,1,8,0:0:0:0:
120,169,260727,2,0,L|162:176,1,42.5,2|0,0:0|0:0,0:0:0:0:
144,328,260945,6,0,L|54:310,1,85,2|0,1:0|0:0,0:0:0:0:
312,288,261379,2,0,P|266:246|205:254,1,127.5,10|0,0:0|0:0,0:0:0:0:
244,316,261814,5,2,1:0:0:0:
320,328,262031,1,0,0:0:0:0:
400,340,262249,1,8,0:0:0:0:
400,340,262467,2,0,L|392:392,1,42.5,2|0,0:0|0:0,0:0:0:0:
512,160,262684,5,2,1:0:0:0:
436,172,262901,1,0,0:0:0:0:
356,184,263119,1,8,0:0:0:0:
356,184,263337,2,0,L|364:236,1,42.5,2|0,0:0|0:0,0:0:0:0:
184,128,263553,6,0,L|171:33,1,85,2|0,1:0|0:0,0:0:0:0:
292,128,263988,1,8,0:0:0:0:
228,215,264205,5,2,0:0:0:0:
216,213,264314,1,0,0:0:0:0:
204,211,264423,1,2,1:0:0:0:
88,128,264640,1,0,0:0:0:0:
0,272,264858,2,0,B|67:262|48:320|137:305,1,127.5,10|0,0:0|0:0,0:0:0:0:
168,360,265292,5,2,1:0:0:0:
221,293,265510,1,0,0:0:0:0:
304,280,265727,1,8,0:0:0:0:
404,340,265944,5,2,0:0:0:0:
423,349,266053,1,0,0:0:0:0:
444,343,266162,1,2,1:0:0:0:
512,260,266379,1,0,0:0:0:0:
484,148,266597,1,8,0:0:0:0:
484,148,266814,6,0,L|480:216,1,42.5,2|0,0:0|0:0,0:0:0:0:
356,232,267032,2,0,P|316:211|274:212,1,85,2|0,1:0|0:0,0:0:0:0:
44,208,267467,2,0,P|80:228|122:228,1,85,2|2,1:0|0:0,0:0:0:0:
204,232,267793,2,0,L|196:178,1,42.5,2|0,0:0|1:0,0:0:0:0:
164,4,268118,5,10,0:0:0:0:
162,12,268227,1,2,0:0:0:0:
160,20,268336,2,0,L|219:12,1,42.5,10|8,0:0|0:0,0:0:0:0:
208,100,268554,2,0,L|165:105,1,42.5,10|8,0:0|0:0,0:0:0:0:
24,76,268771,1,6,0:1:0:0:
256,192,268880,12,0,272250,0:0:0:0:
