osu file format v14

[General]
AudioFilename: audio.mp3
AudioLeadIn: 0
PreviewTime: -1
Countdown: 1
SampleSet: Normal
StackLeniency: 0.6
Mode: 0
LetterboxInBreaks: 0
WidescreenStoryboard: 0

[Editor]
Bookmarks: 20473
DistanceSpacing: 0.5
BeatDivisor: 4
GridSize: 4
TimelineZoom: 1

[Metadata]
Title:Rise
TitleUnicode:Rise
Artist:Soken Masayoshi
ArtistUnicode:祖堅 正慶
Creator:PacmanLP
Version:The Soul Of The Creator (LUNATIC)
Source:Final Fantasy Online XIV
Tags:FinalFantasy 14
BeatmapID:1450258
BeatmapSetID:685276

[Difficulty]
HPDrainRate:8
CircleSize:6
OverallDifficulty:8
ApproachRate:8
SliderMultiplier:1.4
SliderTickRate:1

[Events]
//Background and Video events
0,0,"AlexanderPrime.jpg",0,0
//Break Periods
//Storyboard Layer 0 (Background)
//Storyboard Layer 1 (Fail)
//Storyboard Layer 2 (Pass)
//Storyboard Layer 3 (Foreground)
//Storyboard Sound Samples

[TimingPoints]
116,428.571428571429,4,1,0,100,1,0
89044,-100,4,1,0,100,0,1
107205,-100,4,1,0,100,0,0

[HitObjects]
120,36,16080,5,0,0:0:0:0:
148,36,16294,1,0,0:0:0:0:
176,36,16401,1,0,0:0:0:0:
188,120,16723,1,0,0:0:0:0:
216,112,16830,1,0,0:0:0:0:
244,104,16937,5,0,0:0:0:0:
280,180,17366,1,0,0:0:0:0:
304,168,17473,1,0,0:0:0:0:
328,156,17580,1,0,0:0:0:0:
356,108,17794,2,0,P|380:136|380:136,10,35
300,120,19294,6,0,L|188:200,1,105
214,181,19723,1,0,0:0:0:0:
260,212,20044,1,0,0:0:0:0:
288,212,20258,1,0,0:0:0:0:
268,184,20473,2,0,P|292:212|292:212,10,35
152,240,21758,5,0,0:0:0:0:
180,244,21866,1,0,0:0:0:0:
208,252,21973,1,0,0:0:0:0:
264,156,22830,1,0,0:0:0:0:
244,136,22937,1,0,0:0:0:0:
244,136,23044,1,0,0:0:0:0:
256,112,23258,1,0,0:0:0:0:
280,96,23366,1,0,0:0:0:0:
308,88,23473,1,0,0:0:0:0:
332,76,23580,1,0,0:0:0:0:
268,20,23901,6,0,P|68:188|68:188,1,245
80,177,24758,2,0,L|84:236,10,35
108,176,26151,1,0,0:0:0:0:
132,160,26258,1,0,0:0:0:0:
152,144,26366,1,0,0:0:0:0:
236,176,26901,1,0,0:0:0:0:
260,164,27008,1,0,0:0:0:0:
284,148,27223,1,0,0:0:0:0:
308,132,27330,1,0,0:0:0:0:
308,104,27437,1,0,0:0:0:0:
300,76,27544,1,0,0:0:0:0:
272,72,27651,5,0,0:0:0:0:
188,160,28401,5,0,0:0:0:0:
212,172,28508,1,0,0:0:0:0:
240,172,28616,1,0,0:0:0:0:
264,160,28723,5,0,0:0:0:0:
288,144,28830,1,0,0:0:0:0:
308,124,28937,1,0,0:0:0:0:
336,124,29151,1,0,0:0:0:0:
352,148,29258,1,0,0:0:0:0:
360,176,29366,1,0,0:0:0:0:
255,87,29901,2,0,L|120:160,1,140
132,153,30866,1,0,0:0:0:0:
152,172,30973,1,0,0:0:0:0:
172,192,31187,1,0,0:0:0:0:
200,200,31294,1,0,0:0:0:0:
228,200,31401,1,0,0:0:0:0:
256,196,31508,1,0,0:0:0:0:
280,180,31616,1,0,0:0:0:0:
296,160,31723,1,0,0:0:0:0:
308,136,31830,1,0,0:0:0:0:
304,108,31937,1,0,0:0:0:0:
284,88,32151,5,0,0:0:0:0:
264,68,32258,1,0,0:0:0:0:
240,52,32366,1,0,0:0:0:0:
212,52,32473,5,0,0:0:0:0:
208,156,33223,1,0,0:0:0:0:
236,164,33330,1,0,0:0:0:0:
264,156,33437,1,0,0:0:0:0:
288,140,33544,5,0,0:0:0:0:
312,124,33651,1,0,0:0:0:0:
332,144,33758,1,0,0:0:0:0:
288,140,34401,1,0,0:0:0:0:
312,124,34508,1,0,0:0:0:0:
340,116,34616,1,0,0:0:0:0:
364,100,34723,1,0,0:0:0:0:
384,80,34830,1,0,0:0:0:0:
408,64,34937,1,0,0:0:0:0:
464,224,35687,5,0,0:0:0:0:
436,224,35794,1,0,0:0:0:0:
408,224,35901,1,0,0:0:0:0:
380,220,36116,1,0,0:0:0:0:
352,216,36223,1,0,0:0:0:0:
324,216,36330,1,0,0:0:0:0:
300,228,36437,1,0,0:0:0:0:
280,248,36544,1,0,0:0:0:0:
264,268,36651,1,0,0:0:0:0:
276,292,36758,5,0,0:0:0:0:
300,304,36866,5,0,0:0:0:0:
328,308,37080,1,0,0:0:0:0:
356,300,37187,1,0,0:0:0:0:
380,288,37294,1,0,0:0:0:0:
404,276,37401,1,0,0:0:0:0:
424,256,37508,1,0,0:0:0:0:
424,228,37616,1,0,0:0:0:0:
420,200,37723,1,0,0:0:0:0:
400,180,37830,5,0,0:0:0:0:
376,164,37937,1,0,0:0:0:0:
348,156,38151,1,0,0:0:0:0:
320,156,38258,1,0,0:0:0:0:
292,160,38366,1,0,0:0:0:0:
264,168,38473,1,0,0:0:0:0:
244,188,38580,1,0,0:0:0:0:
384,200,39223,5,0,0:0:0:0:
384,172,39330,1,0,0:0:0:0:
384,144,39437,1,0,0:0:0:0:
380,116,39544,1,0,0:0:0:0:
372,88,39651,1,0,0:0:0:0:
344,80,39758,1,0,0:0:0:0:
316,88,39866,1,0,0:0:0:0:
296,104,40080,1,0,0:0:0:0:
276,124,40187,1,0,0:0:0:0:
256,144,40294,1,0,0:0:0:0:
236,164,40401,1,0,0:0:0:0:
256,184,40508,1,0,0:0:0:0:
280,200,40616,1,0,0:0:0:0:
300,220,40723,1,0,0:0:0:0:
328,220,40830,1,0,0:0:0:0:
352,208,40937,1,0,0:0:0:0:
356,180,41151,5,0,0:0:0:0:
356,152,41258,1,0,0:0:0:0:
352,124,41366,1,0,0:0:0:0:
340,100,41473,1,0,0:0:0:0:
320,80,41580,1,0,0:0:0:0:
292,68,41687,1,0,0:0:0:0:
264,68,41794,1,0,0:0:0:0:
240,80,41901,1,0,0:0:0:0:
216,92,42116,1,0,0:0:0:0:
192,104,42223,1,0,0:0:0:0:
168,120,42330,1,0,0:0:0:0:
148,140,42437,1,0,0:0:0:0:
148,168,42544,1,0,0:0:0:0:
148,196,42651,5,0,0:0:0:0:
148,224,42758,1,0,0:0:0:0:
152,252,42866,1,0,0:0:0:0:
180,256,43080,1,0,0:0:0:0:
208,256,43187,1,0,0:0:0:0:
236,256,43294,1,0,0:0:0:0:
264,252,43401,1,0,0:0:0:0:
292,252,43508,1,0,0:0:0:0:
320,252,43616,1,0,0:0:0:0:
324,224,43723,5,0,0:0:0:0:
324,196,43830,1,0,0:0:0:0:
324,168,44044,1,0,0:0:0:0:
324,140,44151,1,0,0:0:0:0:
300,124,44258,1,0,0:0:0:0:
272,120,44366,1,0,0:0:0:0:
244,120,44473,1,0,0:0:0:0:
220,132,44580,1,0,0:0:0:0:
200,152,44687,1,0,0:0:0:0:
188,176,44794,1,0,0:0:0:0:
244,188,45116,6,0,L|280:192,30,35
252,244,48866,1,0,0:0:0:0:
280,248,49080,1,0,0:0:0:0:
308,248,49187,1,0,0:0:0:0:
336,244,49294,1,0,0:0:0:0:
360,232,49401,1,0,0:0:0:0:
384,216,49508,1,0,0:0:0:0:
384,188,49616,1,0,0:0:0:0:
380,160,49723,1,0,0:0:0:0:
372,132,49830,5,0,0:0:0:0:
184,224,51008,1,0,0:0:0:0:
208,236,51116,1,0,0:0:0:0:
236,236,51223,1,0,0:0:0:0:
264,232,51330,5,0,0:0:0:0:
292,232,51437,5,0,0:0:0:0:
320,228,51544,1,0,0:0:0:0:
344,212,51651,1,0,0:0:0:0:
344,184,51758,1,0,0:0:0:0:
336,156,51973,1,0,0:0:0:0:
320,132,52080,1,0,0:0:0:0:
296,116,52187,1,0,0:0:0:0:
268,108,52294,1,0,0:0:0:0:
240,104,52401,1,0,0:0:0:0:
212,112,52508,1,0,0:0:0:0:
188,124,52616,1,0,0:0:0:0:
168,144,52723,1,0,0:0:0:0:
156,168,52830,1,0,0:0:0:0:
148,196,53044,1,0,0:0:0:0:
148,224,53151,1,0,0:0:0:0:
176,228,53258,1,0,0:0:0:0:
204,232,53366,1,0,0:0:0:0:
292,236,53473,5,0,0:0:0:0:
312,236,53580,1,0,0:0:0:0:
332,232,53687,1,0,0:0:0:0:
348,220,53794,1,0,0:0:0:0:
364,208,54008,1,0,0:0:0:0:
376,192,54116,1,0,0:0:0:0:
388,176,54223,1,0,0:0:0:0:
392,156,54330,1,0,0:0:0:0:
392,136,54437,1,0,0:0:0:0:
380,120,54544,1,0,0:0:0:0:
364,108,54651,5,0,0:0:0:0:
344,100,54758,1,0,0:0:0:0:
324,96,54973,1,0,0:0:0:0:
304,96,55080,1,0,0:0:0:0:
284,100,55187,1,0,0:0:0:0:
264,108,55294,1,0,0:0:0:0:
244,116,55401,1,0,0:0:0:0:
224,124,55508,1,0,0:0:0:0:
204,136,55616,1,0,0:0:0:0:
192,152,55723,1,0,0:0:0:0:
188,172,55830,1,0,0:0:0:0:
184,192,56044,1,0,0:0:0:0:
184,212,56151,1,0,0:0:0:0:
196,228,56258,1,0,0:0:0:0:
212,240,56366,5,0,0:0:0:0:
232,244,56473,1,0,0:0:0:0:
252,244,56580,1,0,0:0:0:0:
272,244,56687,5,0,0:0:0:0:
292,240,56794,1,0,0:0:0:0:
312,232,57008,1,0,0:0:0:0:
332,224,57116,1,0,0:0:0:0:
352,216,57223,1,0,0:0:0:0:
372,204,57330,1,0,0:0:0:0:
372,184,57437,5,0,0:0:0:0:
372,164,57544,1,0,0:0:0:0:
372,144,57651,1,0,0:0:0:0:
356,132,57758,1,0,0:0:0:0:
336,132,57973,1,0,0:0:0:0:
316,136,58080,1,0,0:0:0:0:
296,140,58187,1,0,0:0:0:0:
288,160,58294,1,0,0:0:0:0:
280,180,58401,1,0,0:0:0:0:
276,200,58508,1,0,0:0:0:0:
280,220,58616,5,0,0:0:0:0:
300,228,58723,1,0,0:0:0:0:
376,328,59687,1,0,0:0:0:0:
356,328,59795,1,0,0:0:0:0:
336,328,59902,1,0,0:0:0:0:
316,328,60009,1,0,0:0:0:0:
296,328,60116,5,0,0:0:0:0:
276,328,60223,1,0,0:0:0:0:
256,328,60330,1,0,0:0:0:0:
236,328,60437,1,0,0:0:0:0:
216,328,60652,1,0,0:0:0:0:
196,328,60759,1,0,0:0:0:0:
176,332,60866,1,0,0:0:0:0:
156,332,60973,1,0,0:0:0:0:
156,312,61080,1,0,0:0:0:0:
156,292,61187,1,0,0:0:0:0:
176,288,61295,1,0,0:0:0:0:
196,288,61402,1,0,0:0:0:0:
216,288,61616,1,0,0:0:0:0:
236,292,61723,5,0,0:0:0:0:
256,296,61830,1,0,0:0:0:0:
276,300,61937,1,0,0:0:0:0:
296,308,62045,1,0,0:0:0:0:
316,312,62152,1,0,0:0:0:0:
336,316,62259,1,0,0:0:0:0:
356,320,62366,1,0,0:0:0:0:
376,324,62580,1,0,0:0:0:0:
396,324,62687,1,0,0:0:0:0:
396,304,62795,1,0,0:0:0:0:
396,284,62902,5,0,0:0:0:0:
396,264,63009,1,0,0:0:0:0:
396,244,63116,1,0,0:0:0:0:
396,224,63223,1,0,0:0:0:0:
396,204,63330,1,0,0:0:0:0:
392,184,63437,1,0,0:0:0:0:
392,164,63652,1,0,0:0:0:0:
336,164,63973,1,0,0:0:0:0:
316,164,64080,1,0,0:0:0:0:
296,164,64187,1,0,0:0:0:0:
276,172,64295,5,0,0:0:0:0:
256,180,64402,1,0,0:0:0:0:
240,192,64509,1,0,0:0:0:0:
224,204,64616,1,0,0:0:0:0:
208,216,64723,1,0,0:0:0:0:
192,228,64937,1,0,0:0:0:0:
176,240,65045,1,0,0:0:0:0:
160,252,65152,1,0,0:0:0:0:
144,264,65259,1,0,0:0:0:0:
152,284,65366,1,0,0:0:0:0:
172,292,65473,1,0,0:0:0:0:
192,296,65580,1,0,0:0:0:0:
212,300,65687,1,0,0:0:0:0:
232,300,66223,1,0,0:0:0:0:
252,304,66330,1,0,0:0:0:0:
272,304,66437,1,0,0:0:0:0:
292,304,66544,1,0,0:0:0:0:
312,304,66651,1,0,0:0:0:0:
332,300,66758,5,0,0:0:0:0:
352,292,66866,1,0,0:0:0:0:
372,284,66973,1,0,0:0:0:0:
392,276,67080,1,0,0:0:0:0:
392,276,67294,1,0,0:0:0:0:
404,260,67401,1,0,0:0:0:0:
408,240,67508,1,0,0:0:0:0:
412,220,67616,1,0,0:0:0:0:
416,200,67723,1,0,0:0:0:0:
424,180,67830,1,0,0:0:0:0:
428,160,67937,1,0,0:0:0:0:
436,140,68044,1,0,0:0:0:0:
416,132,68258,1,0,0:0:0:0:
396,132,68366,1,0,0:0:0:0:
376,132,68473,1,0,0:0:0:0:
356,132,68580,5,0,0:0:0:0:
336,132,68687,1,0,0:0:0:0:
316,136,68794,1,0,0:0:0:0:
296,140,68901,1,0,0:0:0:0:
296,140,69008,1,0,0:0:0:0:
276,144,69223,1,0,0:0:0:0:
256,148,69330,1,0,0:0:0:0:
236,156,69437,1,0,0:0:0:0:
216,160,69544,1,0,0:0:0:0:
196,168,69651,1,0,0:0:0:0:
176,172,69758,1,0,0:0:0:0:
172,152,69866,1,0,0:0:0:0:
164,132,69973,1,0,0:0:0:0:
160,112,70187,1,0,0:0:0:0:
152,92,70294,1,0,0:0:0:0:
148,72,70401,1,0,0:0:0:0:
140,52,70508,1,0,0:0:0:0:
160,44,70616,1,0,0:0:0:0:
180,44,70723,1,0,0:0:0:0:
200,44,70830,5,0,0:0:0:0:
220,44,70937,1,0,0:0:0:0:
240,44,71044,1,0,0:0:0:0:
260,48,71258,1,0,0:0:0:0:
280,52,71366,1,0,0:0:0:0:
300,64,71473,1,0,0:0:0:0:
316,76,71580,1,0,0:0:0:0:
332,88,71687,1,0,0:0:0:0:
344,104,71794,1,0,0:0:0:0:
360,120,71901,1,0,0:0:0:0:
368,140,72008,1,0,0:0:0:0:
156,188,73187,1,0,0:0:0:0:
136,192,73294,5,0,0:0:0:0:
116,192,73401,1,0,0:0:0:0:
96,192,73508,1,0,0:0:0:0:
76,192,73616,1,0,0:0:0:0:
56,196,73723,1,0,0:0:0:0:
56,216,73830,1,0,0:0:0:0:
56,236,73937,1,0,0:0:0:0:
76,244,74044,1,0,0:0:0:0:
96,244,74258,1,0,0:0:0:0:
116,244,74366,1,0,0:0:0:0:
124,264,74473,1,0,0:0:0:0:
120,284,74580,1,0,0:0:0:0:
124,304,74687,1,0,0:0:0:0:
116,324,74794,1,0,0:0:0:0:
96,324,74901,1,0,0:0:0:0:
76,324,75008,1,0,0:0:0:0:
56,324,75223,1,0,0:0:0:0:
36,324,75330,1,0,0:0:0:0:
32,304,75437,1,0,0:0:0:0:
32,284,75544,5,0,0:0:0:0:
32,264,75651,1,0,0:0:0:0:
32,244,75758,1,0,0:0:0:0:
52,244,75866,1,0,0:0:0:0:
72,244,75973,1,0,0:0:0:0:
92,244,76187,1,0,0:0:0:0:
112,248,76294,1,0,0:0:0:0:
120,268,76401,1,0,0:0:0:0:
120,288,76508,1,0,0:0:0:0:
120,308,76616,1,0,0:0:0:0:
116,328,76723,1,0,0:0:0:0:
112,348,76830,1,0,0:0:0:0:
92,340,76937,1,0,0:0:0:0:
72,332,77151,1,0,0:0:0:0:
56,320,77258,1,0,0:0:0:0:
40,308,77366,1,0,0:0:0:0:
28,292,77473,1,0,0:0:0:0:
44,276,77580,1,0,0:0:0:0:
60,260,77687,1,0,0:0:0:0:
76,248,77794,5,0,0:0:0:0:
92,236,77901,1,0,0:0:0:0:
80,220,78008,1,0,0:0:0:0:
68,204,78223,1,0,0:0:0:0:
56,188,78330,1,0,0:0:0:0:
44,172,78437,1,0,0:0:0:0:
32,156,78544,1,0,0:0:0:0:
44,140,78651,1,0,0:0:0:0:
56,124,78758,1,0,0:0:0:0:
68,108,78866,1,0,0:0:0:0:
80,92,78973,1,0,0:0:0:0:
96,76,79187,1,0,0:0:0:0:
112,60,79294,1,0,0:0:0:0:
128,76,79401,1,0,0:0:0:0:
144,92,79508,1,0,0:0:0:0:
160,108,79616,1,0,0:0:0:0:
176,120,79723,1,0,0:0:0:0:
176,120,79830,1,0,0:0:0:0:
164,136,79937,1,0,0:0:0:0:
152,152,80151,1,0,0:0:0:0:
140,168,80258,5,0,0:0:0:0:
128,184,80366,1,0,0:0:0:0:
144,196,80473,1,0,0:0:0:0:
160,208,80580,1,0,0:0:0:0:
176,220,80687,1,0,0:0:0:0:
192,232,80794,1,0,0:0:0:0:
208,244,80901,1,0,0:0:0:0:
228,256,81116,1,0,0:0:0:0:
248,268,81223,1,0,0:0:0:0:
268,280,81330,1,0,0:0:0:0:
288,276,81437,1,0,0:0:0:0:
308,272,81544,1,0,0:0:0:0:
328,268,81651,1,0,0:0:0:0:
348,260,81758,1,0,0:0:0:0:
368,256,81866,1,0,0:0:0:0:
388,248,81973,1,0,0:0:0:0:
408,244,82187,1,0,0:0:0:0:
428,236,82294,1,0,0:0:0:0:
444,224,82401,1,0,0:0:0:0:
440,204,82508,1,0,0:0:0:0:
436,184,82616,5,0,0:0:0:0:
428,164,82723,1,0,0:0:0:0:
420,144,82830,1,0,0:0:0:0:
412,124,82937,2,0,L|352:124,6,35
368,124,83901,2,0,L|308:124,10,35
324,124,85401,2,0,L|264:124,9,35
268,128,86580,1,0,0:0:0:0:
248,128,86687,1,0,0:0:0:0:
228,132,86794,1,0,0:0:0:0:
208,132,86901,1,0,0:0:0:0:
188,136,87116,1,0,0:0:0:0:
168,136,87330,1,0,0:0:0:0:
148,144,87437,1,0,0:0:0:0:
140,164,87544,1,0,0:0:0:0:
132,184,87651,1,0,0:0:0:0:
124,224,87866,1,0,0:0:0:0:
144,228,88080,1,0,0:0:0:0:
164,232,88187,1,0,0:0:0:0:
184,236,88294,1,0,0:0:0:0:
204,240,88401,1,0,0:0:0:0:
224,232,88508,5,0,0:0:0:0:
244,224,88616,5,0,0:0:0:0:
264,212,88723,1,0,0:0:0:0:
284,200,88830,1,0,0:0:0:0:
304,192,88937,1,0,0:0:0:0:
304,156,89151,6,0,B|264:52|264:52|108:84|112:300|252:344,1,490
304,344,91080,2,0,B|468:236|468:236|408:68|408:68|280:56|204:136,1,595
192,100,93116,2,0,L|192:288,1,280
260,368,94294,2,0,L|264:80,1,280
263,88,95258,2,0,P|40:212|244:344,1,595
240,345,97187,2,0,P|472:204|248:96,1,630
253,92,99437,2,0,L|368:92,1,105
152,144,100187,2,0,L|264:144,1,105
248,208,100830,2,0,L|356:208,1,105
156,296,101580,6,0,L|268:296,1,105
256,244,102223,1,0,0:0:0:0:
256,192,102544,1,0,0:0:0:0:
253,92,102866,2,0,L|368:92,1,105
152,144,103616,2,0,L|264:144,1,105
248,208,104259,2,0,L|356:208,1,105
156,296,105009,6,0,L|268:296,1,105
256,244,105652,1,0,0:0:0:0:
256,192,105973,1,0,0:0:0:0:
256,192,107473,12,0,113151,0:0:0:0:
256,192,113473,5,0,0:0:0:0:
272,192,113580,1,0,0:0:0:0:
288,188,113687,1,0,0:0:0:0:
304,184,113794,1,0,0:0:0:0:
320,180,114008,1,0,0:0:0:0:
332,168,114116,1,0,0:0:0:0:
340,152,114223,1,0,0:0:0:0:
336,136,114330,1,0,0:0:0:0:
328,120,114437,1,0,0:0:0:0:
312,116,114544,1,0,0:0:0:0:
296,120,114651,1,0,0:0:0:0:
280,128,114758,1,0,0:0:0:0:
268,140,114973,1,0,0:0:0:0:
256,152,115080,1,0,0:0:0:0:
244,168,115187,1,0,0:0:0:0:
236,184,115294,1,0,0:0:0:0:
224,196,115401,1,0,0:0:0:0:
216,212,115508,1,0,0:0:0:0:
204,224,115616,1,0,0:0:0:0:
192,236,115723,1,0,0:0:0:0:
160,104,117223,5,0,0:0:0:0:
176,104,117330,1,0,0:0:0:0:
192,104,117437,1,0,0:0:0:0:
160,96,120223,5,0,0:0:0:0:
176,96,120330,1,0,0:0:0:0:
192,96,120437,1,0,0:0:0:0:
208,100,120544,2,0,B|392:104|420:148|408:296|112:320,1,525
120,284,122366,1,0,0:0:0:0:
120,268,122473,1,0,0:0:0:0:
120,252,122580,1,0,0:0:0:0:
120,236,122687,1,0,0:0:0:0:
120,220,122794,1,0,0:0:0:0:
120,204,122901,5,0,0:0:0:0:
120,188,123008,1,0,0:0:0:0:
148,168,123223,1,0,0:0:0:0:
164,160,123330,1,0,0:0:0:0:
180,152,123437,1,0,0:0:0:0:
196,144,123544,1,0,0:0:0:0:
212,144,123651,1,0,0:0:0:0:
272,152,123866,1,0,0:0:0:0:
284,164,123973,1,0,0:0:0:0:
296,180,124080,1,0,0:0:0:0:
304,196,124187,1,0,0:0:0:0:
316,212,124294,1,0,0:0:0:0:
336,240,124508,1,0,0:0:0:0:
324,272,124723,5,0,0:0:0:0:
316,288,124830,1,0,0:0:0:0:
308,304,124937,1,0,0:0:0:0:
292,308,125044,1,0,0:0:0:0:
276,308,125151,1,0,0:0:0:0:
260,308,125258,1,0,0:0:0:0:
244,300,125366,1,0,0:0:0:0:
228,300,125473,1,0,0:0:0:0:
212,296,125580,1,0,0:0:0:0:
172,332,126973,5,0,0:0:0:0:
188,332,127080,1,0,0:0:0:0:
204,332,127187,1,0,0:0:0:0:
220,332,127294,1,0,0:0:0:0:
184,92,128794,1,0,0:0:0:0:
200,96,128901,1,0,0:0:0:0:
216,96,129008,1,0,0:0:0:0:
232,100,129116,1,0,0:0:0:0:
248,104,129223,1,0,0:0:0:0:
264,116,129330,1,0,0:0:0:0:
280,128,129437,1,0,0:0:0:0:
292,140,129544,1,0,0:0:0:0:
304,152,129651,1,0,0:0:0:0:
312,168,129758,1,0,0:0:0:0:
320,184,129866,1,0,0:0:0:0:
328,200,130080,1,0,0:0:0:0:
336,216,130187,1,0,0:0:0:0:
340,232,130294,1,0,0:0:0:0:
348,248,130401,1,0,0:0:0:0:
348,264,130508,5,0,0:0:0:0:
344,280,130616,1,0,0:0:0:0:
332,292,130723,1,0,0:0:0:0:
316,300,130830,1,0,0:0:0:0:
300,304,130937,1,0,0:0:0:0:
284,304,131044,1,0,0:0:0:0:
268,304,131151,1,0,0:0:0:0:
252,304,131258,1,0,0:0:0:0:
236,304,131366,1,0,0:0:0:0:
220,300,131473,1,0,0:0:0:0:
204,296,131580,1,0,0:0:0:0:
188,292,131687,1,0,0:0:0:0:
172,284,131794,1,0,0:0:0:0:
156,272,131901,1,0,0:0:0:0:
144,260,132008,1,0,0:0:0:0:
128,252,132116,1,0,0:0:0:0:
116,240,132223,1,0,0:0:0:0:
116,224,132330,1,0,0:0:0:0:
116,208,132437,1,0,0:0:0:0:
