osu file format v14

[General]
AudioFilename: audio.mp3
AudioLeadIn: 0
PreviewTime: 134450
Countdown: 0
SampleSet: Soft
StackLeniency: 0.3
Mode: 0
LetterboxInBreaks: 0
WidescreenStoryboard: 1

[Editor]
Bookmarks: 90362
DistanceSpacing: 1.2
BeatDivisor: 4
GridSize: 4
TimelineZoom: 1

[Metadata]
Title:Close in the Distance
TitleUnicode:Close in the Distance
Artist:Soken Masayoshi
ArtistUnicode:祖堅正慶
Creator:Nyukai
Version:Normal
Source:ファイナルファンタジーXIV: ENDWALKER
Tags:暁月のフィナーレ jason charles miller ffxiv ff final fantasy xiv ultima thule theme english video game videogame mmo mmorpg ost akareh
BeatmapID:3439006
BeatmapSetID:1680581

[Difficulty]
HPDrainRate:4
CircleSize:3
OverallDifficulty:4
ApproachRate:5
SliderMultiplier:2.4
SliderTickRate:1

[Events]
//Background and Video events
0,0,"bg1.jpg",0,0
//Break Periods
//Storyboard Layer 0 (Background)
//Storyboard Layer 1 (Fail)
//Storyboard Layer 2 (Pass)
//Storyboard Layer 3 (Foreground)
//Storyboard Layer 4 (Overlay)
//Storyboard Sound Samples

[TimingPoints]
-20,705.882352941176,4,2,1,40,1,0
22568,-133.333333333333,4,2,1,40,0,0
28127,-133.333333333333,4,2,1,5,0,0
28215,-133.333333333333,4,2,1,40,0,0
29538,-133.333333333333,4,2,1,5,0,0
29627,-133.333333333333,4,2,1,40,0,0
30950,-133.333333333333,4,2,1,5,0,0
31038,-133.333333333333,4,2,1,40,0,0
38009,-133.333333333333,4,2,1,5,0,0
38097,-133.333333333333,4,2,1,40,0,0
42244,-133.333333333333,4,2,1,5,0,0
42332,-133.333333333333,4,2,1,40,0,0
43303,-133.333333333333,4,2,1,5,0,0
43391,-133.333333333333,4,2,1,40,0,0
50715,-133.333333333333,4,2,1,5,0,0
50803,-133.333333333333,4,2,1,40,0,0
51774,-133.333333333333,4,2,1,5,0,0
51862,-133.333333333333,4,2,1,40,0,0
52127,-133.333333333333,4,2,1,5,0,0
52215,-133.333333333333,4,2,1,40,0,0
60597,-133.333333333333,4,2,1,5,0,0
60685,-133.333333333333,4,2,1,40,0,0
64127,-133.333333333333,4,2,1,5,0,0
64215,-133.333333333333,4,2,1,40,0,0
71891,-133.333333333333,4,2,1,5,0,0
71979,-133.333333333333,4,2,1,40,0,0
72244,-133.333333333333,4,2,1,5,0,0
72332,-133.333333333333,4,2,1,40,0,0
73303,-133.333333333333,4,2,1,5,0,0
73391,-133.333333333333,4,2,1,40,0,0
77538,-133.333333333333,4,2,1,5,0,0
77627,-133.333333333333,4,2,1,40,0,0
80009,-133.333333333333,4,2,1,5,0,0
80097,-133.333333333333,4,2,1,40,0,0
83538,-133.333333333333,4,2,1,5,0,0
83627,-133.333333333333,4,2,1,40,0,0
90332,-117.647058823529,4,2,1,50,0,0
96421,-117.647058823529,4,2,1,5,0,0
96509,-117.647058823529,4,2,1,50,0,0
98715,-117.647058823529,4,2,1,5,0,0
98803,-117.647058823529,4,2,1,50,0,0
100127,-117.647058823529,4,2,1,5,0,0
100215,-117.647058823529,4,2,1,50,0,0
102950,-117.647058823529,4,2,1,5,0,0
103038,-117.647058823529,4,2,1,50,0,0
106127,-117.647058823529,4,2,1,5,0,0
106215,-117.647058823529,4,2,1,50,0,0
107185,-117.647058823529,4,2,1,5,0,0
107274,-117.647058823529,4,2,1,50,0,0
110009,-117.647058823529,4,2,1,5,0,0
110097,-117.647058823529,4,2,1,50,0,0
110538,-117.647058823529,4,2,1,5,0,0
110627,-117.647058823529,4,2,1,50,0,0
111421,-117.647058823529,4,2,1,5,0,0
111509,-117.647058823529,4,2,1,50,0,0
112921,-105.263157894737,4,2,1,50,0,0
115656,-105.263157894737,4,2,1,5,0,0
115744,-105.263157894737,4,2,1,50,0,0
117068,-105.263157894737,4,2,1,5,0,0
117156,-105.263157894737,4,2,1,50,0,0
119009,-105.263157894737,4,2,1,5,0,0
119097,-105.263157894737,4,2,1,50,0,0
122362,-105.263157894737,4,2,1,5,0,0
122450,-105.263157894737,4,2,1,50,0,0
123774,-105.263157894737,4,2,1,5,0,0
123862,-105.263157894737,4,2,1,50,0,0
128362,-105.263157894737,4,2,1,5,0,0
128450,-105.263157894737,4,2,1,50,0,0
129774,-105.263157894737,4,2,1,5,0,0
129862,-105.263157894737,4,2,1,50,0,0
131891,-105.263157894737,4,2,1,5,0,0
131979,-105.263157894737,4,2,1,50,0,0
134362,-105.263157894737,4,2,1,5,0,0
134450,-105.263157894737,4,2,1,50,0,0
135509,-100,4,2,1,60,0,0
137185,-100,4,2,1,5,0,0
137274,-100,4,2,1,60,0,0
138244,-100,4,2,1,5,0,0
138332,-100,4,2,1,60,0,0
140009,-100,4,2,1,5,0,0
140097,-100,4,2,1,60,0,0
141068,-100,4,2,1,5,0,0
141156,-100,4,2,1,60,0,0
146715,-100,4,2,1,5,0,0
146803,-100,4,2,1,60,0,0
148479,-100,4,2,1,5,0,0
148568,-100,4,2,1,60,0,0
151303,-100,4,2,1,5,0,0
151391,-100,4,2,1,60,0,0
152362,-100,4,2,1,5,0,0
152450,-100,4,2,1,60,0,0
156950,-100,4,2,1,5,0,0
157038,-100,4,2,1,60,0,0
158097,-100,4,2,1,60,0,1
159774,-100,4,2,1,5,0,1
159862,-100,4,2,1,60,0,1
160832,-100,4,2,1,5,0,1
160921,-100,4,2,1,60,0,1
162597,-100,4,2,1,5,0,1
162685,-100,4,2,1,60,0,1
163656,-100,4,2,1,5,0,1
163744,-100,4,2,1,60,0,1
165421,-100,4,2,1,5,0,1
165509,-100,4,2,1,60,0,1
168244,-100,4,2,1,5,0,1
168332,-100,4,2,1,60,0,1
169303,-100,4,2,1,5,0,1
169391,-100,4,2,1,60,0,1
171068,-100,4,2,1,5,0,1
171156,-100,4,2,1,60,0,1
173891,-100,4,2,1,5,0,1
173979,-100,4,2,1,60,0,1
174950,-100,4,2,1,5,0,1
175038,-100,4,2,1,60,0,1
176715,-100,4,2,1,5,0,1
176803,-100,4,2,1,60,0,1
177774,-100,4,2,1,5,0,1
177862,-100,4,2,1,60,0,1
180685,-133.333333333333,4,2,1,40,0,0
202391,-133.333333333333,4,2,1,5,0,0

[Colours]
Combo1 : 120,158,146
Combo2 : 206,102,190
SliderBorder : 206,102,190
SliderTrackOverride : 120,158,146

[HitObjects]
332,152,22568,6,0,P|384:152|436:88,2,135.000005149841,2|2|2,0:0|0:0|0:0,0:0:0:0:
256,52,23979,1,2,0:0:0:0:
28,164,24685,1,2,0:0:0:0:
120,252,25038,1,2,0:0:0:0:
216,332,25391,6,0,P|284:332|332:276,1,135.000005149841,2|2,0:0|0:0,0:0:0:0:
408,116,26450,1,2,0:0:0:0:
304,44,26803,2,0,B|260:44|260:44|224:60|224:60|168:60,2,135.000005149841,2|2|2,0:0|0:0|0:0,0:0:0:0:
424,84,28215,5,2,0:0:0:0:
424,84,28391,2,0,B|424:135|424:135|408:171|408:171|408:215,1,135.000005149841,0|2,0:0|0:0,0:0:0:0:
336,320,29274,2,0,P|256:285|176:320,1,180.000006866455,2|0,0:0|0:0,0:0:0:0:
116,344,30156,1,2,0:0:0:0:
116,344,30332,2,0,L|72:352,2,45.0000017166138,0|0|2,0:0|0:0|0:0,0:0:0:0:
124,216,31038,5,2,0:0:0:0:
192,112,31391,2,0,B|255:134|255:86|323:110,1,135.000005149841,0|2,0:0|0:0,0:0:0:0:
420,192,32274,1,0,0:0:0:0:
420,192,32450,2,0,L|396:304,1,90.0000034332277,2|0,0:0|0:0,0:0:0:0:
384,340,32979,1,2,0:0:0:0:
268,288,33332,2,0,L|208:256,1,45.0000017166138,0|2,0:0|0:0,0:0:0:0:
172,236,33685,1,0,0:0:0:0:
172,236,33862,6,0,B|140:176|140:176|140:104,1,135.000005149841,2|2,0:0|0:0,0:0:0:0:
152,48,34568,1,0,0:0:0:0:
256,120,34921,1,0,0:0:0:0:
256,120,35097,2,0,P|304:120|336:152,1,90.0000034332277,2|2,0:0|0:0,0:0:0:0:
380,332,35979,1,2,0:0:0:0:
256,356,36332,1,2,0:0:0:0:
132,332,36685,6,0,B|104:296|104:296|72:276|72:276|40:220,2,135.000005149841,2|2|2,0:0|0:0|0:0,0:0:0:0:
256,356,38097,2,0,B|284:320|284:320|316:300|316:300|348:244,1,135.000005149841,2|2,0:0|0:0,0:0:0:0:
400,144,38979,1,2,0:0:0:0:
400,144,39156,1,0,0:0:0:0:
336,36,39509,6,0,P|256:1|176:36,1,180.000006866455,2|0,0:0|0:0,0:0:0:0:
68,192,40744,1,2,0:0:0:0:
68,192,40921,2,0,L|140:280,1,90.0000034332277,0|2,0:0|0:0,0:0:0:0:
232,332,41627,2,0,L|300:332,1,45.0000017166138,2|0,0:0|0:0,0:0:0:0:
328,300,41979,1,2,0:0:0:0:
440,244,42332,5,2,0:0:0:0:
440,244,42509,2,0,B|412:208|412:208|380:188|380:188|348:132,1,135.000005149841,0|2,0:0|0:0,0:0:0:0:
256,64,43391,1,2,0:0:0:0:
157,143,43744,2,0,L|100:96,2,45.0000017166138,2|0|0,0:0|0:0|0:0,0:0:0:0:
204,188,44274,1,2,0:0:0:0:
204,188,44450,2,0,L|296:268,1,90.0000034332277,0|0,0:0|0:0,0:0:0:0:
380,312,45156,6,0,P|440:312|496:248,2,135.000005149841,2|2|2,0:0|0:0|0:0,0:0:0:0:
256,280,46568,1,2,0:0:0:0:
52,132,47274,1,2,0:0:0:0:
148,48,47627,1,2,0:0:0:0:
240,132,47979,6,0,B|284:132|284:132|324:148|324:148|380:148,1,135.000005149841,2|2,0:0|0:0,0:0:0:0:
492,296,49038,1,2,0:0:0:0:
376,344,49391,2,0,P|308:344|256:288,1,135.000005149841,2|2,0:0|0:0,0:0:0:0:
228,248,50097,1,0,0:0:0:0:
160,140,50450,1,2,0:0:0:0:
256,56,50803,5,2,0:0:0:0:
256,56,50979,2,0,B|319:78|319:30|387:54,1,135.000005149841,0|2,0:0|0:0,0:0:0:0:
476,144,51862,1,2,0:0:0:0:
436,264,52215,2,0,B|373:286|373:238|305:262,1,135.000005149841,2|2,0:0|0:0,0:0:0:0:
256,304,52921,1,0,0:0:0:0:
148,236,53274,1,2,0:0:0:0:
40,168,53627,6,0,P|40:108|152:48,1,180.000006866455,2|0,0:0|0:0,0:0:0:0:
184,76,54509,1,2,0:0:0:0:
184,76,54685,2,0,B|240:76|240:76|288:104|288:104|376:104,1,180.000006866455,0|0,0:0|0:0,0:0:0:0:
448,192,55744,1,2,0:0:0:0:
256,356,56450,6,0,L|120:320,1,135.000005149841,2|2,0:0|0:0,0:0:0:0:
64,304,57156,1,0,0:0:0:0:
156,220,57509,1,0,0:0:0:0:
156,220,57685,2,0,L|264:248,1,90.0000034332277,2|2,0:0|0:0,0:0:0:0:
420,312,58568,1,2,0:0:0:0:
456,192,58921,1,2,0:0:0:0:
420,72,59274,6,0,P|376:40|284:40,2,135.000005149841,2|2|2,0:0|0:0|0:0,0:0:0:0:
456,192,60685,2,0,P|412:224|320:224,1,135.000005149841,2|2,0:0|0:0,0:0:0:0:
280,192,61391,2,0,L|280:136,2,45.0000017166138,0|2|0,0:0|0:0|0:0,0:0:0:0:
256,316,62097,5,2,0:0:0:0:
132,332,62450,2,0,P|72:332|24:216,1,180.000006866455,2|2,0:0|0:0,0:0:0:0:
36,176,63332,2,0,L|144:80,1,135.000005149841,0|2,0:0|0:0,0:0:0:0:
256,44,64215,1,2,0:0:0:0:
375,86,64568,6,0,L|476:176,2,135.000005149841,2|2|2,0:0|0:0|0:0,0:0:0:0:
256,44,65979,2,0,B|226:128|290:128|258:220,1,180.000006866455,2|0,0:0|0:0,0:0:0:0:
256,284,66862,1,2,0:0:0:0:
256,284,67038,1,2,0:0:0:0:
148,348,67391,1,2,0:0:0:0:
44,280,67744,5,2,0:0:0:0:
192,76,68450,1,2,0:0:0:0:
320,76,68803,1,2,0:0:0:0:
468,280,69862,2,0,L|400:344,1,90.0000034332277,2|2,0:0|0:0,0:0:0:0:
276,348,70568,6,0,P|192:348|128:244,1,180.000006866455,2|0,0:0|0:0,0:0:0:0:
40,192,71627,1,2,0:0:0:0:
131,103,71979,1,2,0:0:0:0:
220,12,72332,2,0,B|276:12|276:12|328:36|328:36|404:36,1,180.000006866455,2|2,0:0|0:0,0:0:0:0:
476,140,73391,5,2,0:0:0:0:
476,140,73568,2,0,P|413:159|349:139,1,135.000005149841,0|2,0:0|0:0,0:0:0:0:
223,124,74450,2,0,B|127:64|127:64|31:124,1,225.000008583069,2|2,0:0|0:0,0:0:0:0:
56,181,75509,1,0,0:0:0:0:
144,272,75862,1,2,0:0:0:0:
232,364,76215,6,0,P|320:364|384:292,1,180.000006866455,2|2,0:0|0:0,0:0:0:0:
440,188,77274,1,2,0:0:0:0:
392,72,77627,1,2,0:0:0:0:
268,72,77979,2,0,B|216:72|216:72|156:48|156:48|76:48,1,180.000006866455,2|2,0:0|0:0,0:0:0:0:
68,172,79038,6,0,P|68:301|179:366,1,270.000010299683,2|2,0:0|0:0,0:0:0:0:
496,156,81156,2,0,P|496:112|460:64,1,90.0000034332277,2|2,0:0|0:0,0:0:0:0:
360,132,81862,6,0,P|292:132|240:72,1,135.000005149841,2|0,0:0|0:0,0:0:0:0:
196,48,82568,1,2,0:0:0:0:
116,144,82921,1,2,0:0:0:0:
248,360,83627,2,0,L|396:348,1,135.000005149841,2|2,0:0|0:0,0:0:0:0:
444,332,84332,1,0,0:0:0:0:
356,240,84685,6,0,B|260:208|260:272|164:240,1,180.000006866455,2|2,0:0|0:0,0:0:0:0:
72,192,85744,1,0,0:0:0:0:
72,192,85921,2,0,P|72:120|136:64,1,135.000005149841,2|0,0:0|0:0,0:0:0:0:
224,20,86803,1,2,0:0:0:0:
336,76,87156,1,2,0:0:0:0:
352,200,87509,6,0,B|256:168|256:232|160:200,1,180.000006866455,2|2,0:0|0:0,0:0:0:0:
160,332,88568,2,0,B|256:364|256:300|352:332,1,180.000006866455,2|0,0:0|0:0,0:0:0:0:
452,276,89627,1,2,0:0:0:0:
256,100,90332,6,0,B|207:100|207:100|147:63,1,102.000001945496,2|0,1:2|0:0,0:0:0:0:
100,48,90862,2,0,L|120:244,1,153.000002918243,2|0,1:2|1:0,0:0:0:0:
128,332,91744,1,2,0:0:0:0:
256,100,92450,1,10,0:0:0:0:
368,176,92803,1,2,0:0:0:0:
368,308,93156,6,0,P|312:308|260:260,1,102.000001945496,2|0,1:2|0:0,0:0:0:0:
236,228,93685,2,0,B|177:228|177:228|133:205|133:205|70:205,1,153.000002918243,2|2,1:2|1:2,0:0:0:0:
108,76,94568,2,0,B|163:76|163:76|204:96|204:96|263:96,1,153.000002918243,2|2,0:0|0:0,0:0:0:0:
324,100,95274,2,0,P|372:100|420:160,1,102.000001945496,8|2,0:0|0:0,0:0:0:0:
416,272,95979,5,2,1:2:0:0:
416,272,96156,2,0,P|368:272|316:220,1,102.000001945496,0|0,0:0|1:0,0:0:0:0:
188,100,97038,1,2,1:2:0:0:
58,126,97391,2,0,B|22:191|22:191|58:259,1,153.000002918243,2|2,0:0|0:0,0:0:0:0:
92,320,98097,2,0,L|92:372,2,51.0000009727478,10|0|2,0:0|0:0|0:0,0:0:0:0:
164,208,98803,6,0,P|252:208|312:292,1,153.000002918243,2|0,1:2|1:0,0:0:0:0:
472,348,99862,2,0,B|512:247|431:247|472:147,1,204.000003890991,2|0,1:2|0:0,0:0:0:0:
392,44,100921,1,10,0:0:0:0:
256,272,101627,6,0,P|208:272|164:236,1,102.000001945496,2|0,1:2|0:0,0:0:0:0:
148,176,102156,2,0,L|300:60,2,153.000002918243,2|0|2,1:2|1:0|0:0,0:0:0:0:
200,368,103744,1,10,0:0:0:0:
256,252,104097,1,2,0:0:0:0:
316,368,104450,6,0,P|392:368|456:288,2,153.000002918243,2|2|2,1:2|1:2|1:2,0:0:0:0:
336,236,105862,2,0,B|312:189|312:189|273:166|273:166|243:113,1,153.000002918243,2|2,0:0|0:0,0:0:0:0:
204,68,106568,2,0,P|160:44|116:68,1,102.000001945496,8|2,0:0|0:0,0:0:0:0:
60,188,107274,6,0,P|102:211|145:188,1,102.000001945496,2|0,1:2|0:0,0:0:0:0:
212,172,107803,2,0,B|237:217|237:217|279:241|279:241|303:290,1,153.000002918243,0|2,1:2|1:2,0:0:0:0:
432,316,108685,2,0,P|492:276|492:160,1,153.000002918243,2|0,0:0|0:0,0:0:0:0:
476,144,109391,2,0,L|428:100,1,51.0000009727478,10|0,0:0|0:0,0:0:0:0:
388,68,109744,1,2,0:0:0:0:
256,64,110097,6,0,B|198:64|198:64|161:85|161:85|85:85,1,153.000002918243,2|0,1:2|1:0,0:0:0:0:
104,284,111156,2,0,B|158:284|158:284|192:263|192:263|263:263,1,153.000002918243,2|0,1:2|0:0,0:0:0:0:
304,308,111862,1,2,0:0:0:0:
416,236,112215,2,0,P|439:192|416:148,1,102.000001945496,10|2,0:0|0:0,0:0:0:0:
312,68,112921,6,0,B|236:68|236:124|144:124,1,170.999995433807,6|0,1:2|1:0,0:0:0:0:
92,140,113627,1,2,0:0:0:0:
48,256,113979,2,0,P|139:313|229:255,1,227.999993911743,2|0,1:2|0:0,0:0:0:0:
296,148,115038,1,10,0:0:0:0:
356,36,115391,1,2,0:0:0:0:
472,88,115744,5,2,1:2:0:0:
424,204,116097,2,0,L|392:268,1,56.9999984779358,0|0,0:0|1:0,0:0:0:0:
368,312,116450,1,2,0:0:0:0:
256,260,116803,2,0,B|143:214|143:310|23:262,1,227.999993911743,2|2,1:2|0:0,0:0:0:0:
36,140,117862,2,0,B|64:96|104:96|104:96|148:96,1,113.999996955872,8|2,0:0|0:0,0:0:0:0:
260,120,118568,5,2,1:2:0:0:
260,120,118744,2,0,B|288:164|328:164|328:164|372:164,1,113.999996955872,2|0,0:0|1:0,0:0:0:0:
480,308,119627,2,0,B|404:308|404:308|336:280|336:280|236:280,1,227.999993911743,2|0,1:2|0:0,0:0:0:0:
132,280,120685,1,10,0:0:0:0:
40,192,121038,1,2,0:0:0:0:
132,108,121391,6,0,P|204:108|300:196,1,170.999995433807,2|0,1:2|1:0,0:0:0:0:
320,216,122097,1,2,0:0:0:0:
256,324,122450,2,0,B|143:278|143:374|23:326,1,227.999993911743,2|2,1:2|0:0,0:0:0:0:
32,204,123509,2,0,B|0:152|0:152|32:100,1,113.999996955872,8|2,0:0|0:0,0:0:0:0:
148,68,124215,6,0,B|212:68|212:68|252:48|252:48|336:48,1,170.999995433807,2|0,1:2|1:0,0:0:0:0:
448,180,125274,2,0,B|384:180|384:180|344:200|344:200|260:200,1,170.999995433807,2|2,1:2|0:0,0:0:0:0:
112,280,126332,1,10,0:0:0:0:
24,188,126685,1,2,0:0:0:0:
112,96,127038,6,0,B|192:96|192:48|292:48,1,170.999995433807,2|0,1:2|1:0,0:0:0:0:
336,68,127744,1,2,0:0:0:0:
444,128,128097,2,0,P|504:224|443:319,1,227.999993911743,2|2,1:2|0:0,0:0:0:0:
340,256,129156,1,8,0:0:0:0:
252,348,129509,1,2,0:0:0:0:
172,252,129862,6,0,L|68:84,2,170.999995433807,2|0|2,1:2|1:0|1:2,0:0:0:0:
252,348,131274,1,2,0:0:0:0:
448,192,131979,1,10,0:0:0:0:
368,96,132332,1,2,0:0:0:0:
280,8,132685,6,0,P|208:8|120:104,2,170.999995433807,2|0|2,1:2|1:0|1:2,0:0:0:0:
452,192,134450,2,0,L|404:324,1,113.999996955872,2|0,0:0|0:0,0:0:0:0:
304,232,135156,1,2,0:0:0:0:
188,296,135509,6,0,P|136:296|72:224,1,120,2|2,1:2|0:0,0:0:0:0:
40,208,136038,2,0,L|132:132,1,120,2|2,1:2|0:0,0:0:0:0:
188,92,136568,1,2,1:2:0:0:
308,36,136921,1,2,0:0:0:0:
428,92,137274,2,0,L|408:164,1,60,2|0,0:0|0:0,0:0:0:0:
392,212,137627,2,0,P|356:244|272:244,1,120,8|2,0:0|0:0,0:0:0:0:
172,188,138332,6,0,B|132:220|132:220|100:220|100:220|24:256,1,120,2|2,1:2|0:0,0:0:0:0:
16,192,138862,2,0,P|16:140|68:92,1,120,2|2,1:2|0:0,0:0:0:0:
120,68,139391,1,2,1:2:0:0:
244,20,139744,1,2,0:0:0:0:
256,152,140097,2,0,L|276:232,1,60,2|0,0:0|0:0,0:0:0:0:
288,276,140450,2,0,B|344:300|344:300|398:277,1,120,8|2,0:0|0:0,0:0:0:0:
460,160,141156,6,0,B|482:101|439:101|460:43,1,120,2|2,1:2|0:0,0:0:0:0:
396,28,141685,2,0,L|285:75,1,120,2|2,1:2|0:0,0:0:0:0:
224,104,142215,1,2,1:2:0:0:
104,160,142568,2,0,L|104:224,1,60,2|2,0:0|0:0,0:0:0:0:
104,288,142921,1,2,0:0:0:0:
224,340,143274,1,8,0:0:0:0:
468,244,143979,6,0,P|468:192|420:132,1,120,2|2,1:2|0:0,0:0:0:0:
368,116,144509,2,0,L|240:68,1,120,2|2,1:2|0:0,0:0:0:0:
192,52,145038,1,2,1:2:0:0:
160,180,145391,1,2,0:0:0:0:
132,308,145744,2,0,P|160:308|196:332,1,60,2|0,0:0|0:0,0:0:0:0:
244,356,146097,1,10,0:0:0:0:
368,308,146450,1,2,0:0:0:0:
336,180,146803,6,0,P|272:180|224:128,1,120,2|2,1:2|0:0,0:0:0:0:
188,96,147332,2,0,P|124:96|76:148,1,120,2|2,1:2|0:0,0:0:0:0:
88,196,147862,1,2,1:2:0:0:
180,288,148215,1,2,0:0:0:0:
292,356,148568,2,0,L|336:300,1,60,2|0,0:0|0:0,0:0:0:0:
380,268,148921,2,0,B|380:212|380:212|336:148,1,120,8|2,0:0|0:0,0:0:0:0:
280,44,149627,6,0,P|228:44|180:88,1,120,2|2,1:2|0:0,0:0:0:0:
160,152,150156,2,0,P|118:193|59:196,1,120,2|2,1:2|0:0,0:0:0:0:
36,260,150685,1,2,1:2:0:0:
152,320,151038,1,2,0:0:0:0:
280,356,151391,2,0,L|348:336,1,60,2|0,0:0|0:0,0:0:0:0:
400,320,151744,2,0,P|460:320|504:276,1,120,8|2,0:0|0:0,0:0:0:0:
440,164,152450,6,0,P|388:164|340:120,1,120,2|2,1:2|0:0,0:0:0:0:
280,148,152979,2,0,L|192:264,1,120,2|2,1:2|0:0,0:0:0:0:
164,292,153509,1,2,1:2:0:0:
76,192,153862,2,0,L|132:124,1,60,2|2,0:0|0:0,0:0:0:0:
156,96,154215,1,2,0:0:0:0:
256,8,154568,1,8,0:0:0:0:
444,192,155274,6,0,B|426:244|468:244|447:308,1,120,2|2,1:2|0:0,0:0:0:0:
388,336,155803,2,0,B|335:318|335:360|271:339,1,120,2|2,1:2|0:0,0:0:0:0:
216,304,156332,1,2,1:2:0:0:
144,192,156685,1,2,0:0:0:0:
356,36,157391,1,10,0:0:0:0:
412,156,157744,1,2,0:0:0:0:
444,284,158097,6,0,P|391:284|326:358,1,120,6|2,1:2|0:0,0:0:0:0:
276,344,158627,2,0,P|223:343|158:269,1,120,2|2,1:2|0:0,0:0:0:0:
124,260,159156,1,2,1:2:0:0:
40,160,159509,1,2,0:0:0:0:
120,56,159862,2,0,L|192:64,1,60,2|0,0:0|0:0,0:0:0:0:
244,72,160215,2,0,P|289:107|291:165,1,120,10|2,0:0|0:0,0:0:0:0:
256,292,160921,6,0,B|304:292|304:292|343:272|343:272|405:272,1,120,2|2,1:2|0:0,0:0:0:0:
436,264,161450,2,0,B|439:218|439:218|429:186|429:186|434:146,1,120,2|2,1:2|0:0,0:0:0:0:
436,80,161979,1,2,1:2:0:0:
332,0,162332,1,2,0:0:0:0:
212,52,162685,1,2,0:0:0:0:
288,160,163038,2,0,P|344:160|388:208,1,120,8|2,0:0|0:0,0:0:0:0:
424,332,163744,6,0,B|363:332|363:332|307:298,1,120,2|2,1:2|0:0,0:0:0:0:
256,268,164274,2,0,B|195:268|195:268|139:301,1,120,2|2,1:2|0:0,0:0:0:0:
112,356,164803,1,2,1:2:0:0:
48,240,165156,2,0,L|96:172,1,60,2|2,0:0|0:0,0:0:0:0:
124,140,165509,1,2,0:0:0:0:
204,32,165862,2,0,B|268:32|268:32|328:68,1,120,8|2,0:0|0:0,0:0:0:0:
420,140,166568,6,0,B|420:171|443:192|443:192|420:214|420:246,1,120,2|2,1:2|0:0,0:0:0:0:
360,276,167097,2,0,B|328:276|307:253|307:253|285:276|253:276,1,120,2|2,1:2|0:0,0:0:0:0:
200,316,167627,1,2,1:2:0:0:
68,312,167979,1,2,0:0:0:0:
8,196,168332,1,2,0:0:0:0:
68,72,168685,1,10,0:0:0:0:
188,128,169038,1,2,0:0:0:0:
128,248,169391,6,0,B|167:251|167:251|198:277|198:277|237:283,1,120,2|2,1:2|0:0,0:0:0:0:
296,312,169921,2,0,B|334:308|334:308|365:282|365:282|405:276,1,120,2|2,1:2|0:0,0:0:0:0:
468,252,170450,1,2,1:2:0:0:
412,132,170803,1,2,0:0:0:0:
348,16,171156,2,0,L|276:60,1,60,2|0,0:0|0:0,0:0:0:0:
240,80,171509,2,0,P|189:52|137:78,1,120,10|2,0:0|0:0,0:0:0:0:
68,192,172215,6,0,L|146:310,1,120,2|2,1:2|0:0,0:0:0:0:
188,328,172744,2,0,B|220:360|252:360|252:360|316:360,1,120,2|2,1:2|0:0,0:0:0:0:
352,320,173274,1,2,1:2:0:0:
440,220,173627,1,2,0:0:0:0:
356,120,173979,1,2,0:0:0:0:
268,20,174332,2,0,B|206:20|206:20|166:62,1,120,10|2,0:0|0:0,0:0:0:0:
92,172,175038,6,0,P|152:172|196:224,1,120,2|2,1:2|0:0,0:0:0:0:
212,276,175568,2,0,L|330:255,1,120,2|2,1:2|0:0,0:0:0:0:
396,244,176097,1,2,1:2:0:0:
360,116,176450,1,2,0:0:0:0:
256,32,176803,1,2,0:0:0:0:
152,112,177156,2,0,P|112:155|108:213,1,120,8|2,0:0|0:0,0:0:0:0:
204,304,177862,6,0,P|244:336|320:336,1,120,2|2,1:2|0:0,0:0:0:0:
368,308,178391,2,0,P|400:268|400:192,1,120,2|2,1:2|0:0,0:0:0:0:
364,148,178921,1,2,1:2:0:0:
252,76,179274,1,2,0:0:0:0:
108,296,179979,1,8,0:0:0:0:
352,228,180685,6,0,L|392:132,2,90.0000034332277,2|0|2,0:0|0:0|0:0,0:0:0:0:
280,332,181744,2,0,P|188:332|96:248,2,180.000006866455,2|2|0,0:0|0:0|0:0,0:0:0:0:
312,208,183509,5,2,0:0:0:0:
328,84,183862,2,0,P|272:84|232:116,1,90.0000034332277,0|2,0:0|0:0,0:0:0:0:
140,172,184568,2,0,P|72:216|72:328,2,180.000006866455,2|2|0,0:0|0:0|0:0,0:0:0:0:
256,128,186332,5,2,0:0:0:0:
372,172,186685,2,0,B|420:172|420:172|472:216,2,90.0000034332277,0|0|2,0:0|0:0|0:0,0:0:0:0:
140,172,188803,1,0,0:0:0:0:
180,52,189156,5,2,0:0:0:0:
256,152,189509,1,0,0:0:0:0:
332,52,189862,1,2,0:0:0:0:
488,248,190568,2,0,P|488:312|448:352,1,90.0000034332277,2|0,0:0|0:0,0:0:0:0:
352,308,191274,1,2,0:0:0:0:
112,232,191979,6,0,B|92:192|92:192|112:152,1,90.0000034332277,2|0,0:0|0:0,0:0:0:0:
192,52,192685,1,2,0:0:0:0:
256,160,193038,2,0,B|336:187|336:123|432:155,2,180.000006866455,2|2|0,0:0|0:0|0:0,0:0:0:0:
132,192,194803,5,2,0:0:0:0:
164,312,195156,1,0,0:0:0:0:
284,276,195509,1,2,0:0:0:0:
404,240,195862,2,0,P|464:180|464:88,2,180.000006866455,2|2|0,0:0|0:0|0:0,0:0:0:0:
288,288,197627,5,2,0:0:0:0:
76,52,199391,2,0,B|120:52|120:52|180:80|180:80|252:80,1,180.000006866455,2|2,0:0|0:0,0:0:0:0:
360,140,200450,5,2,0:0:0:0:
336,264,200803,2,0,P|256:300|176:264,1,180.000006866455,2|2,0:0|0:0,0:0:0:0:
152,140,201862,1,2,0:0:0:0:
256,192,202215,12,0,204685,0:0:0:0:
