osu file format v14

[General]
AudioFilename: audio.mp3
AudioLeadIn: 0
PreviewTime: 3270
Countdown: 0
SampleSet: Soft
StackLeniency: 0.3
Mode: 0
LetterboxInBreaks: 0
WidescreenStoryboard: 1

[Editor]
Bookmarks: 4770,5476,9006,20300,31594,54182,100770,123358,134653
DistanceSpacing: 0.8
BeatDivisor: 4
GridSize: 4
TimelineZoom: 1.7

[Metadata]
Title:A Long Fall
TitleUnicode:ロングフォール ~異界遺構 シルクス・ツイニング~
Artist:Soken Masayoshi
ArtistUnicode:祖堅正慶
Creator:Ryuusei Aika
Version:koko's Insane
Source:ファイナルファンタジーXIV: 漆黒のヴィランズ
Tags:Starlight Dored Imouto Koko Garden Yorita Yoshino -ClariS- kanor Final Fantasy XIV XIV: Shadowbringers electronic instrumental
BeatmapID:2852400
BeatmapSetID:1266110

[Difficulty]
HPDrainRate:6
CircleSize:4
OverallDifficulty:8
ApproachRate:9
SliderMultiplier:1.8
SliderTickRate:1

[Events]
//Background and Video events
0,0,"Tycoon.jpg",0,0
//Break Periods
//Storyboard Layer 0 (Background)
//Storyboard Layer 1 (Fail)
//Storyboard Layer 2 (Pass)
//Storyboard Layer 3 (Foreground)
//Storyboard Layer 4 (Overlay)
//Storyboard Sound Samples

[TimingPoints]
3359,352.941176470588,4,2,2,50,1,0
8653,-100,4,2,2,70,0,0
31594,-100,4,2,2,60,0,0
54182,-100,4,2,2,70,0,0
65476,-100,4,2,2,70,0,1
76770,-200,4,2,2,50,0,0
88064,-133.333333333333,4,2,2,60,0,0
93711,-100,4,2,2,60,0,0
100770,-100,4,2,2,70,0,0
123358,-100,4,2,2,60,0,0
129006,-100,4,2,2,70,0,0
134653,-100,4,2,2,60,0,0
139947,-100,4,2,2,70,0,0

[Colours]
Combo1 : 0,128,192
Combo2 : 64,128,128

[HitObjects]
403,91,3359,6,0,L|389:180,1,90,0|0,3:0|0:0,0:0:0:0:
260,131,3711,2,0,L|246:42,1,90,0|0,3:0|0:0,0:0:0:0:
407,87,4064,2,0,L|393:176,1,90,0|0,3:0|0:0,0:0:0:0:
264,127,4417,2,0,L|250:38,1,90,0|0,3:0|0:0,0:0:0:0:
411,83,4770,6,0,L|397:172,1,90,0|0,3:0|0:0,0:0:0:0:
268,123,5123,2,0,L|254:34,1,90,0|0,3:0|0:0,0:0:0:0:
415,79,5476,2,0,L|401:168,1,90,0|0,3:0|0:0,0:0:0:0:
272,119,5829,2,0,L|258:30,1,90,0|0,3:0|0:0,0:0:0:0:
419,75,6182,6,0,L|405:164,1,90,0|0,3:0|0:0,0:0:0:0:
276,115,6535,2,0,L|262:26,1,90,0|0,3:0|0:0,0:0:0:0:
423,71,6888,2,0,L|409:160,1,90,0|0,3:0|0:0,0:0:0:0:
280,111,7241,2,0,L|266:22,1,90,0|0,3:0|0:0,0:0:0:0:
427,67,7594,6,0,L|413:156,1,90,0|0,3:0|0:0,0:0:0:0:
284,107,7947,2,0,L|270:18,1,90,0|0,3:0|0:0,0:0:0:0:
270,18,8653,1,8,0:0:0:0:
427,67,8829,1,0,0:0:0:0:
431,71,8917,1,8,0:0:0:0:
435,75,9006,6,0,L|421:164,1,90,4|0,3:2|0:0,0:0:0:0:
339,300,9358,1,8,0:0:0:0:
481,273,9535,2,0,L|495:184,1,90,0|0,0:0|3:0,0:0:0:0:
346,110,9888,1,0,3:0:0:0:
346,110,9976,1,0,0:0:0:0:
346,110,10064,1,8,0:0:0:0:
88,97,10417,6,0,L|0:112,1,90,0|0,3:0|0:0,0:0:0:0:
88,177,10770,1,8,0:0:0:0:
130,4,10947,2,0,L|42:19,1,90,0|0,0:0|3:0,0:0:0:0:
207,57,11300,1,0,3:0:0:0:
207,57,11388,1,0,0:0:0:0:
207,57,11476,1,8,0:0:0:0:
167,133,11741,1,8,0:0:0:0:
167,133,11829,6,0,L|180:224,1,90,0|0,3:2|0:0,0:0:0:0:
254,275,12182,1,8,0:0:0:0:
100,266,12358,2,0,L|87:176,1,90,0|0,0:0|3:0,0:0:0:0:
260,136,12711,1,0,3:0:0:0:
260,136,12800,1,0,0:0:0:0:
260,136,12888,1,8,0:0:0:0:
483,133,13241,6,0,L|498:221,1,90,0|0,3:0|0:0,0:0:0:0:
330,187,13594,1,8,0:0:0:0:
394,80,13770,2,0,L|409:168,1,90,0|0,0:0|3:0,0:0:0:0:
381,339,14123,1,0,3:0:0:0:
381,339,14211,1,0,0:0:0:0:
381,339,14300,1,8,0:0:0:0:
394,257,14564,1,8,0:2:0:0:
394,257,14653,6,0,L|409:169,1,90,0|0,3:2|0:0,0:0:0:0:
313,105,15006,1,8,0:0:0:0:
484,227,15182,2,0,L|499:139,1,90,0|0,0:0|3:0,0:0:0:0:
367,28,15535,1,0,3:0:0:0:
367,28,15623,1,0,0:0:0:0:
367,28,15711,1,8,0:0:0:0:
138,92,16064,6,0,L|153:180,1,90,0|0,3:0|0:0,0:0:0:0:
84,239,16417,1,8,0:0:0:0:
227,114,16594,2,0,L|212:26,1,90,0|0,0:0|3:0,0:0:0:0:
64,146,16947,1,0,3:0:0:0:
64,146,17035,1,0,0:0:0:0:
64,146,17123,1,8,0:0:0:0:
168,269,17388,1,8,0:2:0:0:
168,269,17476,6,0,L|153:181,1,90,0|0,3:2|0:0,0:0:0:0:
138,92,17829,1,8,0:0:0:0:
244,218,18006,2,0,L|259:306,1,90,0|0,0:0|3:0,0:0:0:0:
119,359,18358,1,0,3:0:0:0:
119,359,18447,1,0,0:0:0:0:
119,359,18535,1,8,0:0:0:0:
243,113,18888,6,0,L|331:97,1,90,0|0,3:0|0:0,0:0:0:0:
356,170,19241,1,8,0:0:0:0:
303,19,19417,2,0,L|391:3,1,90,0|0,0:0|3:0,0:0:0:0:
473,47,19770,1,8,3:0:0:0:
470,58,19858,1,8,0:3:0:0:
467,69,19946,1,8,0:0:0:0:
464,80,20034,1,0,0:0:0:0:
461,91,20122,1,8,0:3:0:0:
458,102,20211,1,8,0:3:0:0:
455,113,20299,5,12,3:2:0:0:
380,255,20476,1,2,0:0:0:0:
511,181,20653,1,8,0:0:0:0:
349,83,20829,2,0,L|364:171,1,90,2|0,0:0|3:0,0:0:0:0:
465,287,21182,1,2,3:2:0:0:
459,117,21358,1,8,0:0:0:0:
459,117,21535,1,2,0:0:0:0:
293,134,21711,5,0,3:0:0:0:
422,28,21888,1,2,3:2:0:0:
437,198,22064,1,8,0:0:0:0:
313,3,22241,2,0,L|225:18,1,90,2|0,3:2|0:0,0:0:0:0:
137,158,22594,1,2,3:2:0:0:
224,18,22770,2,0,L|136:33,1,90,10|0,0:0|0:0,0:0:0:0:
135,33,23035,1,8,0:2:0:0:
135,33,23123,5,0,3:2:0:0:
56,179,23300,1,2,0:0:0:0:
194,101,23476,1,8,0:0:0:0:
48,16,23653,2,0,L|72:119,1,90,2|0,0:0|3:0,0:0:0:0:
115,244,24006,1,2,3:2:0:0:
137,158,24182,1,8,0:0:0:0:
137,158,24358,1,2,0:2:0:0:
186,318,24535,5,0,3:0:0:0:
34,270,24711,1,2,3:2:0:0:
205,237,24888,1,8,0:0:0:0:
91,361,25064,2,0,L|111:274,1,90,2|0,0:2|3:0,0:0:0:0:
264,292,25417,1,2,3:2:0:0:
111,274,25594,2,0,L|130:186,1,90,8|10,0:0|0:2,0:0:0:0:
130,186,25858,1,8,0:0:0:0:
130,186,25946,5,0,3:0:0:0:
212,153,26123,1,2,0:2:0:0:
65,146,26300,1,8,0:0:0:0:
239,31,26476,2,0,L|220:119,1,90,2|0,0:2|3:0,0:0:0:0:
151,76,26829,1,2,3:2:0:0:
316,43,27006,1,8,0:0:0:0:
316,43,27182,1,2,0:2:0:0:
168,0,27358,5,0,3:0:0:0:
297,120,27535,1,2,3:2:0:0:
386,0,27711,1,8,0:0:0:0:
484,111,27888,2,0,L|460:5,1,90,2|0,3:2|0:0,0:0:0:0:
297,120,28241,1,2,3:2:0:0:
503,198,28417,2,0,L|484:111,1,90,10|0,0:2|0:0,0:0:0:0:
484,111,28682,1,8,0:0:0:0:
484,111,28770,5,0,3:2:0:0:
339,191,28947,1,2,0:2:0:0:
433,242,29123,1,8,0:0:0:0:
394,78,29300,2,0,L|413:165,1,90,2|0,0:2|3:0,0:0:0:0:
407,324,29653,1,2,3:2:0:0:
511,284,29829,1,8,0:0:0:0:
311,279,30006,2,0,L|372:260,1,45,2|0,0:2|0:0,0:0:0:0:
433,242,30182,5,0,3:0:0:0:
333,359,30358,1,2,3:2:0:0:
236,270,30535,1,8,0:0:0:0:
378,141,30711,2,0,L|366:208,1,45,2|0,0:2|0:0,0:0:0:0:
353,265,30888,1,0,3:0:0:0:
241,183,31064,2,0,L|297:189,1,45,2|0,3:2|0:0,0:0:0:0:
302,108,31240,1,10,0:2:0:0:
304,92,31328,1,8,0:0:0:0:
306,76,31416,1,8,0:3:0:0:
308,60,31505,1,8,0:3:0:0:
310,44,31593,5,4,3:2:0:0:
230,62,31770,1,0,0:0:0:0:
150,80,31947,1,8,0:0:0:0:
61,183,32123,1,0,0:0:0:0:
138,165,32300,2,0,L|225:145,1,90,0|0,3:2|3:2,0:0:0:0:
342,204,32653,1,8,0:0:0:0:
266,220,32830,1,0,0:0:0:0:
225,145,33006,6,0,L|312:125,2,90,2|0|10,3:2|0:0|0:0,0:0:0:0:
186,240,33535,1,2,3:2:0:0:
203,316,33711,1,0,3:2:0:0:
304,384,33888,1,2,3:2:0:0:
286,308,34064,2,0,L|266:220,1,90,10|8,0:0|3:0,0:0:0:0:
317,158,34329,1,8,0:0:0:0:
317,158,34417,6,0,L|297:245,1,90,0|0,3:0|0:0,0:0:0:0:
389,213,34770,2,0,L|409:126,1,90,8|0,0:0|3:2,0:0:0:0:
427,47,35123,1,0,3:0:0:0:
496,114,35300,1,0,3:0:0:0:
496,113,35388,1,0,0:0:0:0:
496,114,35476,1,8,0:0:0:0:
478,195,35653,1,0,3:2:0:0:
369,300,35829,6,0,L|389:213,2,90,2|0|10,3:2|0:0|0:2,0:0:0:0:
350,381,36358,1,2,3:2:0:0:
431,365,36535,1,0,3:0:0:0:
451,293,36711,1,2,3:2:0:0:
291,316,36888,2,0,L|199:328,1,90,8|8,0:0|3:3,0:0:0:0:
201,327,37153,1,8,0:0:0:0:
201,327,37241,5,0,3:0:0:0:
103,237,37417,1,0,0:0:0:0:
24,255,37594,1,8,0:0:0:0:
120,315,37770,1,0,0:0:0:0:
187,255,37947,2,0,L|167:168,1,90,0|0,3:0|3:2,0:0:0:0:
84,158,38300,1,8,0:0:0:0:
103,237,38476,1,0,3:2:0:0:
166,167,38653,6,0,L|146:80,2,90,2|0|10,3:2|0:0|0:2,0:0:0:0:
187,255,39182,1,2,3:2:0:0:
233,102,39358,1,0,3:0:0:0:
214,30,39535,1,2,3:2:0:0:
18,92,39711,2,0,L|122:56,1,90,8|8,0:0|3:0,0:0:0:0:
144,0,39976,1,8,0:0:0:0:
144,0,40064,6,0,L|242:14,1,90,0|0,3:0|0:0,0:0:0:0:
335,149,40417,2,0,L|296:38,1,90,8|0,0:2|3:2,0:0:0:0:
382,42,40770,1,0,3:0:0:0:
268,184,40947,1,0,3:0:0:0:
268,184,41035,1,0,0:0:0:0:
268,184,41123,1,8,0:2:0:0:
410,120,41300,1,0,3:2:0:0:
305,64,41476,6,0,L|215:51,2,90,2|0|10,3:2|0:0|0:2,0:0:0:0:
469,47,42006,1,2,3:2:0:0:
407,200,42182,1,8,3:3:0:0:
382,107,42358,1,8,3:3:0:0:
500,186,42535,1,8,0:0:0:0:
495,195,42623,1,8,0:0:0:0:
492,206,42711,1,8,3:3:0:0:
488,217,42799,1,8,0:3:0:0:
484,227,42887,5,4,3:2:0:0:
431,371,43064,1,0,0:0:0:0:
380,271,43241,1,8,0:0:0:0:
353,344,43417,1,0,0:0:0:0:
323,208,43594,2,0,L|289:302,1,90,0|0,3:0|3:2,0:0:0:0:
230,224,43947,1,8,0:0:0:0:
203,297,44123,1,0,0:0:0:0:
228,134,44300,6,0,L|116:83,2,90,2|0|10,3:2|0:0|0:2,0:0:0:0:
73,153,44829,1,2,3:2:0:0:
152,189,45006,1,0,3:0:0:0:
7,213,45182,1,2,3:2:0:0:
203,297,45358,2,0,L|121:259,1,90,8|8,0:0|3:0,0:0:0:0:
98,332,45623,1,8,0:0:0:0:
98,332,45711,6,0,L|83:239,1,90,0|0,3:0|0:2,0:0:0:0:
137,100,46064,2,0,L|151:188,1,90,8|0,0:0|3:2,0:0:0:0:
206,47,46417,1,0,3:0:0:0:
220,120,46594,1,0,3:0:0:0:
287,71,46770,1,8,0:2:0:0:
301,144,46947,1,0,0:2:0:0:
342,0,47123,6,0,L|437:21,2,90,2|0|10,3:2|0:0|0:2,0:0:0:0:
459,108,47653,1,2,3:2:0:0:
377,89,47829,1,0,3:0:0:0:
502,201,48006,1,2,3:2:0:0:
333,161,48182,2,0,L|428:182,1,90,8|8,0:0|0:3,0:0:0:0:
420,180,48447,1,8,0:0:0:0:
420,180,48535,5,0,3:0:0:0:
367,318,48711,1,0,0:0:0:0:
350,244,48888,1,8,0:0:0:0:
302,384,49064,1,0,0:0:0:0:
265,220,49241,2,0,L|286:315,1,90,0|0,3:0|2:0,0:0:0:0:
218,364,49594,1,8,0:0:0:0:
197,284,49770,1,0,2:0:0:0:
126,352,49947,6,0,L|106:264,2,90,2|0|10,3:2|0:0|0:2,0:0:0:0:
10,218,50476,2,0,L|29:305,1,90,2|0,3:2|3:0,0:0:0:0:
106,264,50829,1,2,3:2:0:0:
178,165,51006,2,0,L|90:185,1,90,8|8,0:0|3:0,0:0:0:0:
187,247,51271,1,8,0:0:0:0:
187,247,51358,6,0,L|224:154,1,90,0|0,3:0|0:2,0:0:0:0:
343,71,51711,2,0,L|309:154,1,90,8|0,0:0|3:2,0:0:0:0:
284,229,52064,1,0,3:0:0:0:
401,143,52241,1,0,3:0:0:0:
374,218,52417,1,8,0:2:0:0:
457,211,52594,1,0,3:2:0:0:
427,285,52770,6,0,L|389:380,2,90,2|0|10,3:2|0:0|0:2,0:0:0:0:
487,136,53300,1,2,0:2:0:0:
508,278,53476,1,0,3:0:0:0:
374,218,53653,1,2,3:2:0:0:
351,220,53741,1,8,0:0:0:0:
329,222,53829,1,8,0:0:0:0:
306,225,53917,1,8,0:0:0:0:
284,227,54005,1,10,3:2:0:0:
262,229,54094,1,8,0:0:0:0:
239,232,54182,6,0,L|149:240,1,90,4|2,3:2|0:2,0:0:0:0:
266,309,54535,1,8,0:0:0:0:
187,160,54711,2,0,L|97:168,2,90,2|0|2,0:2|3:0|3:2,0:0:0:0:
266,309,55241,1,8,0:0:0:0:
169,135,55417,6,0,L|79:143,2,90,2|0|2,0:2|3:0|3:2,0:0:0:0:
266,309,55947,1,8,0:0:0:0:
152,109,56123,6,0,L|62:117,2,90,2|0|2,0:2|3:0|3:2,0:0:0:0:
266,309,56653,2,0,L|176:317,1,90,8|0,0:0|0:0,0:0:0:0:
85,247,56917,1,8,0:0:0:0:
85,247,57006,6,0,L|175:239,1,90,0|2,3:0|0:2,0:0:0:0:
266,309,57358,1,8,0:0:0:0:
328,136,57535,2,0,L|336:226,2,90,2|0|2,0:2|3:0|3:2,0:0:0:0:
249,78,58064,1,8,0:0:0:0:
412,193,58241,1,2,0:2:0:0:
470,35,58417,6,0,L|383:100,1,90,0|2,3:0|3:2,0:0:0:0:
346,315,58770,2,0,L|333:207,1,90,10|0,0:0|0:0,0:0:0:0:
168,149,59123,2,0,L|267:191,1,90,10|8,3:2|0:3,0:0:0:0:
369,197,59476,2,0,L|334:225,1,45,8|0,0:0|0:0,0:0:0:0:
265,282,59653,1,0,0:0:0:0:
261,286,59741,1,8,0:0:0:0:
257,290,59829,6,0,L|154:247,1,90,0|2,3:0|0:2,0:0:0:0:
319,126,60182,1,8,0:0:0:0:
234,308,60358,2,0,L|131:265,2,90,2|0|2,0:2|3:0|3:2,0:0:0:0:
319,126,60888,1,8,0:0:0:0:
212,333,61064,6,0,L|109:290,2,90,2|0|2,0:2|3:0|3:2,0:0:0:0:
319,126,61594,1,8,0:0:0:0:
168,149,61770,1,0,0:0:0:0:
415,267,61947,2,0,L|407:156,1,90,0|2,3:0|3:2,0:0:0:0:
312,36,62300,2,0,L|318:125,1,90,8|0,0:0|0:0,0:0:0:0:
399,93,62564,1,8,0:0:0:0:
403,89,62653,6,0,L|395:-22,1,90,0|2,3:0|0:2,0:0:0:0:
222,89,63006,1,8,0:0:0:0:
408,177,63182,2,0,L|505:136,1,90,2|8,0:2|3:0,0:0:0:0:
396,0,63535,2,0,L|296:43,1,90,10|8,3:2|0:0,0:0:0:0:
140,83,63888,1,2,0:2:0:0:
254,261,64064,6,0,L|234:173,1,90,0|2,3:0|3:2,0:0:0:0:
241,1,64417,2,0,L|222:89,1,90,8|8,0:0|0:3,0:0:0:0:
182,293,64770,1,8,3:2:0:0:
182,293,64858,1,8,0:0:0:0:
182,293,64946,1,8,0:0:0:0:
103,209,65123,1,8,0:0:0:0:
92,196,65211,1,8,0:0:0:0:
81,183,65299,1,8,3:2:0:0:
71,170,65387,1,8,0:0:0:0:
60,157,65476,6,0,L|156:165,1,90,4|2,3:2|0:2,0:0:0:0:
53,275,65829,1,10,0:0:0:0:
134,75,66006,2,0,L|230:83,2,90,2|0|2,0:2|3:0|3:2,0:0:0:0:
53,275,66535,1,10,0:0:0:0:
156,49,66711,6,0,L|252:57,2,90,2|0|2,0:2|3:0|3:2,0:0:0:0:
53,275,67241,1,10,0:0:0:0:
177,27,67417,6,0,L|273:35,2,90,2|0|2,0:2|3:0|3:2,0:0:0:0:
53,275,67947,2,0,L|149:283,1,90,10|8,0:0|0:3,0:0:0:0:
235,323,68211,1,8,0:0:0:0:
235,323,68300,6,0,L|210:212,1,90,0|2,3:0|0:2,0:0:0:0:
254,123,68652,1,10,0:0:0:0:
143,283,68829,2,0,L|163:370,2,90,2|0|2,0:2|3:0|3:2,0:0:0:0:
254,123,69358,1,10,0:0:0:0:
320,325,69535,1,2,0:2:0:0:
207,199,69711,6,0,L|320:211,1,90,0|2,3:0|3:2,0:0:0:0:
441,384,70064,2,0,L|394:280,1,90,10|0,0:0|0:0,0:0:0:0:
401,69,70417,2,0,L|334:160,1,90,2|2,3:0|3:2,0:0:0:0:
242,288,70770,1,8,0:0:0:0:
484,249,70947,1,8,0:3:0:0:
484,249,71035,1,8,0:0:0:0:
484,249,71123,6,0,L|437:145,1,90,4|2,3:2|0:2,0:0:0:0:
512,58,71476,1,10,0:0:0:0:
465,273,71653,6,0,L|428:191,2,90,2|0|2,0:2|3:0|3:2,0:0:0:0:
512,58,72182,1,10,0:0:0:0:
447,300,72358,6,0,L|410:218,2,90,2|0|2,0:2|3:0|3:2,0:0:0:0:
512,58,72888,1,10,0:0:0:0:
316,212,73064,1,2,0:2:0:0:
507,219,73241,2,0,L|460:115,1,90,0|2,3:0|3:2,0:0:0:0:
326,20,73594,2,0,L|363:102,1,90,10|8,0:0|0:3,0:0:0:0:
408,188,73858,1,8,0:0:0:0:
408,188,73947,6,0,L|445:105,1,90,0|2,3:0|0:2,0:0:0:0:
417,23,74300,1,10,0:0:0:0:
206,93,74476,2,0,L|297:130,1,90,2|0,0:2|3:0,0:0:0:0:
118,197,74829,2,0,L|207:183,1,90,2|10,3:2|0:0,0:0:0:0:
171,361,75182,1,2,0:2:0:0:
171,361,75270,1,0,0:0:0:0:
171,361,75358,6,0,L|228:251,1,90,0|2,3:0|3:2,0:0:0:0:
295,206,75711,1,10,0:0:0:0:
297,384,75888,1,0,0:0:0:0:
110,287,76064,1,0,3:0:0:0:
339,296,76241,2,0,L|280:289,1,45,2|0,3:2|0:0,0:0:0:0:
212,281,76417,1,8,0:0:0:0:
206,271,76505,1,0,3:0:0:0:
200,261,76593,1,8,0:3:0:0:
194,251,76681,1,8,0:3:0:0:
188,241,76770,6,0,L|171:142,1,90,4|0,3:2|0:0,0:0:0:0:
261,170,77476,2,0,L|246:81,1,90,2|0,0:0|0:0,0:0:0:0:
213,256,78182,2,0,L|256:292,1,45,2|0,0:0|0:0,0:0:0:0:
98,316,78535,2,0,L|141:280,1,45,2|0,0:0|0:0,0:0:0:0:
228,374,78888,2,0,L|185:338,1,45,2|0,0:0|0:0,0:0:0:0:
145,200,79241,2,0,L|188:164,1,45,2|0,0:0|0:0,0:0:0:0:
246,81,79594,6,0,L|261:170,1,90,2|0,0:0|0:0,0:0:0:0:
323,239,80123,1,0,0:0:0:0:
259,293,80300,2,0,L|225:322,1,45,2|0,0:0|0:0,0:0:0:0:
145,200,80653,2,0,L|188:164,1,45,2|0,0:0|0:0,0:0:0:0:
263,55,81006,2,0,L|278:144,1,90,2|0,0:0|0:0,0:0:0:0:
323,239,81711,1,0,0:0:0:0:
351,101,82064,1,2,0:0:0:0:
192,136,82417,6,0,L|104:115,1,90,6|0,0:2|0:0,0:0:0:0:
266,70,83123,2,0,L|178:49,1,90,2|0,0:0|0:0,0:0:0:0:
360,179,83829,2,0,L|337:231,1,45,2|0,0:0|0:0,0:0:0:0:
278,269,84182,2,0,L|224:289,1,45,2|0,0:0|0:0,0:0:0:0:
152,283,84535,2,0,L|100:259,1,45,2|0,0:0|0:0,0:0:0:0:
50,211,84888,2,0,L|29:157,1,45,2|0,0:0|0:0,0:0:0:0:
104,115,85241,6,0,L|192:136,1,90,2|0,0:0|0:0,0:0:0:0:
226,375,85947,2,0,L|268:359,1,45,2|0,0:0|0:0,0:0:0:0:
328,306,86300,2,0,L|347:265,1,45,2|0,0:0|0:0,0:0:0:0:
264,240,86653,2,0,L|176:219,1,90,2|0,0:0|0:0,0:0:0:0:
254,79,87270,1,0,0:0:0:0:
254,79,87358,1,8,3:3:0:0:
309,165,87535,1,8,3:3:0:0:
339,33,87711,1,8,3:3:0:0:
176,188,88064,6,0,L|328:161,1,135.000005149842,4|0,3:2|0:0,0:0:0:0:
364,101,88594,1,0,3:0:0:0:
259,252,88770,2,0,L|411:225,1,135.000005149842,8|0,0:0|0:0,0:0:0:0:
364,101,89300,1,0,3:0:0:0:
457,214,89476,2,0,L|391:228,1,67.5000025749208,0|8,3:0|0:0,0:0:0:0:
445,139,89829,2,0,L|512:126,1,67.5000025749208,0|0,3:0|0:0,0:0:0:0:
308,164,90182,2,0,L|284:31,1,135.000005149842,8|0,0:0|3:0,0:0:0:0:
308,164,90888,6,0,L|284:31,1,135.000005149842,4|0,3:2|0:0,0:0:0:0:
394,185,91418,1,0,3:0:0:0:
332,297,91594,2,0,L|308:164,1,135.000005149842,8|0,0:0|0:0,0:0:0:0:
293,87,92124,1,0,3:0:0:0:
212,168,92300,2,0,L|227:247,1,67.5000025749208,0|8,3:0|0:0,0:0:0:0:
155,336,92653,2,0,L|142:269,1,67.5000025749208,0|0,3:0|0:0,0:0:0:0:
57,273,93006,1,8,3:2:0:0:
155,336,93182,1,8,3:2:0:0:
125,190,93359,1,8,3:2:0:0:
416,314,93711,6,0,L|236:326,1,180,4|0,3:2|0:0,0:0:0:0:
236,325,94241,1,0,3:0:0:0:
385,230,94417,1,8,0:0:0:0:
385,230,94770,2,0,L|291:237,1,90,0|0,0:0|3:0,0:0:0:0:
146,333,95123,2,0,L|235:326,1,90,0|8,3:0|0:0,0:0:0:0:
295,236,95476,1,0,3:0:0:0:
220,171,95653,2,0,L|126:178,1,90,0|8,3:0|0:0,0:0:0:0:
188,248,96006,1,8,0:0:0:0:
261,100,96182,1,0,3:0:0:0:
130,177,96358,1,0,3:0:0:0:
324,151,96535,6,0,L|353:64,1,90,4|0,3:2|0:0,0:0:0:0:
191,85,96888,2,0,L|219:170,1,90,0|0,0:0|3:0,0:0:0:0:
295,236,97241,2,0,L|324:149,1,90,8|0,0:0|0:0,0:0:0:0:
163,0,97594,2,0,L|191:85,1,90,0|0,0:0|3:0,0:0:0:0:
40,186,97947,2,0,L|223:170,1,180,4|0,3:2|0:0,0:0:0:0:
275,57,98476,1,0,3:0:0:0:
219,170,98653,2,0,L|40:186,1,180,8|0,0:0|3:0,0:0:0:0:
41,186,99358,6,0,L|27:237,1,45,12|0,0:0|0:0,0:0:0:0:
1,326,99535,1,8,0:0:0:0:
133,384,99711,5,0,3:0:0:0:
41,186,99888,2,0,L|27:237,1,45,12|0,0:0|0:0,0:0:0:0:
1,326,100064,1,8,0:0:0:0:
133,384,100241,5,0,3:0:0:0:
41,186,100417,1,12,0:0:0:0:
41,186,100770,6,0,L|141:177,1,90,4|2,3:2|0:0,0:0:0:0:
218,169,101123,1,0,3:0:0:0:
107,97,101300,1,10,0:0:0:0:
109,265,101476,2,0,L|289:249,1,180,0|0,3:0|3:0,0:0:0:0:
288,249,102182,6,0,L|176:259,1,90,0|2,3:0|0:0,0:0:0:0:
250,338,102535,1,0,3:0:0:0:
371,239,102711,1,8,0:0:0:0:
218,169,102888,2,0,L|106:179,1,90,0|2,3:0|0:0,0:0:0:0:
19,273,103241,2,0,L|108:264,1,90,0|2,3:0|0:0,0:0:0:0:
307,162,103594,6,0,L|297:50,2,90,0|0|0,3:0|0:0|3:0,0:0:0:0:
198,257,104123,1,10,0:0:0:0:
395,203,104300,2,0,L|379:23,1,180,0|0,3:0|3:0,0:0:0:0:
379,23,105006,6,0,L|387:119,1,90,0|0,3:0|0:0,0:0:0:0:
315,251,105358,2,0,L|305:139,1,90,0|10,3:0|0:2,0:0:0:0:
297,25,105711,1,0,3:0:0:0:
465,110,105888,1,2,3:2:0:0:
395,203,106064,1,8,0:0:0:0:
395,203,106417,6,0,L|403:292,1,90,0|0,3:0|0:0,0:0:0:0:
411,376,106770,1,0,3:0:0:0:
481,248,106947,1,10,0:0:0:0:
334,358,107123,2,0,L|150:326,1,180,0|0,3:0|3:0,0:0:0:0:
156,327,107829,5,0,3:0:0:0:
247,263,108006,1,10,0:0:0:0:
68,311,108182,2,0,L|169:329,1,90,0|0,3:0|0:0,0:0:0:0:
335,278,108535,2,0,L|246:262,1,90,0|2,3:0|0:0,0:0:0:0:
60,226,108888,1,0,3:0:0:0:
60,226,109241,6,0,L|169:205,1,90,0|0,3:0|0:0,0:0:0:0:
343,169,109594,1,0,3:0:0:0:
246,262,109770,1,10,0:0:0:0:
99,132,109947,2,0,L|276:99,1,180,0|0,3:0|3:0,0:0:0:0:
275,99,110653,5,0,3:0:0:0:
246,262,110829,1,10,2:0:0:0:
452,132,111006,2,0,L|275:98,1,180,0|0,3:0|3:0,0:0:0:0:
179,162,111535,2,0,L|223:170,2,45,0|8|0,0:0|0:0|3:0,0:0:0:0:
264,18,111888,1,8,0:0:0:0:
264,18,111976,1,0,0:0:0:0:
264,18,112064,6,0,L|367:38,1,90,4|0,3:2|0:0,0:0:0:0:
432,52,112417,1,0,0:0:0:0:
309,190,112594,1,2,3:2:0:0:
169,77,112770,2,0,L|188:261,1,180,8|0,0:0|0:0,0:0:0:0:
187,256,113476,6,0,L|197:347,1,90,0|10,3:0|0:2,0:0:0:0:
283,364,113829,1,0,0:0:0:0:
104,317,114005,1,2,3:2:0:0:
177,166,114182,2,0,L|187:256,1,90,8|2,0:0|0:2,0:0:0:0:
283,364,114535,2,0,L|273:274,1,90,0|0,3:0|0:0,0:0:0:0:
101,202,114888,6,0,L|11:211,2,90,0|0|0,3:0|0:0|0:0,0:0:0:0:
258,96,115417,1,2,3:2:0:0:
101,202,115594,2,0,L|285:185,1,180,8|0,0:0|0:0,0:0:0:0:
280,185,116300,6,0,L|388:175,1,90,0|2,0:0|3:2,0:0:0:0:
464,26,116653,2,0,L|374:34,1,90,0|0,0:0|3:0,0:0:0:0:
369,176,117005,1,8,0:0:0:0:
501,104,117182,1,2,3:2:0:0:
374,34,117358,1,0,3:0:0:0:
374,34,117711,6,0,L|284:42,1,90,0|0,3:0|0:0,0:0:0:0:
124,58,118064,1,0,0:0:0:0:
296,122,118241,1,2,3:2:0:0:
200,0,118417,2,0,L|214:187,1,180,8|0,0:0|0:0,0:0:0:0:
213,179,119123,5,0,3:0:0:0:
228,348,119300,1,10,0:2:0:0:
213,179,119476,2,0,L|206:85,1,90,8|2,0:3|3:2,0:0:0:0:
140,295,119829,2,0,L|146:384,1,90,8|0,0:0|0:0,0:0:0:0:
219,268,120182,1,0,0:0:0:0:
219,268,120535,2,0,L|212:178,1,90,0|0,3:0|0:0,0:0:0:0:
132,208,120888,1,0,0:0:0:0:
302,235,121064,1,2,3:2:0:0:
383,119,121241,2,0,L|206:88,1,180,8|0,0:0|0:0,0:0:0:0:
206,88,121947,5,0,3:0:0:0:
51,198,122123,1,2,0:2:0:0:
212,178,122300,1,0,3:0:0:0:
58,53,122476,1,2,0:2:0:0:
125,145,122653,1,0,3:0:0:0:
220,0,122829,1,10,0:2:0:0:
220,0,122917,1,8,0:3:0:0:
220,0,123006,1,10,0:0:0:0:
310,153,123182,1,10,0:0:0:0:
310,153,123270,1,0,0:0:0:0:
310,153,123358,6,0,L|290:248,1,90,4|0,3:2|0:0,0:0:0:0:
123,321,123711,2,0,L|141:232,1,90,0|0,3:0|0:0,0:0:0:0:
40,40,124064,1,0,3:0:0:0:
49,74,124241,1,0,0:0:0:0:
80,117,124417,1,0,3:0:0:0:
142,152,124594,2,0,L|233:148,1,90,0|0,0:0|3:0,0:0:0:0:
395,2,124947,5,2,0:0:0:0:
413,71,125123,1,0,3:0:0:0:
402,133,125300,1,2,0:0:0:0:
369,175,125476,1,0,3:0:0:0:
336,206,125653,1,2,0:0:0:0:
304,223,125829,2,0,L|202:229,1,90,0|2,3:0|0:0,0:0:0:0:
331,384,126182,6,0,L|353:293,1,90,0|0,3:0|0:0,0:0:0:0:
420,239,126535,2,0,L|442:330,1,90,0|0,3:0|0:0,0:0:0:0:
206,356,126888,1,0,3:0:0:0:
171,346,127064,1,0,0:0:0:0:
128,312,127241,1,0,3:0:0:0:
107,243,127417,1,0,0:0:0:0:
117,35,127594,5,0,3:0:0:0:
105,105,127770,1,2,0:0:0:0:
60,149,127947,1,0,3:0:0:0:
19,184,128123,1,2,0:0:0:0:
9,228,128300,2,0,L|23:326,1,90,2|0,3:2|0:0,0:0:0:0:
127,378,128653,2,0,L|114:288,1,90,2|2,3:2|0:0,0:0:0:0:
165,162,129006,6,0,L|343:142,1,180,4|8,3:2|0:0,0:0:0:0:
306,57,129535,1,8,0:3:0:0:
302,232,129711,1,0,3:0:0:0:
338,238,129888,1,0,3:0:0:0:
389,220,130064,1,8,0:0:0:0:
433,162,130241,1,0,0:0:0:0:
199,27,130417,5,0,3:0:0:0:
221,95,130594,1,2,0:2:0:0:
217,157,130770,1,8,0:0:0:0:
186,201,130947,1,2,0:2:0:0:
167,251,131123,1,0,3:0:0:0:
174,295,131300,1,2,3:2:0:0:
188,327,131476,2,0,L|272:357,1,90,8|2,0:0|0:2,0:0:0:0:
404,311,131829,6,0,L|319:280,1,90,0|0,3:0|0:0,0:0:0:0:
279,208,132182,1,8,0:0:0:0:
364,384,132358,1,0,0:0:0:0:
451,237,132535,2,0,L|459:145,1,90,0|0,3:0|3:0,0:0:0:0:
375,120,132888,2,0,L|383:28,1,90,8|0,0:0|0:0,0:0:0:0:
368,203,133241,6,0,L|270:208,1,90,0|2,3:0|3:2,0:0:0:0:
105,281,133594,1,8,0:0:0:0:
202,168,133770,1,2,0:2:0:0:
202,168,133858,1,0,0:0:0:0:
202,168,133947,1,0,3:0:0:0:
211,133,134123,1,2,3:2:0:0:
208,78,134300,1,10,0:0:0:0:
174,14,134476,1,2,3:2:0:0:
31,109,134653,6,0,L|135:97,1,90,4|0,3:2|0:0,0:0:0:0:
194,291,135006,2,0,L|104:280,1,90,2|0,3:2|0:0,0:0:0:0:
35,113,135358,2,0,L|139:101,1,90,0|0,3:0|0:0,0:0:0:0:
198,295,135711,2,0,L|108:284,1,90,2|0,3:2|0:0,0:0:0:0:
39,117,136064,6,0,L|143:105,1,90,0|0,3:0|0:0,0:0:0:0:
202,299,136417,2,0,L|112:288,1,90,2|0,3:2|0:0,0:0:0:0:
43,121,136770,2,0,L|147:109,1,90,0|0,3:0|0:0,0:0:0:0:
206,303,137123,2,0,L|116:292,1,90,2|0,3:2|0:0,0:0:0:0:
47,125,137476,6,0,L|151:113,1,90,0|0,3:0|0:0,0:0:0:0:
210,307,137829,2,0,L|120:296,1,90,2|0,3:2|0:0,0:0:0:0:
51,129,138182,2,0,L|155:117,1,90,0|0,3:0|0:0,0:0:0:0:
214,311,138535,2,0,L|124:300,1,90,2|0,3:2|0:0,0:0:0:0:
55,133,138888,6,0,L|159:121,1,90,0|0,3:0|0:0,0:0:0:0:
218,315,139241,2,0,L|128:304,1,90,2|0,3:2|0:0,0:0:0:0:
128,304,139947,2,0,L|204:294,1,45,8|0,0:0|0:0,0:0:0:0:
323,281,140123,1,0,0:0:0:0:
329,279,140211,1,8,0:0:0:0:
335,278,140300,1,4,3:2:0:0:
