osu file format v14

[General]
AudioFilename: audio.mp3
AudioLeadIn: 0
PreviewTime: 3270
Countdown: 0
SampleSet: Soft
StackLeniency: 0.4
Mode: 0
LetterboxInBreaks: 0
WidescreenStoryboard: 1

[Editor]
DistanceSpacing: 1.3
BeatDivisor: 4
GridSize: 16
TimelineZoom: 1

[Metadata]
Title:A Long Fall
TitleUnicode:ロングフォール ~異界遺構 シルクス・ツイニング~
Artist:Soken Masayoshi
ArtistUnicode:祖堅正慶
Creator:Ryuusei Aika
Version:Dored's Hard
Source:ファイナルファンタジーXIV: 漆黒のヴィランズ
Tags:Starlight Dored Imouto Koko Garden Yorita Yoshino -ClariS- kanor Final Fantasy XIV XIV: Shadowbringers electronic instrumental
BeatmapID:2631414
BeatmapSetID:1266110

[Difficulty]
HPDrainRate:5
CircleSize:3.5
OverallDifficulty:6
ApproachRate:7.6
SliderMultiplier:1.4
SliderTickRate:1

[Events]
//Background and Video events
0,0,"Tycoon.jpg",0,0
//Break Periods
//Storyboard Layer 0 (Background)
//Storyboard Layer 1 (Fail)
//Storyboard Layer 2 (Pass)
//Storyboard Layer 3 (Foreground)
//Storyboard Layer 4 (Overlay)
//Storyboard Sound Samples

[TimingPoints]
3359,352.941176470588,4,2,2,50,1,0
3359,-111.111111111111,4,2,2,50,0,0
8653,-83.3333333333333,4,2,2,70,0,0
8829,-100,4,2,2,70,0,0
31594,-100,4,2,2,60,0,0
54182,-100,4,2,2,70,0,0
76770,-111.111111111111,4,2,2,50,0,0
88064,-111.111111111111,4,2,2,60,0,0
93711,-99.9999999999999,4,2,2,60,0,0
100682,-99.9999999999999,4,2,2,60,0,0
100770,-90.9090909090909,4,2,2,70,0,0
104917,-90.9090909090909,4,2,2,70,0,0
105006,-90.9090909090909,4,2,2,70,0,0
107741,-90.9090909090909,4,2,2,70,0,0
107829,-90.9090909090909,4,2,2,70,0,0
114800,-90.9090909090909,4,2,2,70,0,0
114888,-90.9090909090909,4,2,2,70,0,0
123358,-100,4,2,2,60,0,0
129006,-100,4,2,2,70,0,0
134653,-111.111111111111,4,2,2,60,0,0
139947,-83.3333333333333,4,2,2,70,0,0
140123,-100,4,2,2,70,0,0

[Colours]
Combo1 : 0,128,192
Combo2 : 64,128,128

[HitObjects]
496,64,3359,6,0,L|433:74,1,62.9999980773926,0|0,3:0|0:0,0:0:0:0:
384,139,3711,2,0,L|321:128,1,62.9999980773926,0|0,3:0|0:0,0:0:0:0:
320,45,4064,2,0,L|257:55,1,62.9999980773926,0|0,3:0|0:0,0:0:0:0:
208,120,4416,2,0,L|145:109,1,62.9999980773926,0|0,3:0|0:0,0:0:0:0:
72,72,4770,6,0,L|61:9,2,62.9999980773926,0|0|0,3:0|0:0|3:0,0:0:0:0:
146,109,5300,1,0,0:0:0:0:
109,183,5476,2,0,L|46:193,2,62.9999980773926,0|0|0,3:0|0:0|3:0,0:0:0:0:
183,220,6006,1,0,0:0:0:0:
146,294,6182,6,0,L|83:304,1,62.9999980773926,0|0,3:0|0:0,0:0:0:0:
220,331,6535,2,0,L|283:341,1,62.9999980773926,0|0,3:0|0:0,0:0:0:0:
329,273,6888,2,0,L|319:210,1,62.9999980773926,0|0,3:0|0:0,0:0:0:0:
396,320,7241,2,0,L|386:383,1,62.9999980773926,0|0,3:0|0:0,0:0:0:0:
442,252,7594,6,0,L|505:242,2,62.9999980773926,0|0|0,3:0|0:0|3:0,0:0:0:0:
397,183,8123,1,0,0:0:0:0:
397,183,8653,6,0,P|403:141|411:100,1,83.9999974365235,8|0,0:0|0:0,0:0:0:0:
392,59,8917,1,8,0:0:0:0:
392,59,9006,6,0,P|337:99|269:91,1,140,4|8,3:2|0:0,0:0:0:0:
210,160,9535,2,0,P|176:150|142:141,1,70,0|0,0:0|3:0,0:0:0:0:
164,53,9888,1,0,3:0:0:0:
77,78,10064,2,0,P|43:87|9:96,1,70,8|0,0:0|0:0,0:0:0:0:
142,141,10417,6,0,P|124:208|105:276,1,140,0|8,3:0|0:0,0:0:0:0:
35,335,10947,1,0,0:0:0:0:
122,367,11123,2,0,P|156:357|190:348,1,70,0|0,3:0|3:0,0:0:0:0:
249,277,11476,1,8,0:0:0:0:
285,369,11653,1,0,0:0:0:0:
285,369,11741,1,8,0:0:0:0:
285,369,11829,6,0,P|352:350|420:331,1,140,0|8,3:2|0:0,0:0:0:0:
493,277,12358,2,0,P|501:310|511:344,1,70,0|0,0:0|3:0,0:0:0:0:
410,240,12711,1,0,3:0:0:0:
464,166,12888,2,0,P|430:157|396:147,1,70,8|0,0:0|0:0,0:0:0:0:
317,192,13241,6,0,P|357:137|349:69,1,140,0|8,3:0|0:0,0:0:0:0:
411,2,13770,2,0,P|444:11|478:20,1,70,0|0,0:0|3:0,0:0:0:0:
349,68,14123,1,0,3:0:0:0:
261,40,14300,2,0,P|227:31|193:21,1,70,8|0,0:0|0:0,0:0:0:0:
158,50,14564,1,8,0:2:0:0:
158,50,14653,6,0,P|177:117|195:185,1,140,0|8,3:2|0:0,0:0:0:0:
84,114,15182,2,0,P|94:148|103:182,1,70,0|0,0:0|3:0,0:0:0:0:
146,264,15535,1,0,3:0:0:0:
67,315,15711,2,0,P|33:305|-1:296,1,70,8|0,0:0|0:0,0:0:0:0:
149,359,16064,6,0,P|204:319|272:327,1,140,0|8,3:0|0:0,0:0:0:0:
363,352,16594,1,0,0:0:0:0:
339,260,16770,2,0,P|330:226|320:192,1,70,0|0,3:0|3:0,0:0:0:0:
256,127,17123,1,8,0:0:0:0:
304,49,17300,1,0,0:0:0:0:
304,49,17388,1,8,0:2:0:0:
304,49,17476,6,0,P|371:68|439:86,1,140,0|8,3:2|0:0,0:0:0:0:
478,168,18006,2,0,P|444:177|410:186,1,70,0|0,0:0|3:0,0:0:0:0:
429,274,18358,1,0,3:0:0:0:
339,260,18535,2,0,P|330:226|320:192,1,70,8|0,0:0|0:0,0:0:0:0:
272,327,18888,6,0,P|204:335|148:295,1,140,0|8,3:0|0:0,0:0:0:0:
70,247,19417,2,0,P|60:280|51:314,1,70,0|0,0:0|3:0,0:0:0:0:
150,203,19770,1,8,3:0:0:0:
150,203,19858,1,8,0:3:0:0:
150,203,19947,2,0,P|140:169|131:135,1,70,8|8,0:0|0:3,0:0:0:0:
107,96,20211,1,8,0:3:0:0:
107,96,20300,6,0,P|72:102|38:108,2,70,12|2|8,3:2|0:0|0:0,0:0:0:0:
198,99,20829,2,0,P|253:59|321:67,1,140,2|2,0:0|3:2,0:0:0:0:
409,95,21358,1,8,0:0:0:0:
376,11,21535,6,0,P|363:79|351:148,1,140,2|2,0:0|3:2,0:0:0:0:
261,167,22064,1,8,0:0:0:0:
321,234,22241,2,0,P|327:269|333:303,2,70,2|0|2,3:2|0:0|3:2,0:0:0:0:
350,148,22770,2,0,P|401:157|453:166,1,105,10|8,0:0|0:2,0:0:0:0:
499,166,23123,6,0,P|504:131|510:97,2,70,0|2|8,3:2|0:0|0:0,0:0:0:0:
456,247,23653,2,0,P|496:302|488:370,1,140,2|2,0:0|3:2,0:0:0:0:
406,326,24182,1,8,0:0:0:0:
328,375,24358,6,0,P|260:362|191:350,1,140,2|2,0:2|3:2,0:0:0:0:
128,282,24888,2,0,P|93:287|58:293,1,70,8|2,0:0|0:2,0:0:0:0:
190,215,25241,1,0,3:0:0:0:
190,215,25417,1,2,3:2:0:0:
128,148,25594,2,0,P|93:142|59:136,1,70,8|10,0:0|0:2,0:0:0:0:
32,98,25858,1,8,0:0:0:0:
32,98,25947,6,0,P|26:133|20:167,2,70,0|2|8,3:0|0:2|0:0,0:0:0:0:
88,26,26476,2,0,P|143:65|211:57,1,140,2|2,0:2|3:2,0:0:0:0:
290,6,27006,1,8,0:0:0:0:
336,88,27182,6,0,P|280:48|212:56,1,140,2|2,0:2|3:2,0:0:0:0:
257,139,27711,1,8,0:0:0:0:
182,195,27888,2,0,P|176:160|170:126,2,70,2|0|2,3:2|0:0|3:2,0:0:0:0:
266,229,28417,2,0,P|257:280|248:332,1,105,10|8,0:2|0:0,0:0:0:0:
224,372,28770,6,0,P|189:365|155:360,2,70,0|2|8,3:2|0:2|0:0,0:0:0:0:
316,384,29300,2,0,P|384:370|453:358,1,140,2|2,0:2|3:2,0:0:0:0:
493,276,29829,1,8,0:0:0:0:
453,358,30006,6,0,P|439:289|427:220,1,140,2|2,0:2|3:2,0:0:0:0:
336,228,30535,2,0,P|341:193|347:158,1,70,8|2,0:0|0:2,0:0:0:0:
255,167,30888,1,0,3:0:0:0:
255,167,31064,1,2,3:2:0:0:
293,84,31241,2,0,L|310:53,2,35,10|8|8,0:2|0:0|0:3,0:0:0:0:
346,158,31594,5,4,3:2:0:0:
223,23,31947,1,8,0:0:0:0:
346,158,32300,1,0,3:2:0:0:
255,167,32476,2,0,P|221:157|187:148,1,70,0|8,3:2|0:0,0:0:0:0:
108,193,32829,1,0,0:0:0:0:
108,193,33006,6,0,P|148:138|139:70,1,140,2|10,3:2|0:0,0:0:0:0:
57,114,33535,2,0,P|47:80|38:46,1,70,2|0,3:2|3:2,0:0:0:0:
14,197,33888,2,0,P|23:230|32:264,1,70,2|10,3:2|0:0,0:0:0:0:
125,287,34241,1,8,3:0:0:0:
125,287,34329,1,8,0:0:0:0:
125,287,34417,6,0,P|192:277|248:317,1,140,0|8,3:0|0:0,0:0:0:0:
330,356,34947,1,0,3:2:0:0:
324,266,35123,2,0,P|357:257|391:247,2,70,0|0|8,3:0|3:0|0:0,0:0:0:0:
484,178,35829,6,0,P|416:160|349:140,1,140,2|10,3:2|0:2,0:0:0:0:
297,65,36358,2,0,P|330:56|364:46,1,70,2|0,3:2|3:0,0:0:0:0:
258,147,36711,2,0,P|224:137|190:127,1,70,2|8,3:2|0:0,0:0:0:0:
99,118,37064,2,0,L|108:84,1,35,8|8,3:3|0:0,0:0:0:0:
120,41,37241,5,0,3:0:0:0:
180,213,37594,1,8,0:0:0:0:
1,178,37947,1,0,3:0:0:0:
28,264,38123,2,0,P|61:254|95:243,1,70,0|8,3:2|0:0,0:0:0:0:
18,355,38476,1,0,3:2:0:0:
18,355,38653,6,0,P|85:335|152:317,1,140,2|10,3:2|0:2,0:0:0:0:
243,314,39182,2,0,P|234:347|224:381,1,70,2|0,3:2|3:0,0:0:0:0:
334,312,39535,2,0,P|325:278|315:244,1,70,2|8,3:2|0:0,0:0:0:0:
360,165,39888,1,8,3:0:0:0:
360,165,39976,1,8,0:0:0:0:
360,165,40064,6,0,P|304:204|236:195,1,140,0|8,3:0|0:2,0:0:0:0:
198,110,40594,1,0,3:2:0:0:
262,43,40770,2,0,P|271:76|281:110,2,70,0|0|8,3:0|3:0|0:2,0:0:0:0:
424,126,41476,6,0,P|385:182|394:250,1,140,2|10,3:2|0:2,0:0:0:0:
474,294,42006,1,2,3:2:0:0:
396,342,42182,2,0,L|349:329,3,35,8|8|8|0,3:3|0:3|3:3|0:0,0:0:0:0:
324,306,42535,2,0,P|290:315|256:324,1,70,8|8,0:0|3:3,0:0:0:0:
224,357,42800,1,8,0:3:0:0:
224,357,42888,6,0,P|206:289|186:222,2,140,4|8|0,3:2|0:0|3:0,0:0:0:0:
135,335,43770,1,0,3:2:0:0:
44,349,43947,2,0,P|53:315|62:281,1,70,8|0,0:0|0:0,0:0:0:0:
100,198,44300,6,0,P|61:142|70:74,1,140,2|10,3:2|0:2,0:0:0:0:
149,28,44829,2,0,P|182:37|216:46,1,70,2|0,3:2|3:0,0:0:0:0:
152,119,45182,2,0,P|185:127|219:137,1,70,2|8,3:2|0:0,0:0:0:0:
297,89,45535,1,8,3:0:0:0:
297,89,45623,1,8,0:0:0:0:
297,89,45711,6,0,P|364:71|431:51,1,140,0|8,3:0|0:0,0:0:0:0:
474,131,46241,1,0,3:2:0:0:
392,171,46417,2,0,P|384:138|374:104,2,70,0|0|8,3:0|3:0|0:2,0:0:0:0:
464,338,47123,6,0,P|408:299|340:308,1,140,2|10,3:2|0:2,0:0:0:0:
278,376,47653,2,0,P|244:367|210:358,1,70,2|0,3:2|3:0,0:0:0:0:
121,380,48006,2,0,P|103:349|86:319,1,70,2|8,3:2|0:0,0:0:0:0:
141,247,48358,1,8,0:3:0:0:
69,192,48535,6,0,P|35:201|1:210,1,70,0|0,3:0|0:0,0:0:0:0:
124,120,48888,2,0,P|158:129|192:138,1,70,8|0,0:0|0:0,0:0:0:0:
224,170,49153,1,0,0:0:0:0:
224,170,49241,1,0,3:0:0:0:
280,98,49417,1,0,2:0:0:0:
280,98,49594,2,0,P|271:64|262:30,1,70,8|0,0:0|2:0,0:0:0:0:
224,170,49947,6,0,P|203:237|185:304,1,140,2|10,3:2|0:2,0:0:0:0:
276,291,50476,2,0,P|285:325|294:359,1,70,2|0,3:2|3:0,0:0:0:0:
366,277,50829,2,0,P|375:311|384:345,1,70,2|8,3:2|0:0,0:0:0:0:
309,207,51182,1,8,3:0:0:0:
309,207,51270,1,8,0:0:0:0:
309,207,51358,6,0,P|369:187|445:236,1,140,0|8,3:0|0:0,0:0:0:0:
488,145,51888,1,0,3:2:0:0:
432,73,52064,2,0,P|398:82|364:91,2,70,0|0|8,3:0|3:0|0:2,0:0:0:0:
256,24,52770,6,0,P|188:44|121:61,1,140,2|10,3:2|0:2,0:0:0:0:
40,19,53300,1,2,0:2:0:0:
3,102,53476,2,0,L|12:135,3,35,0|0|2|8,3:0|0:0|3:2|0:0,0:0:0:0:
48,164,53829,2,0,L|38:197,3,35,8|8|10|8,0:0|0:0|3:2|0:0,0:0:0:0:
26,242,54182,6,0,P|60:235|94:230,1,70,4|2,3:2|0:2,0:0:0:0:
124,145,54535,1,8,0:0:0:0:
183,214,54711,2,0,P|196:282|208:351,1,140,2|2,0:2|3:2,0:0:0:0:
120,325,55241,1,8,0:0:0:0:
208,351,55417,6,0,P|276:338|345:326,1,140,2|2,0:2|3:2,0:0:0:0:
426,369,55947,1,8,0:0:0:0:
442,279,56123,1,2,0:2:0:0:
442,279,56300,2,0,P|476:285|510:290,2,70,0|2|8,3:0|3:2|0:0,0:0:0:0:
361,235,56829,1,0,0:0:0:0:
361,235,56917,1,8,0:0:0:0:
361,235,57006,6,0,P|367:200|372:165,1,70,0|2,3:0|0:2,0:0:0:0:
461,178,57358,1,8,0:0:0:0:
426,93,57535,2,0,B|380:72|380:72|296:105,1,140,2|2,0:2|3:2,0:0:0:0:
239,176,58064,1,8,0:0:0:0:
167,118,58241,6,0,B|212:138|212:138|296:105,1,140,2|2,0:2|3:2,0:0:0:0:
353,34,58770,1,10,0:0:0:0:
239,176,59123,2,0,L|273:182,2,35,10|8|8,3:2|0:3|0:3,0:0:0:0:
182,247,59476,2,0,L|147:253,3,35,8|0|0|8,0:0|0:0|0:0|0:0,0:0:0:0:
101,254,59829,6,0,P|107:288|112:323,1,70,0|2,3:0|0:2,0:0:0:0:
41,186,60182,1,8,0:0:0:0:
129,168,60358,2,0,P|169:112|160:44,1,140,2|2,0:2|3:2,0:0:0:0:
78,89,60888,1,8,0:0:0:0:
160,44,61064,6,0,P|227:34|283:74,1,140,2|2,0:2|3:2,0:0:0:0:
355,18,61594,1,8,0:0:0:0:
273,182,61947,2,0,P|307:175|342:170,2,70,0|2|8,3:0|3:2|0:0,0:0:0:0:
232,263,62476,1,0,0:0:0:0:
232,263,62564,1,8,0:0:0:0:
232,263,62653,6,0,P|198:256|164:251,2,70,0|2|8,3:0|0:2|0:0,0:0:0:0:
323,259,63182,2,0,P|316:293|311:327,1,70,2|8,0:2|3:0,0:0:0:0:
401,346,63535,2,0,P|406:311|412:277,1,70,10|8,3:2|0:0,0:0:0:0:
473,208,63888,1,2,0:2:0:0:
473,208,64064,6,0,P|466:173|461:139,2,70,0|2|8,3:0|3:2|0:0,0:0:0:0:
382,190,64594,1,8,0:3:0:0:
379,99,64770,2,0,L|344:105,3,35,8|8|8|0,3:2|0:0|0:0|0:0,0:0:0:0:
301,88,65123,2,0,L|307:53,3,35,8|8|8|8,0:0|0:0|3:2|0:0,0:0:0:0:
281,15,65476,6,0,P|246:20|211:25,1,70,4|2,3:2|0:2,0:0:0:0:
190,113,65829,1,10,0:0:0:0:
123,49,66006,2,0,P|55:56|11:109,1,140,2|2,0:2|3:2,0:0:0:0:
99,140,66535,1,10,0:0:0:0:
190,113,66711,6,0,P|257:120|301:173,1,140,2|2,0:2|3:2,0:0:0:0:
213,204,67241,1,10,0:0:0:0:
122,231,67417,1,2,0:2:0:0:
122,231,67594,2,0,P|87:226|52:221,2,70,0|2|10,3:0|3:2|0:0,0:0:0:0:
193,299,68123,1,8,0:3:0:0:
193,299,68211,1,8,0:0:0:0:
193,299,68300,5,0,3:0:0:0:
367,234,68653,2,0,P|401:239|435:245,1,70,10|2,0:0|0:2,0:0:0:0:
454,155,69006,2,0,P|419:150|384:143,1,70,0|2,3:0|3:2,0:0:0:0:
301,173,69358,1,10,0:0:0:0:
301,173,69535,6,0,P|291:105|330:48,1,140,2|2,0:2|3:2,0:0:0:0:
416,21,70064,1,10,0:0:0:0:
242,75,70417,1,2,3:0:0:0:
242,75,70594,1,2,3:2:0:0:
329,48,70770,2,0,P|335:82|340:117,1,70,8|8,0:0|0:3,0:0:0:0:
374,147,71035,1,8,0:0:0:0:
374,147,71123,6,0,P|408:151|443:158,1,70,4|2,3:2|0:2,0:0:0:0:
510,96,71476,1,10,0:0:0:0:
443,158,71653,2,0,P|430:226|418:295,1,140,2|2,0:2|3:2,0:0:0:0:
340,344,72182,1,10,0:0:0:0:
264,295,72358,6,0,P|252:226|238:157,1,140,2|2,0:2|3:2,0:0:0:0:
308,216,72888,2,0,P|342:222|377:227,1,70,10|2,0:0|0:2,0:0:0:0:
264,295,73241,2,0,P|229:299|194:306,2,70,0|2|10,3:0|3:2|0:0,0:0:0:0:
171,219,73770,1,8,0:3:0:0:
171,219,73858,1,8,0:0:0:0:
171,219,73947,6,0,P|136:214|101:207,1,70,0|2,3:0|0:2,0:0:0:0:
18,238,74300,1,10,0:0:0:0:
33,149,74476,2,0,P|39:114|44:80,1,70,2|0,0:2|3:0,0:0:0:0:
126,120,74829,2,0,P|132:85|137:51,1,70,2|10,3:2|0:0,0:0:0:0:
219,91,75182,6,0,P|275:52|343:62,1,140,2|2,0:2|3:2,0:0:0:0:
392,139,75711,2,0,P|426:133|460:126,1,70,10|0,0:0|0:0,0:0:0:0:
500,151,75976,1,0,0:0:0:0:
500,151,76064,1,0,3:0:0:0:
445,224,76241,1,2,3:2:0:0:
480,308,76417,2,0,L|473:342,3,35,8|0|8|8,0:0|3:0|0:3|0:3,0:0:0:0:
441,369,76770,6,0,P|380:352|319:336,1,125.999996154785,4|0,3:2|0:0,0:0:0:0:
165,278,77476,2,0,P|226:262|286:245,1,125.999996154785,2|0,0:0|0:0,0:0:0:0:
441,187,78182,1,2,0:0:0:0:
383,340,78535,1,2,0:0:0:0:
441,187,78888,1,2,0:0:0:0:
383,340,79241,1,2,0:0:0:0:
286,245,79594,6,0,P|224:252|175:215,1,125.999996154785,2|0,0:0|0:0,0:0:0:0:
133,56,80300,2,0,P|117:117|100:177,2,125.999996154785,2|2|2,0:0|0:0|0:0,0:0:0:0:
247,169,81358,1,0,0:0:0:0:
127,282,81712,1,0,0:0:0:0:
53,246,81888,1,2,0:0:0:0:
127,282,82064,1,2,0:0:0:0:
247,169,82417,6,0,P|254:107|217:58,1,125.999996154785,6|0,0:2|0:0,0:0:0:0:
368,123,83123,2,0,P|360:61|397:12,1,125.999996154785,2|0,0:0|0:0,0:0:0:0:
486,150,83829,1,2,0:0:0:0:
351,243,84182,1,2,0:0:0:0:
444,378,84535,1,2,0:0:0:0:
351,243,84888,1,2,0:0:0:0:
192,200,85241,6,0,P|252:217|313:233,1,125.999996154785,2|0,0:0|0:0,0:0:0:0:
184,335,85947,2,0,P|122:328|73:365,2,125.999996154785,2|2|2,0:0|0:0|0:0,0:0:0:0:
39,254,87006,1,0,0:0:0:0:
192,200,87358,1,8,3:3:0:0:
170,119,87535,1,8,3:3:0:0:
148,38,87711,1,8,3:3:0:0:
148,38,88064,6,0,P|208:22|269:4,1,125.999996154785,4|0,3:2|0:0,0:0:0:0:
334,56,88594,1,0,3:0:0:0:
334,56,88770,2,0,P|297:105|305:166,1,125.999996154785,8|0,0:0|0:0,0:0:0:0:
380,127,89300,1,0,3:0:0:0:
374,208,89476,5,0,3:0:0:0:
374,208,89653,2,0,P|314:224|253:242,1,125.999996154785,8|0,0:0|0:0,0:0:0:0:
200,178,90182,2,0,P|169:170|139:161,1,62.9999980773926,8|0,0:0|0:0,0:0:0:0:
71,115,90535,1,0,3:0:0:0:
71,115,90888,6,0,P|88:175|105:236,1,125.999996154785,4|0,3:2|0:0,0:0:0:0:
145,312,91417,1,0,3:0:0:0:
145,312,91594,2,0,P|84:320|35:282,1,125.999996154785,8|0,0:0|0:0,0:0:0:0:
28,200,92123,1,0,3:0:0:0:
105,236,92300,5,0,3:0:0:0:
105,236,92476,2,0,P|166:228|215:266,1,125.999996154785,8|0,0:0|0:0,0:0:0:0:
218,347,93006,1,8,3:2:0:0:
299,325,93183,1,8,3:2:0:0:
380,303,93359,1,8,3:2:0:0:
380,303,93711,6,0,P|398:235|418:168,1,140,4|0,3:2|0:0,0:0:0:0:
327,154,94241,1,0,3:0:0:0:
327,154,94417,2,0,P|318:120|309:86,1,70,8|0,0:0|0:0,0:0:0:0:
400,80,94770,2,0,P|434:89|468:98,1,70,0|0,0:0|3:0,0:0:0:0:
354,3,95123,5,0,3:0:0:0:
354,3,95300,2,0,P|286:-5|230:35,1,140,8|0,0:0|3:0,0:0:0:0:
309,86,95829,1,8,0:0:0:0:
309,86,96006,1,8,0:0:0:0:
226,129,96182,2,0,P|192:120|158:111,1,70,0|0,3:0|3:0,0:0:0:0:
67,123,96535,6,0,P|76:89|85:55,1,70,4|0,3:2|0:0,0:0:0:0:
169,20,96888,1,0,0:0:0:0:
158,111,97064,1,0,3:0:0:0:
158,111,97241,2,0,P|149:145|140:179,1,70,8|0,0:0|0:0,0:0:0:0:
56,214,97594,2,0,P|65:248|74:282,1,70,0|0,0:0|3:0,0:0:0:0:
10,346,97947,6,0,P|78:364|145:384,1,140,4|0,3:2|0:0,0:0:0:0:
172,296,98476,1,0,3:0:0:0:
257,329,98653,2,0,P|291:320|325:311,2,70,8|0|0,0:0|0:0|3:0,0:0:0:0:
432,280,99358,5,12,0:0:0:0:
336,221,99535,1,8,0:0:0:0:
336,221,99887,5,12,0:0:0:0:
432,162,100064,2,0,P|423:128|414:94,1,70,8|0,0:0|3:0,0:0:0:0:
443,7,100417,2,0,P|392:21|341:34,1,105,12|0,0:0|0:0,0:0:0:0:
320,79,100770,6,0,P|261:32|186:43,1,154.000004699707,4|0,3:2|3:0,0:0:0:0:
134,129,101300,2,0,P|96:139|59:148,1,77.0000023498536,10|0,0:0|3:0,0:0:0:0:
235,127,101653,1,0,0:0:0:0:
186,215,101829,2,0,P|223:224|260:233,1,77.0000023498536,0|0,3:0|0:0,0:0:0:0:
89,242,102182,5,0,3:0:0:0:
160,310,102358,2,0,P|150:347|141:384,2,77.0000023498536,2|0|8,0:0|3:0|0:0,0:0:0:0:
246,357,102888,2,0,P|283:347|320:338,1,77.0000023498536,0|2,3:0|0:0,0:0:0:0:
417,366,103241,2,0,P|454:375|491:384,1,77.0000023498536,0|2,3:0|0:0,0:0:0:0:
394,270,103594,6,0,P|464:242|492:171,1,154.000004699707,0|0,3:0|3:0,0:0:0:0:
396,171,104123,1,10,0:0:0:0:
446,84,104300,2,0,P|436:47|427:10,1,77.0000023498536,0|0,3:0|0:0,0:0:0:0:
396,171,104653,2,0,P|340:155|284:141,1,115.50000352478,0|0,3:0|0:0,0:0:0:0:
234,138,105006,5,0,3:0:0:0:
309,322,105358,1,0,3:0:0:0:
272,230,105535,1,10,0:2:0:0:
210,308,105711,1,0,3:0:0:0:
173,216,105888,1,2,3:2:0:0:
135,124,106064,1,8,0:0:0:0:
135,124,106417,6,0,P|209:134|267:87,1,154.000004699707,0|0,3:0|3:0,0:0:0:0:
226,0,106947,1,10,0:0:0:0:
323,8,107123,2,0,P|361:18|398:27,1,77.0000023498536,0|0,3:0|0:0,0:0:0:0:
267,87,107476,2,0,P|323:101|378:116,1,115.50000352478,0|0,3:0|0:0,0:0:0:0:
400,161,107829,5,0,3:0:0:0:
480,100,108006,2,0,P|489:62|499:25,2,77.0000023498536,10|0|0,0:0|3:0|0:0,0:0:0:0:
400,161,108535,2,0,P|410:198|419:235,1,77.0000023498536,0|2,3:0|0:0,0:0:0:0:
489,307,108888,2,0,P|478:344|469:381,1,77.0000023498536,0|2,3:0|0:0,0:0:0:0:
419,235,109241,5,0,3:0:0:0:
347,305,109417,2,0,P|309:314|272:325,1,77.0000023498536,0|0,0:0|3:0,0:0:0:0:
241,229,109770,1,10,0:0:0:0:
174,304,109947,2,0,P|99:324|25:342,1,154.000004699707,0|0,3:0|3:0,0:0:0:0:
25,142,110653,5,0,3:0:0:0:
118,179,110829,1,10,2:0:0:0:
196,116,111006,1,0,3:0:0:0:
180,16,111182,1,2,2:0:0:0:
103,79,111358,2,0,P|66:68|29:59,1,77.0000023498536,0|0,3:0|0:0,0:0:0:0:
0,19,111623,1,8,0:0:0:0:
0,19,111711,1,0,3:0:0:0:
196,116,112064,6,0,P|215:190|234:265,1,154.000004699707,4|0,3:2|0:0,0:0:0:0:
133,272,112594,1,2,3:2:0:0:
187,354,112770,2,0,P|246:308|320:318,1,154.000004699707,8|0,0:0|0:0,0:0:0:0:
406,371,113300,1,0,3:0:0:0:
459,285,113476,5,0,3:0:0:0:
373,232,113653,2,0,P|382:195|391:158,1,77.0000023498536,10|0,0:2|0:0,0:0:0:0:
320,318,114006,1,2,3:2:0:0:
234,265,114183,2,0,P|243:228|252:191,1,77.0000023498536,8|2,0:0|0:2,0:0:0:0:
216,98,114535,2,0,P|167:128|110:125,1,115.50000352478,0|0,3:0|0:0,0:0:0:0:
75,160,114888,6,0,P|94:86|113:11,1,154.000004699707,0|0,3:0|0:0,0:0:0:0:
20,48,115417,1,2,3:2:0:0:
113,10,115594,1,8,0:0:0:0:
211,26,115770,2,0,P|248:17|285:8,1,77.0000023498536,2|0,3:2|0:0,0:0:0:0:
344,89,116123,6,0,P|418:78|477:124,1,154.000004699707,2|2,3:2|3:2,0:0:0:0:
478,225,116653,1,0,0:0:0:0:
393,174,116829,1,0,3:0:0:0:
306,222,117006,1,8,0:0:0:0:
391,273,117182,1,2,3:2:0:0:
476,324,117358,1,0,3:0:0:0:
476,324,117711,6,0,P|401:342|326:362,1,154.000004699707,0|0,3:0|0:0,0:0:0:0:
234,321,118241,1,2,3:2:0:0:
153,379,118417,2,0,P|144:341|134:304,1,77.0000023498536,8|0,0:0|0:0,0:0:0:0:
58,238,118770,2,0,P|48:275|39:312,1,77.0000023498536,0|2,0:0|3:2,0:0:0:0:
154,206,119123,5,0,3:0:0:0:
78,140,119300,2,0,P|40:149|3:158,2,77.0000023498536,10|8|2,0:2|0:3|3:2,0:0:0:0:
97,41,119829,2,0,P|134:50|171:59,1,77.0000023498536,8|0,0:0|0:0,0:0:0:0:
237,134,120182,2,0,P|246:171|255:208,1,77.0000023498536,0|2,0:0|3:2,0:0:0:0:
154,206,120535,5,0,3:0:0:0:
255,208,120711,2,0,P|324:180|352:111,1,154.000004699707,0|2,0:0|3:2,0:0:0:0:
278,42,121241,1,8,0:0:0:0:
352,110,121417,2,0,P|389:100|426:90,1,77.0000023498536,2|0,3:2|0:0,0:0:0:0:
512,40,121770,6,0,P|465:98|476:173,1,154.000004699707,0|2,3:0|0:2,0:0:0:0:
512,266,122300,1,0,3:0:0:0:
413,251,122476,1,2,0:2:0:0:
368,340,122653,1,0,3:0:0:0:
314,257,122829,1,10,0:2:0:0:
314,257,122917,1,8,0:3:0:0:
314,257,123006,2,0,P|305:219|295:182,1,77.0000023498536,10|10,0:0|0:0,0:0:0:0:
229,107,123358,5,4,3:2:0:0:
96,232,123711,1,0,3:0:0:0:
229,107,124064,1,0,3:0:0:0:
96,232,124417,1,0,3:0:0:0:
229,107,124770,5,0,3:0:0:0:
141,80,124947,1,2,0:0:0:0:
54,54,125123,1,0,3:0:0:0:
229,107,125476,2,0,P|263:98|297:89,1,70,0|2,3:0|0:0,0:0:0:0:
384,63,125829,1,0,3:0:0:0:
306,227,126182,5,0,3:0:0:0:
384,63,126535,1,0,3:0:0:0:
306,227,126888,1,0,3:0:0:0:
384,63,127241,1,0,3:0:0:0:
306,227,127594,5,0,3:0:0:0:
393,200,127770,1,2,0:0:0:0:
459,261,127947,1,0,3:0:0:0:
321,380,128300,2,0,P|330:346|339:312,1,70,2|0,3:2|0:0,0:0:0:0:
306,227,128653,2,0,P|297:193|288:159,1,70,2|2,3:2|0:0,0:0:0:0:
255,73,129006,5,4,3:2:0:0:
435,101,129358,1,8,0:0:0:0:
255,73,129711,1,0,3:0:0:0:
435,101,130064,1,8,0:0:0:0:
255,73,130417,5,0,3:0:0:0:
288,159,130594,1,2,0:2:0:0:
345,87,130770,1,8,0:0:0:0:
231,231,131123,1,0,3:0:0:0:
198,145,131300,1,2,3:2:0:0:
141,217,131476,2,0,P|107:226|73:235,1,70,8|2,0:0|0:2,0:0:0:0:
174,303,131829,6,0,P|232:267|299:282,2,140,0|8|0,3:0|0:0|3:0,0:0:0:0:
248,361,132711,1,0,3:0:0:0:
341,365,132888,2,0,P|374:355|408:347,1,70,8|0,0:0|0:0,0:0:0:0:
497,368,133241,6,0,P|482:317|469:266,1,105,0|0,3:0|0:0,0:0:0:0:
450,224,133594,2,0,P|416:232|382:241,1,70,8|2,0:0|0:2,0:0:0:0:
299,282,133947,1,0,3:0:0:0:
305,191,134123,1,2,3:2:0:0:
244,122,134300,1,10,0:0:0:0:
244,122,134653,6,0,L|254:59,1,62.9999980773926,4|0,3:2|0:0,0:0:0:0:
164,108,135006,2,0,L|174:45,1,62.9999980773926,2|0,3:2|0:0,0:0:0:0:
112,171,135358,2,0,L|122:234,1,62.9999980773926,0|0,3:0|0:0,0:0:0:0:
32,185,135711,2,0,L|42:248,1,62.9999980773926,2|0,3:2|0:0,0:0:0:0:
157,321,136064,6,0,L|94:311,2,62.9999980773926,0|0|2,3:0|0:0|3:2,0:0:0:0:
206,255,136594,1,0,0:0:0:0:
174,180,136770,2,0,L|111:170,2,62.9999980773926,0|0|2,3:0|0:0|3:2,0:0:0:0:
223,114,137300,1,0,0:0:0:0:
191,39,137476,6,0,L|128:29,1,62.9999980773926,0|0,3:0|0:0,0:0:0:0:
223,114,137829,2,0,L|286:104,1,62.9999980773926,2|0,3:2|0:0,0:0:0:0:
336,32,138182,2,0,L|273:22,1,62.9999980773926,0|0,3:0|0:0,0:0:0:0:
368,107,138535,2,0,L|431:97,1,62.9999980773926,2|0,3:2|0:0,0:0:0:0:
317,179,138888,6,0,L|307:242,2,62.9999980773926,0|0|2,3:0|0:0|3:2,0:0:0:0:
285,104,139417,1,0,0:0:0:0:
285,104,139947,6,0,P|243:112|202:117,1,83.9999974365235,8|0,0:0|0:0,0:0:0:0:
170,150,140211,1,8,0:0:0:0:
170,150,140300,1,4,3:2:0:0:
