osu file format v14

[General]
AudioFilename: audio.mp3
AudioLeadIn: 0
PreviewTime: 3270
Countdown: 0
SampleSet: Soft
StackLeniency: 0.7
Mode: 0
LetterboxInBreaks: 0
WidescreenStoryboard: 1

[Editor]
Bookmarks: 100770,106417,112064,117711,123358
DistanceSpacing: 1
BeatDivisor: 2
GridSize: 16
TimelineZoom: 1.3

[Metadata]
Title:A Long Fall
TitleUnicode:ロングフォール ~異界遺構 シルクス・ツイニング~
Artist:Soken Masayoshi
ArtistUnicode:祖堅正慶
Creator:Ryuusei Aika
Version:Collab Normal
Source:ファイナルファンタジーXIV: 漆黒のヴィランズ
Tags:Starlight Dored Imouto Koko Garden Yorita Yoshino -ClariS- kanor Final Fantasy XIV XIV: Shadowbringers electronic instrumental
BeatmapID:2877945
BeatmapSetID:1266110

[Difficulty]
HPDrainRate:4
CircleSize:3.2
OverallDifficulty:5
ApproachRate:6
SliderMultiplier:1
SliderTickRate:1

[Events]
//Background and Video events
0,0,"Tycoon.jpg",0,0
//Break Periods
//Storyboard Layer 0 (Background)
//Storyboard Layer 1 (Fail)
//Storyboard Layer 2 (Pass)
//Storyboard Layer 3 (Foreground)
//Storyboard Layer 4 (Overlay)
//Storyboard Sound Samples

[TimingPoints]
3359,352.941176470588,4,2,2,50,1,0
3359,-100,4,2,2,50,0,0
8653,-100,4,2,2,70,0,0
8829,-100,4,2,2,70,0,0
31594,-100,4,2,2,60,0,0
54182,-100,4,2,2,70,0,0
76770,-100,4,2,2,50,0,0
88064,-100,4,2,2,60,0,0
93711,-99.9999999999999,4,2,2,60,0,0
100682,-99.9999999999999,4,2,2,60,0,0
100770,-100,4,2,2,70,0,0
104917,-100,4,2,2,70,0,0
105006,-100,4,2,2,70,0,0
107741,-100,4,2,2,70,0,0
107829,-100,4,2,2,70,0,0
114800,-100,4,2,2,70,0,0
114888,-100,4,2,2,70,0,0
123358,-100,4,2,2,60,0,0
129006,-100,4,2,2,70,0,0
134653,-100,4,2,2,60,0,0
139947,-100,4,2,2,70,0,0
140123,-100,4,2,2,70,0,0

[Colours]
Combo1 : 0,128,192
Combo2 : 64,128,128

[HitObjects]
33,335,8653,5,8,0:0:0:0:
129,309,9006,6,0,L|192:323,1,50,4|0,3:2|0:0,0:0:0:0:
229,338,9358,1,8,0:0:0:0:
229,338,9535,1,0,0:0:0:0:
273,248,9887,1,0,3:0:0:0:
283,148,10241,1,0,0:0:0:0:
272,99,10417,2,0,L|145:71,1,100,0|8,3:0|0:0,0:0:0:0:
124,70,10947,1,0,0:0:0:0:
44,130,11299,1,0,3:0:0:0:
19,225,11653,5,0,0:0:0:0:
61,251,11829,2,0,L|189:227,1,100,0|8,3:2|0:0,0:0:0:0:
186,190,12358,1,0,0:0:0:0:
284,171,12710,1,0,3:0:0:0:
367,115,13064,1,0,0:0:0:0:
404,148,13241,2,0,P|383:201|417:268,1,100,0|8,3:0|0:0,0:0:0:0:
427,277,13770,1,0,0:0:0:0:
330,303,14122,1,0,3:0:0:0:
235,335,14476,5,0,0:0:0:0:
202,296,14653,2,0,P|149:275|82:309,1,100,0|8,3:2|0:0,0:0:0:0:
65,310,15182,1,0,0:0:0:0:
28,217,15534,1,0,3:0:0:0:
38,117,15888,1,0,0:0:0:0:
85,132,16064,2,0,P|169:89|173:76,1,100,0|8,3:0|0:0,0:0:0:0:
189,45,16594,1,0,0:0:0:0:
287,30,16946,1,0,3:0:0:0:
383,16,17300,5,0,0:0:0:0:
399,62,17476,2,0,P|362:109|372:174,1,100,0|8,3:2|0:0,0:0:0:0:
373,196,18006,1,0,0:0:0:0:
392,293,18358,1,0,3:0:0:0:
345,381,18711,1,0,0:0:0:0:
294,377,18888,2,0,L|158:364,1,100,0|8,3:0|0:0,0:0:0:0:
144,362,19417,1,0,0:0:0:0:
82,282,19770,1,8,3:0:0:0:
85,182,20123,5,8,0:3:0:0:
134,188,20300,2,0,L|183:192,1,50,12|2,3:2|0:0,0:0:0:0:
233,199,20653,1,8,0:0:0:0:
233,199,20829,2,0,P|256:123|245:85,1,100,2|2,0:0|3:2,0:0:0:0:
236,62,21358,1,8,0:0:0:0:
236,62,21535,2,0,L|136:52,1,100,2|2,0:0|3:2,0:0:0:0:
86,47,22064,1,8,0:0:0:0:
86,47,22241,2,0,L|36:42,2,50,2|0|2,3:2|0:0|3:2,0:0:0:0:
108,92,22770,1,10,0:0:0:0:
85,193,23123,6,0,L|134:188,1,50,0|2,3:2|0:0,0:0:0:0:
188,187,23476,1,8,0:0:0:0:
188,187,23653,2,0,L|309:174,1,100,2|2,0:0|3:2,0:0:0:0:
341,176,24182,1,8,0:0:0:0:
341,176,24358,2,0,P|317:221|333:290,1,100,2|2,0:2|3:2,0:0:0:0:
353,307,24888,1,8,0:0:0:0:
353,307,25064,2,0,L|427:292,2,50,2|0|2,0:2|3:0|3:2,0:0:0:0:
329,351,25594,1,8,0:0:0:0:
229,341,25947,6,0,L|163:335,1,50,0|2,3:0|0:2,0:0:0:0:
133,333,26300,1,8,0:0:0:0:
133,333,26476,2,0,P|116:287|135:228,1,100,2|2,0:2|3:2,0:0:0:0:
157,198,27006,1,8,0:0:0:0:
157,198,27182,2,0,L|171:69,1,100,2|2,0:2|3:2,0:0:0:0:
179,52,27711,1,8,0:0:0:0:
179,52,27888,2,0,P|151:50|120:29,2,50,2|0|2,3:2|0:0|3:2,0:0:0:0:
225,32,28417,1,10,0:2:0:0:
321,6,28770,6,0,L|333:66,1,50,0|2,3:2|0:2,0:0:0:0:
350,106,29123,1,8,0:0:0:0:
350,106,29300,2,0,P|335:171|379:227,1,100,2|2,0:2|3:2,0:0:0:0:
385,231,29829,1,8,0:0:0:0:
385,231,30006,2,0,L|404:349,1,100,2|2,0:2|3:2,0:0:0:0:
423,380,30535,1,8,0:0:0:0:
423,380,30711,2,0,P|450:373|469:349,2,50,2|0|2,0:2|3:0|3:2,0:0:0:0:
373,369,31241,1,10,0:2:0:0:
320,284,31594,5,4,3:2:0:0:
349,188,31946,1,8,0:0:0:0:
372,91,32300,1,0,3:2:0:0:
372,91,32476,2,0,L|259:85,1,100,0|0,3:2|0:0,0:0:0:0:
221,82,33006,1,2,3:2:0:0:
150,19,33358,1,10,0:0:0:0:
150,19,33535,2,0,P|96:12|36:41,1,100,2|2,3:2|3:2,0:0:0:0:
8,116,34241,5,8,3:0:0:0:
8,116,34417,1,0,3:0:0:0:
79,194,34770,1,8,0:0:0:0:
79,194,34947,2,0,P|75:266|33:318,1,100,0|0,3:2|3:0,0:0:0:0:
5,372,35653,1,0,3:2:0:0:
5,372,35829,1,2,3:2:0:0:
108,381,36182,1,10,0:2:0:0:
108,381,36358,2,0,L|227:366,1,100,2|2,3:2|3:2,0:0:0:0:
310,359,37064,5,8,3:3:0:0:
310,359,37241,1,0,3:0:0:0:
409,361,37593,1,8,0:0:0:0:
484,308,37947,1,0,3:0:0:0:
484,308,38123,2,0,L|501:191,1,100,0|0,3:2|3:2,0:0:0:0:
508,159,38653,1,2,3:2:0:0:
428,98,39006,1,10,0:2:0:0:
428,98,39182,2,0,P|375:97|310:68,1,100,2|2,3:2|3:2,0:0:0:0:
267,11,39888,5,8,3:0:0:0:
267,11,40064,1,0,3:0:0:0:
209,93,40417,1,8,0:2:0:0:
209,93,40594,2,0,P|155:113|90:94,1,100,0|0,3:2|3:0,0:0:0:0:
28,66,41300,1,0,3:2:0:0:
28,66,41476,2,0,P|0:115|8:182,1,100,2|10,3:2|0:2,0:0:0:0:
17,204,42006,2,0,L|45:333,1,100,2|8,3:2|3:3,0:0:0:0:
76,334,42535,1,8,0:0:0:0:
115,363,42711,1,8,3:3:0:0:
163,351,42888,6,0,L|305:310,1,100,4|8,3:2|0:0,0:0:0:0:
358,296,43594,1,0,3:0:0:0:
358,296,43770,2,0,P|390:247|351:179,1,100,0|0,3:2|0:0,0:0:0:0:
364,161,44300,1,2,3:2:0:0:
273,132,44652,1,10,0:2:0:0:
273,132,44829,2,0,P|211:125|159:171,1,100,2|2,3:2|3:2,0:0:0:0:
128,231,45535,5,8,3:0:0:0:
128,231,45711,1,0,3:0:0:0:
48,179,46064,1,8,0:0:0:0:
48,179,46241,2,0,P|65:91|102:83,1,100,0|0,3:2|3:0,0:0:0:0:
137,22,46947,1,0,0:2:0:0:
137,22,47123,1,2,3:2:0:0:
235,57,47476,1,10,0:2:0:0:
235,57,47653,2,0,L|240:156,1,100,2|2,3:2|3:2,0:0:0:0:
254,260,48358,5,8,0:3:0:0:
254,260,48535,2,0,L|395:267,1,100,0|8,3:0|0:0,0:0:0:0:
457,276,49241,1,0,3:0:0:0:
457,276,49417,2,0,P|484:234|479:179,1,100,0|0,2:0|2:0,0:0:0:0:
450,146,49947,1,2,3:2:0:0:
369,96,50300,1,10,0:2:0:0:
369,96,50476,2,0,P|319:125|261:114,1,100,2|2,3:2|3:2,0:0:0:0:
185,105,51182,5,8,3:0:0:0:
185,105,51358,1,0,3:0:0:0:
165,206,51711,1,8,0:0:0:0:
165,206,51888,2,0,L|152:320,1,100,0|0,3:2|3:0,0:0:0:0:
231,376,52594,1,0,3:2:0:0:
231,376,52770,1,2,3:2:0:0:
327,343,53122,1,10,0:2:0:0:
327,343,53300,2,0,P|376:337|414:306,1,100,2|2,0:2|3:2,0:0:0:0:
435,261,53829,1,8,0:0:0:0:
439,166,54182,6,0,L|389:162,1,50,4|2,3:2|0:2,0:0:0:0:
342,160,54535,1,8,0:0:0:0:
342,160,54711,2,0,B|287:125|287:125|208:125|208:125,1,100,2|2,0:2|3:2,0:0:0:0:
201,125,55241,1,8,0:0:0:0:
160,154,55417,2,0,L|187:288,1,100,2|2,0:2|3:2,0:0:0:0:
153,295,55947,1,8,0:0:0:0:
107,275,56123,2,0,P|44:201|35:125,1,150,2|8,0:2|0:0,0:0:0:0:
24,46,57006,6,0,L|115:68,1,50,0|2,3:0|0:2,0:0:0:0:
120,71,57358,1,8,0:0:0:0:
167,85,57535,2,0,L|138:230,1,100,2|2,0:2|3:2,0:0:0:0:
136,231,58064,1,8,0:0:0:0:
182,250,58241,2,0,P|251:235|327:248,1,100,2|2,0:2|3:2,0:0:0:0:
328,247,58770,2,0,L|316:372,2,100,10|10|8,0:0|3:2|0:0,0:0:0:0:
338,147,59829,6,0,L|348:55,1,50,0|2,3:0|0:2,0:0:0:0:
383,67,60182,1,8,0:0:0:0:
429,85,60358,2,0,L|417:210,1,100,2|2,0:2|3:2,0:0:0:0:
414,234,60888,1,8,0:0:0:0:
408,283,61064,2,0,P|343:268|283:309,1,100,2|2,0:2|3:2,0:0:0:0:
273,309,61594,2,0,L|136:289,1,100,8|0,0:0|3:0,0:0:0:0:
75,278,62300,1,8,0:0:0:0:
114,188,62653,5,0,3:0:0:0:
114,188,62829,2,0,P|78:174|67:140,1,50,2|8,0:2|0:0,0:0:0:0:
69,114,63182,2,0,L|209:91,2,100,2|10|2,0:2|3:2|0:2,0:0:0:0:
19,123,64064,1,0,3:0:0:0:
55,30,64417,1,8,0:0:0:0:
153,10,64770,1,8,3:2:0:0:
246,46,65123,1,8,0:0:0:0:
338,99,65476,6,0,L|353:146,1,50,4|2,3:2|0:2,0:0:0:0:
371,192,65829,1,10,0:0:0:0:
371,192,66006,2,0,P|313:216|284:272,1,100,2|2,0:2|3:2,0:0:0:0:
272,291,66535,1,10,0:0:0:0:
252,337,66711,2,0,L|127:295,1,100,2|2,0:2|3:2,0:0:0:0:
113,287,67241,1,10,0:0:0:0:
70,260,67417,2,0,B|6:180|29:80,1,150,2|10,0:2|0:0,0:0:0:0:
36,16,68300,6,0,L|129:26,1,50,0|2,3:0|0:2,0:0:0:0:
135,27,68653,1,10,0:0:0:0:
184,33,68829,2,0,L|174:176,1,100,2|2,0:2|3:2,0:0:0:0:
173,182,69358,1,10,0:0:0:0:
219,201,69535,2,0,P|265:165|342:192,1,100,2|2,0:2|3:2,0:0:0:0:
348,189,70064,2,0,L|386:326,2,100,10|2|8,0:0|3:0|0:0,0:0:0:0:
348,88,71123,6,0,L|328:18,1,50,4|2,3:2|0:2,0:0:0:0:
284,33,71476,1,10,0:0:0:0:
234,28,71653,2,0,L|271:158,1,100,2|2,0:2|3:2,0:0:0:0:
276,172,72182,1,10,0:0:0:0:
288,220,72358,2,0,L|147:184,1,100,2|2,0:2|3:2,0:0:0:0:
143,178,72888,2,0,L|122:107,1,50,10|2,0:0|0:2,0:0:0:0:
112,82,73241,1,0,3:0:0:0:
18,117,73593,1,10,0:0:0:0:
18,221,73947,5,0,3:0:0:0:
18,221,74123,2,0,L|103:236,1,50,2|10,0:2|0:0,0:0:0:0:
115,242,74476,2,0,L|232:332,1,100,2|2,0:2|3:2,0:0:0:0:
242,341,75006,1,10,0:0:0:0:
242,341,75182,1,2,0:2:0:0:
242,341,75358,2,0,L|268:224,1,100,0|10,3:0|0:0,0:0:0:0:
289,146,76064,2,0,L|299:97,1,50,0|2,3:0|3:2,0:0:0:0:
313,49,76417,1,8,0:0:0:0:
413,49,76770,5,4,3:2:0:0:
490,229,77475,1,2,0:0:0:0:
335,356,78182,2,0,L|218:336,2,100,2|2|2,0:0|0:0|0:0,0:0:0:0:
432,333,79241,1,2,0:0:0:0:
406,236,79594,1,2,0:0:0:0:
268,191,80123,1,0,0:0:0:0:
268,191,80300,2,0,L|126:216,1,100,2|2,0:0|0:0,0:0:0:0:
70,226,81006,1,2,0:0:0:0:
234,339,81711,1,0,0:0:0:0:
406,236,82417,5,6,0:2:0:0:
372,38,83122,1,2,0:0:0:0:
172,18,83829,2,0,L|195:153,2,100,2|2|2,0:0|0:0|0:0,0:0:0:0:
270,1,84888,1,2,0:0:0:0:
293,98,85241,1,2,0:0:0:0:
221,284,85947,1,2,0:0:0:0:
134,334,86300,1,2,0:0:0:0:
42,295,86653,2,0,L|58:176,1,100,2|0,0:0|0:0,0:0:0:0:
97,105,87358,2,0,L|108:24,2,50,8|8|8,3:3|3:3|3:3,0:0:0:0:
185,152,88064,6,0,P|245:136|306:118,1,100,4|0,3:2|0:0,0:0:0:0:
329,111,88594,1,0,3:0:0:0:
365,145,88770,2,0,P|345:203|373:258,1,100,8|0,0:0|0:0,0:0:0:0:
439,303,89476,1,0,3:0:0:0:
439,303,89653,2,0,P|379:319|318:337,1,100,8|0,0:0|0:0,0:0:0:0:
294,315,90182,1,8,0:0:0:0:
197,288,90535,1,0,3:0:0:0:
97,299,90888,6,0,L|62:177,1,100,4|0,3:2|0:0,0:0:0:0:
54,155,91417,1,0,3:0:0:0:
39,107,91594,2,0,P|118:109|159:65,1,100,8|0,0:0|0:0,0:0:0:0:
215,42,92300,1,0,3:0:0:0:
215,42,92476,2,0,P|276:34|325:72,1,100,8|0,0:0|0:0,0:0:0:0:
345,84,93006,1,8,3:2:0:0:
394,82,93182,1,8,3:2:0:0:
443,79,93358,1,8,3:2:0:0:
433,178,93711,6,0,L|480:312,1,100,4|0,3:2|0:0,0:0:0:0:
485,319,94241,2,0,L|357:289,1,100,0|0,3:0|0:0,0:0:0:0:
339,282,94770,1,0,0:0:0:0:
250,328,95123,1,0,3:0:0:0:
111,260,95653,2,0,P|98:203|126:148,1,100,0|8,3:0|0:0,0:0:0:0:
154,139,96182,2,0,L|227:120,1,50,0|0,3:0|3:0,0:0:0:0:
251,117,96535,6,0,L|259:13,1,100,4|0,3:2|0:0,0:0:0:0:
331,86,97241,2,0,L|323:204,1,100,8|0,0:0|0:0,0:0:0:0:
397,254,97947,2,0,L|413:14,1,200,4|8,3:2|0:0,0:0:0:0:
310,65,99006,1,0,3:0:0:0:
210,68,99358,1,12,0:0:0:0:
210,68,99535,2,0,L|200:195,1,100,8|12,0:0|0:0,0:0:0:0:
200,217,100064,1,8,0:0:0:0:
294,248,100417,1,12,0:0:0:0:
286,347,100770,5,4,3:2:0:0:
433,313,101299,1,10,0:0:0:0:
433,313,101476,2,0,L|450:213,1,100,0|0,3:0|3:0,0:0:0:0:
466,115,102182,1,0,3:0:0:0:
366,101,102535,2,0,L|356:166,1,50,0|8,3:0|0:0,0:0:0:0:
350,199,102888,2,0,P|298:182|274:144,1,100,0|0,3:0|3:0,0:0:0:0:
251,47,103594,5,0,3:0:0:0:
180,181,104123,1,10,0:0:0:0:
180,181,104300,2,0,B|173:280,1,100,0|0,3:0|3:0,0:0:0:0:
239,356,105006,2,0,P|301:345|356:355,1,100,0|0,3:0|3:0,0:0:0:0:
436,336,105711,2,0,L|504:321,2,50,0|2|8,3:0|3:2|0:0,0:0:0:0:
384,249,106417,5,0,3:0:0:0:
400,99,106946,1,10,0:0:0:0:
400,99,107123,2,0,L|300:89,1,100,0|0,3:0|3:0,0:0:0:0:
201,75,107829,2,0,L|181:30,2,50,0|10|0,3:0|0:0|3:0,0:0:0:0:
216,175,108535,2,0,L|172:264,1,100,0|0,3:0|3:0,0:0:0:0:
127,354,109241,5,0,3:0:0:0:
41,237,109770,1,10,0:0:0:0:
41,237,109947,2,0,L|33:137,1,100,0|0,3:0|3:0,0:0:0:0:
29,37,110653,2,0,L|149:61,1,100,0|0,3:0|3:0,0:0:0:0:
224,80,111358,2,0,L|301:96,2,50,0|0|0,3:0|0:0|3:0,0:0:0:0:
157,155,112064,6,0,P|171:214|270:220,1,150,4|2,3:2|3:2,0:0:0:0:
292,206,112770,1,8,0:0:0:0:
439,254,113300,1,0,3:0:0:0:
439,254,113476,1,0,3:0:0:0:
439,254,113653,2,0,P|389:258|355:312,1,100,10|2,0:2|3:2,0:0:0:0:
354,344,114182,1,8,0:0:0:0:
257,370,114535,1,0,3:0:0:0:
174,313,114888,6,0,P|194:230|165:172,1,150,0|2,3:0|3:2,0:0:0:0:
129,150,115594,1,8,0:0:0:0:
129,150,115770,1,2,3:2:0:0:
153,53,116123,2,0,L|281:35,1,100,2|2,3:2|3:2,0:0:0:0:
355,29,116829,1,0,3:0:0:0:
355,29,117006,2,0,P|404:28|446:54,1,100,8|0,0:0|3:0,0:0:0:0:
487,145,117711,6,0,L|469:293,1,150,0|2,3:0|3:2,0:0:0:0:
462,343,118417,1,8,0:0:0:0:
266,331,119123,1,0,3:0:0:0:
266,331,119300,2,0,L|161:317,1,100,10|2,0:2|3:2,0:0:0:0:
116,312,119829,1,8,0:0:0:0:
78,219,120182,1,0,0:0:0:0:
134,136,120535,6,0,L|311:122,1,150,0|2,3:0|3:2,0:0:0:0:
333,121,121241,2,0,P|307:177|336:240,1,100,8|0,0:0|0:0,0:0:0:0:
342,254,121770,2,0,L|225:263,1,100,0|2,3:0|0:2,0:0:0:0:
211,221,122300,2,0,L|128:228,1,50,0|2,3:0|0:2,0:0:0:0:
111,229,122653,2,0,L|120:316,2,50,0|10|10,3:0|0:2|0:0,0:0:0:0:
100,129,123358,6,0,L|89:29,1,100,4|0,3:2|3:0,0:0:0:0:
182,66,124064,2,0,L|192:165,1,100,0|0,3:0|3:0,0:0:0:0:
272,103,124770,2,0,L|391:90,2,100,0|0|0,3:0|3:0|3:0,0:0:0:0:
192,165,125829,1,0,3:0:0:0:
92,179,126182,6,0,L|81:79,1,100,0|0,3:0|3:0,0:0:0:0:
174,116,126888,2,0,L|184:215,1,100,0|0,3:0|3:0,0:0:0:0:
264,153,127594,2,0,L|383:140,2,100,0|0|2,3:0|3:0|3:2,0:0:0:0:
184,215,128653,1,2,3:2:0:0:
105,156,129006,6,0,L|120:56,1,100,4|8,3:2|0:0,0:0:0:0:
200,116,129712,2,0,L|184:214,1,100,0|8,3:0|0:0,0:0:0:0:
278,175,130417,2,0,L|396:193,1,100,0|8,3:0|0:0,0:0:0:0:
457,250,131123,1,0,3:0:0:0:
424,344,131477,1,8,0:0:0:0:
331,380,131829,6,0,L|230:368,1,100,0|8,3:0|0:0,0:0:0:0:
132,356,132535,2,0,L|83:269,1,100,0|8,3:0|0:0,0:0:0:0:
44,176,133241,2,0,L|161:194,1,100,0|8,3:0|0:0,0:0:0:0:
240,206,133947,1,0,3:0:0:0:
321,270,134300,1,10,0:0:0:0:
415,237,134653,5,4,3:2:0:0:
256,192,135006,12,8,139947,0:0:0:0:
