osu file format v14

[General]
AudioFilename: audio.mp3
AudioLeadIn: 0
PreviewTime: 3270
Countdown: 0
SampleSet: Soft
StackLeniency: 0.7
Mode: 0
LetterboxInBreaks: 0
WidescreenStoryboard: 1

[Editor]
Bookmarks: 54182,100770,123358
DistanceSpacing: 0.7
BeatDivisor: 4
GridSize: 8
TimelineZoom: 2

[Metadata]
Title:A Long Fall
TitleUnicode:ロングフォール ~異界遺構 シルクス・ツイニング~
Artist:Soken Masayoshi
ArtistUnicode:祖堅正慶
Creator:Ryuusei Aika
Version:Collab Insane
Source:ファイナルファンタジーXIV: 漆黒のヴィランズ
Tags:Starlight Dored Imouto Koko Garden Yorita Yoshino -ClariS- kanor Final Fantasy XIV XIV: Shadowbringers electronic instrumental
BeatmapID:2839003
BeatmapSetID:1266110

[Difficulty]
HPDrainRate:5
CircleSize:4.5
OverallDifficulty:8
ApproachRate:9
SliderMultiplier:1.6
SliderTickRate:1

[Events]
//Background and Video events
0,0,"Tycoon.jpg",0,0
//Break Periods
//Storyboard Layer 0 (Background)
//Storyboard Layer 1 (Fail)
//Storyboard Layer 2 (Pass)
//Storyboard Layer 3 (Foreground)
//Storyboard Layer 4 (Overlay)
//Storyboard Sound Samples

[TimingPoints]
3359,352.941176470588,4,2,2,50,1,0
8653,-100,4,2,2,70,0,0
9006,-83.3333333333333,4,2,2,70,0,0
20300,-66.6666666666667,4,2,2,70,0,1
31594,-100,4,2,2,60,0,0
34947,-128.205128205128,4,2,2,60,0,0
37064,-100,4,2,2,60,0,0
40594,-128.205128205128,4,2,2,60,0,0
42888,-100,4,2,2,60,0,0
46241,-128.205128205128,4,2,2,60,0,0
48358,-100,4,2,2,60,0,0
54182,-83.3333333333333,4,2,2,70,0,0
56653,-66.6666666666667,4,2,2,70,0,0
57006,-83.3333333333333,4,2,2,70,0,0
62300,-66.6666666666667,4,2,2,70,0,0
62653,-83.3333333333333,4,2,2,70,0,0
67947,-66.6666666666667,4,2,2,70,0,0
68300,-83.3333333333333,4,2,2,70,0,0
73594,-66.6666666666667,4,2,2,70,0,0
73947,-83.3333333333333,4,2,2,70,0,0
76770,-83.3333333333333,4,2,2,50,0,0
79594,-133.333333333333,4,2,2,50,0,0
80300,-95.2380952380952,4,2,2,50,0,0
81006,-178.571428571429,4,2,2,50,0,0
82417,-133.333333333333,4,2,2,50,0,0
85241,-133.333333333333,4,2,2,50,0,0
85947,-95.2380952380952,4,2,2,50,0,0
86653,-133.333333333333,4,2,2,50,0,0
87358,-66.6666666666667,4,2,2,50,0,0
88064,-133.333333333333,4,2,2,60,0,0
90888,-100,4,2,2,60,0,0
91594,-80,4,2,2,60,0,0
92300,-133.333333333333,4,2,2,60,0,0
93006,-80,4,2,2,60,0,0
93358,-66.6666666666667,4,2,2,60,0,0
93711,-100,4,2,2,60,0,0
95123,-80,4,2,2,60,0,0
96182,-66.6666666666667,4,2,2,60,0,0
96888,-100,4,2,2,60,0,0
100417,-66.6666666666667,4,2,2,60,0,0
100770,-133.333333333333,4,2,2,70,0,0
102358,-100,4,2,2,70,0,0
103594,-133.333333333333,4,2,2,70,0,0
106064,-100,4,2,2,70,0,0
106417,-133.333333333333,4,2,2,70,0,0
109241,-100,4,2,2,70,0,0
112064,-133.333333333333,4,2,2,70,0,0
115947,-133.333333333333,4,2,2,70,0,0
117535,-100,4,2,2,70,0,0
117888,-133.333333333333,4,2,2,70,0,0
120535,-100,4,2,2,70,0,0
123358,-100,4,2,2,60,0,0
129006,-100,4,2,2,70,0,0
134653,-100,4,2,2,60,0,0
139947,-100,4,2,2,70,0,0

[Colours]
Combo1 : 0,128,192
Combo2 : 128,128,255
Combo3 : 128,128,192
Combo4 : 255,79,79
Combo5 : 255,128,128
Combo6 : 151,255,151
Combo7 : 175,255,96
Combo8 : 0,128,255

[HitObjects]
69,180,3359,5,0,3:0:0:0:
69,180,3711,1,0,3:0:0:0:
69,180,4064,1,0,3:0:0:0:
69,180,4417,1,0,3:0:0:0:
221,137,4770,5,0,3:0:0:0:
221,137,5122,1,0,3:0:0:0:
221,137,5475,1,0,3:0:0:0:
221,137,5828,1,0,3:0:0:0:
264,289,6182,101,0,3:0:0:0:
264,289,6535,1,0,3:0:0:0:
264,289,6888,1,0,3:0:0:0:
264,289,7241,1,0,3:0:0:0:
112,332,7594,5,0,3:0:0:0:
112,332,7770,1,0,3:0:0:0:
112,332,7947,1,0,3:0:0:0:
112,332,8123,1,0,3:0:0:0:
112,332,8653,101,8,0:0:0:0:
110,312,8741,1,8,0:0:0:0:
111,292,8829,1,8,0:0:0:0:
118,273,8917,1,8,0:0:0:0:
127,255,9006,6,0,L|245:268,1,95.9999970703126,4|0,3:2|0:0,0:0:0:0:
337,205,9358,1,8,0:0:0:0:
311,360,9535,2,0,P|293:266|336:205,1,143.999995605469,2|0,0:0|0:0,0:0:0:0:
337,205,9888,102,0,L|455:192,1,95.9999970703126,2|8,3:2|0:0,0:0:0:0:
445,203,10153,1,0,3:0:0:0:
457,210,10241,1,0,3:0:0:0:
390,294,10417,6,0,L|405:117,1,143.999995605469,2|0,3:2|0:0,0:0:0:0:
406,119,10770,1,8,0:0:0:0:
239,141,10947,2,0,B|275:151|275:151|420:131,1,143.999995605469,2|0,0:0|0:0,0:0:0:0:
406,119,11300,2,0,P|416:67|388:20,1,95.9999970703126,2|8,3:2|0:0,0:0:0:0:
288,13,11653,1,0,3:0:0:0:
275,20,11741,1,8,0:0:0:0:
266,30,11829,102,0,P|258:96|318:164,1,143.999995605469,2|0,3:2|0:0,0:0:0:0:
334,160,12182,1,8,0:0:0:0:
460,112,12358,1,2,0:0:0:0:
460,112,12711,2,0,B|481:140|481:140|470:207,1,95.9999970703126,2|8,3:2|0:0,0:0:0:0:
463,212,12976,1,0,3:0:0:0:
453,222,13064,1,0,3:0:0:0:
510,323,13241,6,0,B|456:332|456:332|416:310|416:310|349:323,1,143.999995605469,2|0,3:2|0:0,0:0:0:0:
347,331,13594,1,8,0:0:0:0:
225,293,13770,1,2,0:0:0:0:
224,293,14123,2,0,P|213:339|233:388,1,95.9999970703126,2|8,3:2|0:0,0:0:0:0:
347,331,14476,1,0,3:0:0:0:
349,317,14564,1,8,0:2:0:0:
353,303,14653,101,2,3:2:0:0:
338,213,14829,1,0,0:0:0:0:
323,123,15006,1,8,0:0:0:0:
304,34,15182,2,0,B|241:44|216:12|216:12|233:68|190:112,1,191.999994140625,2|0,0:0|3:0,0:0:0:0:
49,99,15711,1,8,0:0:0:0:
47,85,15800,1,0,3:0:0:0:
45,70,15888,1,0,3:0:0:0:
132,43,16064,5,2,3:2:0:0:
198,102,16241,1,0,0:0:0:0:
129,160,16417,1,8,0:0:0:0:
195,219,16594,2,0,B|164:250|164:250|8:223,1,191.999994140625,2|0,0:0|3:0,0:0:0:0:
129,160,17122,1,8,0:0:0:0:
19,337,17299,1,0,3:0:0:0:
25,351,17388,1,8,0:2:0:0:
31,363,17476,102,0,P|103:311|145:363,1,143.999995605469,2|0,3:2|0:0,0:0:0:0:
143,348,17829,2,0,P|141:324|157:297,1,47.9999985351563,8|0,0:0|0:0,0:0:0:0:
236,226,18006,2,0,P|273:308|251:358,1,143.999995605469,2|0,0:0|0:0,0:0:0:0:
247,369,18358,2,0,P|285:332|333:337,1,95.9999970703126,2|8,3:2|0:0,0:0:0:0:
340,338,18623,1,0,3:0:0:0:
354,341,18711,1,0,3:0:0:0:
503,211,18888,6,0,L|351:229,1,143.999995605469,2|0,3:2|0:0,0:0:0:0:
345,230,19241,2,0,L|351:158,1,47.9999985351563,8|0,0:0|0:0,0:0:0:0:
220,29,19417,2,0,L|232:199,1,143.999995605469,2|0,0:0|0:0,0:0:0:0:
228,187,19770,1,8,3:0:0:0:
224,201,19858,1,8,0:3:0:0:
219,216,19947,2,0,B|186:207|186:207|110:215,1,95.9999970703126,8|8,0:0|0:3,0:0:0:0:
6,266,20300,101,12,3:2:0:0:
177,325,20476,1,2,0:0:0:0:
65,384,20653,1,8,0:0:0:0:
124,213,20829,2,0,B|79:162|117:111|117:111|171:115|176:161,1,180.000006866455,2|0,0:0|0:0,0:0:0:0:
223,201,21182,5,2,3:2:0:0:
24,172,21358,1,8,0:0:0:0:
223,201,21535,2,0,B|289:187|314:245|314:245|284:290|242:272,1,180.000006866455,2|0,0:0|0:0,0:0:0:0:
182,291,21888,101,2,3:2:0:0:
306,133,22064,1,8,0:0:0:0:
182,291,22241,2,0,B|161:355|97:347|97:347|74:298|111:271,1,180.000006866455,2|0,3:2|0:0,0:0:0:0:
124,213,22594,5,2,3:2:0:0:
217,384,22770,1,10,0:0:0:0:
364,367,22947,1,0,3:0:0:0:
363,347,23035,1,8,0:2:0:0:
363,327,23123,101,0,3:2:0:0:
510,344,23300,1,2,0:0:0:0:
424,241,23476,5,8,0:0:0:0:
277,258,23653,2,0,B|265:206|265:206|293:80,1,180.000006866455,2|0,0:0|0:0,0:0:0:0:
373,47,24006,101,2,3:2:0:0:
366,263,24182,1,8,0:0:0:0:
183,148,24358,2,0,B|171:200|171:200|199:326,1,180.000006866455,2|0,0:2|0:0,0:0:0:0:
279,359,24711,5,2,3:2:0:0:
272,143,24887,1,8,0:0:0:0:
89,258,25064,2,0,B|77:206|77:206|105:80,1,180.000006866455,2|0,0:2|0:0,0:0:0:0:
185,47,25417,101,2,3:2:0:0:
178,263,25594,1,8,0:0:0:0:
33,342,25770,1,10,0:2:0:0:
36,364,25858,1,8,0:0:0:0:
39,384,25947,6,0,L|180:364,1,120.000004577637,0|2,3:0|0:2,0:0:0:0:
386,370,26300,1,8,0:0:0:0:
476,325,26476,102,0,B|429:311|413:263|413:263|380:296|325:286,1,180.000006866455,2|0,0:2|0:0,0:0:0:0:
268,236,26829,2,0,P|302:192|355:210,1,120.000004577637,2|8,3:2|0:0,0:0:0:0:
302,361,27182,6,0,L|123:337,1,180.000006866455,2|0,0:2|0:0,0:0:0:0:
59,274,27535,2,0,B|32:330|32:330|51:384,1,120.000004577637,2|8,3:2|0:0,0:0:0:0:
145,250,27888,102,0,P|171:137|81:62,1,240.000009155274,2|2,3:2|3:2,0:0:0:0:
63,171,28417,1,10,0:2:0:0:
145,250,28594,1,0,3:0:0:0:
162,240,28682,1,8,0:0:0:0:
179,229,28770,6,0,B|212:215|212:215|307:239,1,120.000004577637,0|2,3:2|0:2,0:0:0:0:
365,353,29123,1,8,0:0:0:0:
482,299,29300,102,0,L|467:99,1,180.000006866455,2|0,0:2|0:0,0:0:0:0:
415,59,29653,2,0,P|458:22|508:48,1,120.000004577637,2|8,3:2|0:0,0:0:0:0:
391,139,30005,6,0,B|338:160|299:132|299:132|256:104|184:143,1,180.000006866455,2|0,0:2|0:0,0:0:0:0:
154,184,30358,2,0,B|202:222|202:222|257:199,1,120.000004577637,2|8,3:2|0:0,0:0:0:0:
180,55,30711,102,0,P|68:50|72:156,1,240.000009155274,2|2,0:2|3:2,0:0:0:0:
112,274,31241,1,10,0:2:0:0:
82,273,31329,1,8,0:0:0:0:
54,283,31417,1,8,0:3:0:0:
32,303,31505,1,8,0:3:0:0:
20,331,31594,2,0,L|184:357,1,160,4|8,3:2|0:0,0:0:0:0:
489,341,32300,85,2,3:2:0:0:
489,341,32476,2,0,B|458:365|416:361|412:374|412:374|410:361|367:359|364:316|364:316|340:321|340:321|512:249|512:249|494:244|494:244|481:211|446:208|444:193|444:193|438:206|397:190|356:228,1,560,2|0,3:2|3:2,0:0:0:0:
225,40,34241,6,0,P|240:77|266:96,1,40,8|8,3:0|0:0,0:0:0:0:
284,162,34417,2,0,P|237:104|147:115,1,160,2|8,3:2|0:0,0:0:0:0:
157,225,34947,102,0,B|176:218|198:194|198:194|238:270|181:352|181:352|135:232|135:232|105:245|70:238|70:238|71:316|171:348,1,561.60001885254,2|0,3:2|3:0,0:0:0:0:
479,349,37064,86,0,L|473:309,1,40,8|8,3:3|0:0,0:0:0:0:
453,272,37241,2,0,P|394:265|336:344,1,160,2|8,3:2|0:0,0:0:0:0:
156,379,37947,5,2,3:2:0:0:
156,379,38123,2,0,B|124:191|124:191|96:177|96:177|168:181|204:130|189:74|189:74|160:1|71:11|48:68,1,560,2|0,3:2|3:0,0:0:0:0:
332,117,39888,102,0,L|373:106,1,40,8|8,3:0|0:0,0:0:0:0:
417,36,40064,2,0,P|397:118|386:198,1,160,2|8,3:2|0:2,0:0:0:0:
501,310,40594,6,0,B|510:399|396:414|372:332|406:288|406:288|370:259|326:274|326:274|342:334|304:399|164:343|243:246,1,561.60001885254,2|8,3:2|3:3,0:0:0:0:
239,226,42270,1,8,0:3:0:0:
234,207,42358,1,8,3:3:0:0:
67,351,42535,69,8,0:0:0:0:
70,327,42623,1,8,0:0:0:0:
73,304,42711,1,8,3:3:0:0:
76,281,42799,1,8,0:3:0:0:
79,258,42888,2,0,P|68:200|12:140,1,120,4|0,3:2|0:0,0:0:0:0:
22,122,43241,2,0,P|55:76|113:75,1,120,10|0,0:0|0:0,0:0:0:0:
148,87,43594,1,2,3:2:0:0:
371,28,43770,6,0,B|340:-3|286:-4|223:25|236:99|245:118|245:118|255:105|255:105|311:89|311:89|314:79|314:79|322:86|322:86|378:70|378:70|390:59|390:59|396:71|429:151|342:200|290:170|297:166,1,560,2|0,3:2|3:0,0:0:0:0:
216,246,45535,102,0,L|226:197,1,40,8|8,3:0|0:0,0:0:0:0:
302,171,45711,2,0,L|134:190,1,160,2|8,3:2|0:0,0:0:0:0:
12,157,46241,6,0,B|25:277|25:277|-12:281|-12:281|-21:278|-21:278|22:319|22:319|30:321|30:321|31:328|31:328|57:354|57:354|77:324|77:324|78:315|78:315|85:312|85:312|121:262|121:262|108:268|108:268|73:272|73:272|61:150,1,561.60001885254,2|0,3:2|3:0,0:0:0:0:
216,11,48358,102,0,L|205:56,1,40,8|8,0:3|0:0,0:0:0:0:
51,61,48535,2,0,P|109:70|149:117,1,120,2|0,3:2|0:0,0:0:0:0:
158,137,48888,2,0,L|287:116,1,120,10|0,0:0|0:0,0:0:0:0:
301,112,49241,1,2,3:2:0:0:
416,37,49417,6,0,B|411:102|466:139|466:139|493:135|493:135|448:226|331:238|301:112|301:112|322:122|322:122|379:104|404:17,1,560,2|0,3:2|3:0,0:0:0:0:
337,336,51182,102,0,L|329:375,1,40,8|8,3:0|0:0,0:0:0:0:
407,287,51358,2,0,L|485:273,2,80,2|0|8,3:2|0:2|0:0,0:0:0:0:
272,202,51888,6,0,B|77:236|77:236|79:276|79:276|38:313|38:313|41:358|41:358|88:344|88:344|134:301|134:301|130:278|130:278|229:260,1,560,2|10,3:2|0:2,0:0:0:0:
30,5,53476,70,0,P|61:28|76:65,1,80,0|2,3:0|3:2,0:0:0:0:
75,79,53741,1,8,0:0:0:0:
72,94,53829,1,8,0:0:0:0:
70,110,53917,1,8,0:0:0:0:
68,126,54005,1,10,3:2:0:0:
66,142,54093,1,8,0:0:0:0:
64,158,54182,6,0,P|104:182|151:169,1,95.9999970703126,4|2,3:2|0:2,0:0:0:0:
290,46,54535,1,8,0:0:0:0:
236,170,54711,2,0,B|227:118|227:118|200:99|200:99|187:25,1,143.999995605469,2|0,0:2|0:0,0:0:0:0:
199,29,55064,2,0,L|209:86,1,47.9999985351563,2|0,3:2|0:0,0:0:0:0:
343,179,55241,2,0,L|334:131,1,47.9999985351563,8|0,0:0|0:0,0:0:0:0:
290,46,55417,102,0,P|357:115|455:79,1,191.999994140625,2|2,0:2|3:2,0:0:0:0:
389,252,55947,1,8,0:0:0:0:
441,93,56123,2,0,L|462:207,1,95.9999970703126,2|0,0:2|3:0,0:0:0:0:
397,299,56476,2,0,L|386:237,1,47.9999985351563,2|0,3:2|0:0,0:0:0:0:
480,313,56653,6,0,B|408:322|408:322|383:350|383:350|313:359,1,180.000006866455,8|8,0:0|0:0,0:0:0:0:
287,363,57006,101,0,3:0:0:0:
308,260,57182,1,2,0:2:0:0:
329,157,57358,1,8,0:0:0:0:
192,365,57535,2,0,P|103:346|83:257,1,191.999994140625,2|2,0:2|3:2,0:0:0:0:
187,199,58064,1,8,0:0:0:0:
0,241,58241,6,0,L|201:196,1,191.999994140625,2|2,0:2|3:2,0:0:0:0:
221,14,58770,2,0,B|204:102|204:102|251:130,1,143.999995605469,10|0,0:0|0:0,0:0:0:0:
271,136,59123,2,0,L|282:77,2,47.9999985351563,10|8|8,3:2|0:3|0:3,0:0:0:0:
347,31,59476,1,8,0:0:0:0:
498,80,59653,1,0,3:0:0:0:
498,80,59741,1,8,0:0:0:0:
498,80,59829,102,0,L|390:101,1,95.9999970703126,0|2,3:0|0:2,0:0:0:0:
314,209,60182,1,8,0:0:0:0:
403,98,60358,2,0,B|391:154|391:154|411:180|411:180|396:253,1,143.999995605469,2|0,0:2|0:0,0:0:0:0:
412,240,60711,2,0,L|426:182,1,47.9999985351563,2|0,3:2|0:0,0:0:0:0:
266,319,60888,2,0,L|252:379,1,47.9999985351563,8|0,0:0|0:0,0:0:0:0:
491,365,61064,6,0,P|425:285|331:288,1,191.999994140625,2|2,0:2|3:2,0:0:0:0:
155,126,61594,1,8,0:0:0:0:
275,229,61770,1,2,0:0:0:0:
137,333,61947,1,0,3:0:0:0:
137,333,62123,2,0,L|152:259,1,47.9999985351563,2|0,3:2|0:0,0:0:0:0:
0,254,62300,102,0,B|76:238|76:238|101:211|101:211|186:196,1,180.000006866455,8|8,0:0|0:0,0:0:0:0:
187,198,62653,1,0,3:0:0:0:
368,194,62829,5,2,0:2:0:0:
238,61,63006,1,8,0:0:0:0:
275,229,63182,2,0,L|293:113,1,95.9999970703126,2|8,0:2|3:0,0:0:0:0:
479,0,63535,2,0,L|464:94,1,95.9999970703126,10|8,3:2|0:0,0:0:0:0:
238,60,63888,102,0,P|329:55|380:131,1,191.999994140625,2|2,0:2|3:2,0:0:0:0:
512,193,64417,2,0,B|388:162|388:162|334:202,1,191.999994140625,8|8,0:0|3:2,0:0:0:0:
336,200,64858,1,8,0:0:0:0:
336,200,64947,1,8,0:0:0:0:
386,384,65123,1,8,0:0:0:0:
421,369,65211,1,8,0:0:0:0:
441,336,65300,1,8,3:2:0:0:
442,297,65388,1,8,0:0:0:0:
423,263,65476,5,4,3:2:0:0:
257,375,65653,1,2,0:2:0:0:
184,206,65829,1,10,0:0:0:0:
336,306,66006,2,0,L|141:285,1,191.999994140625,2|2,0:2|3:2,0:0:0:0:
110,126,66535,1,10,0:0:0:0:
0,240,66711,102,0,P|105:189|107:119,1,191.999994140625,2|2,0:2|3:2,0:0:0:0:
225,14,67241,1,10,0:0:0:0:
109,125,67417,2,0,L|220:99,1,95.9999970703126,2|0,0:2|3:0,0:0:0:0:
271,3,67770,2,0,L|196:20,1,47.9999985351563,2|0,3:2|0:0,0:0:0:0:
290,159,67947,6,0,B|310:94|310:94|350:80|350:80|365:13,1,180.000006866455,10|8,0:0|0:0,0:0:0:0:
368,0,68300,101,0,3:0:0:0:
431,107,68476,1,2,0:2:0:0:
494,214,68653,1,10,0:0:0:0:
250,273,68829,2,0,P|310:202|403:195,1,191.999994140625,2|2,0:2|3:2,0:0:0:0:
466,369,69358,1,10,0:0:0:0:
403,195,69535,6,0,L|383:312,1,95.9999970703126,2|0,0:2|3:0,0:0:0:0:
466,369,69888,2,0,L|476:306,1,47.9999985351563,2|0,3:2|0:0,0:0:0:0:
317,356,70064,2,0,L|221:365,1,95.9999970703126,10|0,0:0|0:0,0:0:0:0:
97,206,70417,2,0,P|190:201|249:272,1,191.999994140625,2|8,3:0|0:0,0:0:0:0:
127,384,70947,1,8,0:3:0:0:
127,384,71035,1,8,0:0:0:0:
127,384,71123,102,0,L|153:273,1,95.9999970703126,4|2,3:2|0:2,0:0:0:0:
89,109,71476,1,10,0:0:0:0:
226,155,71653,2,0,B|168:172|168:172|156:191|156:191|96:206,1,143.999995605469,2|0,0:2|0:0,0:0:0:0:
87,220,72006,2,0,L|138:207,1,47.9999985351563,2|0,3:2|0:0,0:0:0:0:
365,259,72182,2,0,L|319:271,1,47.9999985351563,10|0,0:0|0:0,0:0:0:0:
230,239,72358,1,2,0:2:0:0:
230,239,72711,5,2,3:2:0:0:
297,364,72888,2,0,L|318:270,1,95.9999970703126,10|2,0:0|0:2,0:0:0:0:
508,220,73241,1,0,3:0:0:0:
318,270,73417,2,0,L|374:257,1,47.9999985351563,2|0,3:2|0:0,0:0:0:0:
508,220,73594,102,0,B|445:209|445:209|421:170|421:170|351:155,1,180.000006866455,10|8,0:0|0:0,0:0:0:0:
331,153,73947,5,0,3:0:0:0:
200,0,74123,1,2,0:2:0:0:
359,68,74300,1,10,0:0:0:0:
248,215,74476,2,0,L|227:115,1,95.9999970703126,2|0,0:2|3:0,0:0:0:0:
48,62,74829,2,0,L|67:155,1,95.9999970703126,2|10,3:2|0:0,0:0:0:0:
156,187,75182,1,2,0:2:0:0:
156,187,75270,1,2,0:0:0:0:
156,187,75358,102,0,P|59:193|7:294,2,191.999994140625,0|10|0,3:0|0:0|3:0,0:0:0:0:
370,377,76241,2,0,L|357:316,1,47.9999985351563,2|0,3:2|0:0,0:0:0:0:
248,215,76417,1,8,0:0:0:0:
253,238,76506,1,0,3:0:0:0:
258,261,76594,1,8,0:3:0:0:
263,285,76682,1,8,0:3:0:0:
268,308,76770,5,4,3:2:0:0:
450,146,77476,1,2,3:2:0:0:
253,7,78182,101,2,3:2:0:0:
276,100,78535,1,2,3:2:0:0:
355,153,78888,1,2,3:2:0:0:
450,146,79241,1,2,3:2:0:0:
246,329,79594,22,0,P|292:260|387:241,1,180.000006866455,2|0,3:2|0:0,0:0:0:0:
443,331,80300,6,0,P|399:335|358:324,1,83.9999974365235,2|0,3:2|0:0,0:0:0:0:
351,318,80653,2,0,P|318:291|298:255,1,83.9999974365235,2|0,3:2|0:0,0:0:0:0:
355,153,81006,102,0,P|392:227|361:318,1,179.2000021875,2|0,3:2|3:0,0:0:0:0:
363,314,82064,1,2,3:2:0:0:
225,364,82417,86,0,L|481:325,2,240.000009155274,6|2|2,3:2|3:2|3:2,0:0:0:0:
130,343,84182,1,2,3:2:0:0:
76,263,84535,1,2,3:2:0:0:
95,169,84888,1,2,3:2:0:0:
167,106,85241,22,0,L|358:76,1,180.000006866455,2|0,3:2|0:0,0:0:0:0:
360,171,85947,6,0,L|263:186,1,83.9999974365235,2|0,3:2|0:0,0:0:0:0:
183,199,86300,2,0,L|270:185,1,83.9999974365235,2|0,3:2|0:0,0:0:0:0:
376,263,86653,102,0,L|198:290,1,180.000006866455,2|8,3:2|0:3,0:0:0:0:
183,294,87270,1,0,0:0:0:0:
168,296,87358,5,8,3:3:0:0:
43,335,87535,1,8,3:3:0:0:
116,384,87711,2,0,P|119:289|50:246,1,180.000006866455,8|0,3:3|0:0,0:0:0:0:
44,234,88064,102,0,B|74:231|97:251|97:251|134:64,1,240.000009155274,4|8,3:2|0:0,0:0:0:0:
454,0,89123,6,0,L|413:9,1,30.0000011444092,2|0,0:0|0:0,0:0:0:0:
430,90,89300,2,0,L|382:101,1,30.0000011444092,2|0,3:2|0:0,0:0:0:0:
265,76,89476,102,0,P|370:135|273:63,1,360.000013732911,10|0,3:2|3:0,0:0:0:0:
95,171,90888,22,0,B|181:146|181:146|234:302,1,240,2|0,3:2|3:0,0:0:0:0:
149,345,91594,6,0,B|87:362|87:362|54:264,1,150,8|0,0:0|0:0,0:0:0:0:
63,266,91947,2,0,B|124:248|124:248|157:346,1,150,2|0,0:0|0:0,0:0:0:0:
149,345,92300,1,2,3:2:0:0:
5,370,92476,102,0,L|68:351,1,60.0000022888184,8|0,0:0|3:0,0:0:0:0:
201,208,92829,1,0,0:0:0:0:
201,208,93006,22,0,L|254:222,1,50,8|0,3:2|0:0,0:0:0:0:
348,195,93182,2,0,L|402:147,1,50,8|0,3:2|0:0,0:0:0:0:
241,294,93358,2,0,B|307:233|307:233|395:255,1,180.000006866455,8|0,3:2|0:0,0:0:0:0:
285,152,93711,6,0,B|317:274|317:274|315:296|315:296|326:304|326:304|344:381,2,240,6|2|2,3:2|3:2|0:0,0:0:0:0:
285,152,94947,1,0,3:0:0:0:
66,137,95123,38,0,B|7:139|10:225|56:216|100:219|141:255,1,200,2|0,3:2|3:0,0:0:0:0:
141,116,95653,2,0,B|192:89|233:164|188:180|152:205|134:256,1,200,2|8,3:2|0:0,0:0:0:0:
0,76,96182,6,0,P|18:53|32:26,1,60.0000022888184,0|0,3:0|0:0,0:0:0:0:
162,33,96358,2,0,P|134:22|109:7,1,60.0000022888184,0|0,3:0|0:0,0:0:0:0:
103,126,96535,1,4,3:2:0:0:
283,134,96888,102,0,L|260:235,1,80,2|0,0:0|3:0,0:0:0:0:
367,152,97241,2,0,L|344:253,1,80,10|0,0:0|0:0,0:0:0:0:
449,168,97594,2,0,L|426:269,1,80,2|0,0:0|3:0,0:0:0:0:
219,285,97947,6,0,B|316:382|447:317|447:317|498:89,1,480,4|2,3:2|3:0,0:0:0:0:
260,34,99358,101,12,0:0:0:0:
259,33,99535,2,0,L|341:51,1,80,8|0,0:0|3:0,0:0:0:0:
497,91,99888,5,12,0:0:0:0:
498,92,100065,2,0,L|416:74,1,80,8|0,0:0|3:0,0:0:0:0:
300,169,100417,70,0,B|313:125|313:125|396:147|396:147|383:194,1,180.000006866455,12|0,0:0|0:0,0:0:0:0:
378,222,100770,86,0,B|446:233|500:183|500:183|557:285|487:380|487:380|429:314|354:330,1,480.000018310548,4|0,3:2|3:0,0:0:0:0:
268,377,102358,38,0,P|232:361|192:375,2,80,2|0|8,0:0|3:0|0:0,0:0:0:0:
85,384,102888,2,0,B|63:364|63:364|74:275,1,120,2|0,3:2|0:0,0:0:0:0:
89,254,103241,2,0,B|67:234|67:234|78:145,1,120,2|0,3:2|0:0,0:0:0:0:
55,124,103594,101,2,3:2:0:0:
55,124,103770,2,0,B|77:104|77:104|66:15,1,120,0|10,0:0|0:0,0:0:0:0:
220,42,104300,2,0,P|192:108|209:145,1,90.0000034332277,0|0,3:0|0:0,0:0:0:0:
218,141,104653,2,0,B|178:120|128:150|126:203|157:234|191:237|191:237|370:198,1,360.000013732911,2|0,3:2|3:0,0:0:0:0:
509,342,106064,6,0,B|453:320|453:320|384:348,1,120,8|0,0:0|0:0,0:0:0:0:
366,327,106417,70,0,B|299:316|245:366|245:366|188:264|258:169|258:169|305:232|378:221,1,480.000018310548,4|0,3:2|3:0,0:0:0:0:
450,177,108006,1,10,0:0:0:0:
378,133,108182,1,0,3:0:0:0:
73,355,108535,21,2,3:2:0:0:
152,345,108711,1,2,0:0:0:0:
142,266,108888,1,0,3:0:0:0:
63,276,109064,1,2,0:0:0:0:
152,345,109241,5,4,3:2:0:0:
152,345,109417,2,0,B|178:364|178:364|308:351,1,160,0|10,0:0|0:0,0:0:0:0:
389,303,109947,1,0,3:0:0:0:
471,351,110123,2,0,P|514:263|461:155,1,200,2|0,0:0|0:0,0:0:0:0:
462,159,110653,101,0,3:0:0:0:
357,196,110829,1,10,2:0:0:0:
290,107,111006,1,0,3:0:0:0:
353,15,111182,1,2,2:0:0:0:
459,48,111358,2,0,P|428:84|386:95,1,80,0|0,3:0|0:0,0:0:0:0:
385,94,111623,1,8,0:0:0:0:
371,93,111711,2,0,L|348:-6,1,80,0|8,3:0|0:0,0:0:0:0:
462,159,112064,6,0,P|495:237|428:339,1,210.000008010865,4|0,3:2|0:0,0:0:0:0:
397,338,112770,2,0,B|363:305|363:305|258:322|258:322|239:362|239:362|131:360|131:360|92:333|105:287|105:287|130:245|105:187,1,480.000018310548,8|8,0:0|0:0,0:0:0:0:
55,119,114358,2,0,P|11:130|-15:116,2,60.0000022888184,2|0|0,0:2|3:0|0:0,0:0:0:0:
117,61,114888,101,2,3:2:0:0:
117,61,115064,2,0,P|159:85|252:71,1,120.000004577637,2|2,0:0|3:2,0:0:0:0:
393,17,115594,1,8,0:0:0:0:
383,101,115770,1,2,3:2:0:0:
373,185,115947,2,0,B|388:243|402:301|402:301|403:338|372:367|335:367|308:348|298:323|298:323|275:262|195:240|137:293|138:354,1,480.000013732911,0|0,0:0|3:0,0:0:0:0:
43,242,117535,6,0,P|28:176|54:120,1,120,2|0,0:0|0:0,0:0:0:0:
58,117,117888,102,0,P|128:94|194:126,1,150.000005722046,2|0,0:0|0:0,0:0:0:0:
202,143,118417,1,8,0:0:0:0:
141,341,118594,2,0,B|164:298|112:237|36:273|36:336|71:360|71:360|120:328|178:349|178:349|227:369|284:338,1,420.000016021729,2|8,0:0|0:0,0:0:0:0:
471,364,120182,2,0,P|418:340|412:296,1,90.0000034332277,2|0,3:2|0:0,0:0:0:0:
413,288,120535,5,2,3:2:0:0:
413,288,120711,2,0,L|433:126,1,160,2|2,0:0|3:2,0:0:0:0:
485,35,121241,1,8,0:0:0:0:
485,35,121329,1,8,0:0:0:0:
485,35,121417,2,0,P|446:55|366:28,1,120,2|0,3:2|0:0,0:0:0:0:
358,22,121770,102,0,B|333:1|333:1|200:20,1,160,2|2,3:2|0:2,0:0:0:0:
119,90,122300,2,0,L|39:79,1,80,0|2,3:0|0:2,0:0:0:0:
180,164,122653,1,0,3:0:0:0:
175,260,122829,1,10,0:2:0:0:
175,260,122917,1,8,0:3:0:0:
175,260,123006,1,10,0:0:0:0:
107,327,123182,1,10,0:0:0:0:
12,315,123358,1,4,3:2:0:0:
12,315,123711,5,0,3:0:0:0:
27,244,123888,1,2,0:0:0:0:
97,231,124064,101,0,3:0:0:0:
112,160,124241,1,2,0:0:0:0:
49,125,124417,5,0,3:0:0:0:
64,54,124594,1,2,0:0:0:0:
178,9,124770,101,0,3:0:0:0:
248,23,124947,1,2,0:0:0:0:
303,68,125123,1,0,3:0:0:0:
326,136,125300,1,2,0:0:0:0:
319,207,125476,5,0,3:0:0:0:
343,175,125653,1,2,0:0:0:0:
380,160,125829,1,0,3:0:0:0:
419,163,126006,1,2,0:0:0:0:
454,181,126182,101,0,3:0:0:0:
415,322,126535,5,0,3:0:0:0:
400,251,126711,1,2,0:0:0:0:
354,368,126888,101,0,3:0:0:0:
339,297,127064,1,2,0:0:0:0:
280,346,127241,5,0,3:0:0:0:
265,275,127417,1,2,0:0:0:0:
169,188,127594,101,0,3:0:0:0:
97,200,127770,1,2,0:0:0:0:
45,249,127947,1,0,3:0:0:0:
47,321,128123,1,2,0:0:0:0:
91,378,128300,5,2,3:2:0:0:
85,338,128476,1,0,0:0:0:0:
108,305,128653,1,2,3:2:0:0:
145,290,128829,1,2,0:0:0:0:
184,296,129006,101,4,3:2:0:0:
11,97,129358,5,8,0:0:0:0:
80,114,129535,1,2,0:0:0:0:
134,67,129711,101,0,3:0:0:0:
203,84,129888,1,2,0:0:0:0:
241,144,130064,5,8,0:0:0:0:
310,161,130241,1,2,0:0:0:0:
447,132,130417,101,0,3:0:0:0:
467,62,130594,1,2,0:2:0:0:
397,44,130770,1,8,0:0:0:0:
377,114,130947,1,2,0:2:0:0:
473,177,131123,5,0,3:0:0:0:
483,141,131300,1,2,0:2:0:0:
447,132,131476,1,8,0:0:0:0:
438,167,131653,1,2,0:2:0:0:
494,213,131829,101,0,3:0:0:0:
352,381,132182,5,8,0:0:0:0:
281,366,132358,1,2,0:0:0:0:
148,327,132535,101,0,3:0:0:0:
219,312,132711,1,2,0:0:0:0:
363,283,132888,5,8,0:0:0:0:
292,268,133064,1,2,0:0:0:0:
159,224,133241,102,0,P|221:215|268:127,1,160,2|8,3:2|0:0,0:0:0:0:
234,58,133770,1,2,3:2:0:0:
234,58,133858,1,0,3:0:0:0:
234,58,133947,1,0,3:0:0:0:
181,125,134123,1,2,3:2:0:0:
268,136,134300,2,0,L|359:117,1,80,10|2,0:0|3:2,0:0:0:0:
450,108,134653,5,4,3:2:0:0:
450,108,135005,1,2,3:2:0:0:
450,108,135358,1,0,3:0:0:0:
450,108,135711,1,2,3:2:0:0:
493,260,136064,101,0,3:0:0:0:
493,260,136416,1,2,3:2:0:0:
493,260,136769,1,0,3:0:0:0:
493,260,137122,1,2,3:2:0:0:
341,303,137476,5,0,3:0:0:0:
341,303,137829,1,2,3:2:0:0:
341,303,138182,1,0,3:0:0:0:
341,303,138535,1,2,3:2:0:0:
308,161,138888,101,0,3:0:0:0:
308,161,139064,1,2,3:2:0:0:
308,161,139241,1,0,3:2:0:0:
308,161,139417,1,2,3:2:0:0:
308,161,139947,5,8,0:0:0:0:
304,188,140035,1,8,0:0:0:0:
300,215,140123,1,8,0:0:0:0:
295,242,140211,1,8,0:0:0:0:
290,269,140300,1,12,0:0:0:0:
