osu file format v14

[General]
AudioFilename: audio.mp3
AudioLeadIn: 0
PreviewTime: 30964
Countdown: 0
SampleSet: Normal
StackLeniency: 0.7
Mode: 0
LetterboxInBreaks: 0
WidescreenStoryboard: 1

[Editor]
DistanceSpacing: 0.5
BeatDivisor: 4
GridSize: 32
TimelineZoom: 2.4

[Metadata]
Title:Kuuchuu Bunkai
TitleUnicode:空中分解
Artist:Sokei
ArtistUnicode:Sokei
Creator:Mordred
Version:Yogurtt's Insane
Source:
Tags:japanese rock three すりぃ cover utaite yogurtt amb1d3x hishiro chizuru nao tomori naotoshi
BeatmapID:2900319
BeatmapSetID:1406131

[Difficulty]
HPDrainRate:6
CircleSize:4
OverallDifficulty:8
ApproachRate:9
SliderMultiplier:1.6
SliderTickRate:1

[Events]
//Background and Video events
0,0,"bg.jpg",0,0
//Break Periods
//Storyboard Layer 0 (Background)
//Storyboard Layer 1 (Fail)
//Storyboard Layer 2 (Pass)
//Storyboard Layer 3 (Foreground)
//Storyboard Layer 4 (Overlay)
//Storyboard Sound Samples

[TimingPoints]
421,300,4,1,1,50,1,0
1621,-100,4,1,1,70,0,0
10021,-83.3333333333333,4,1,1,70,0,0
11221,-125,4,1,1,70,0,0
11521,-125,4,2,2,50,0,0
15421,-125,4,1,1,70,0,0
16021,-100,4,2,1,60,0,0
20221,-100,4,2,1,60,0,0
20371,-100,4,1,1,70,0,0
20821,-95.2380952380952,4,1,1,60,0,0
25621,-90.9090909090909,4,1,1,60,0,0
30421,-83.3333333333333,4,2,1,40,0,0
31021,-83.3333333333333,4,1,1,70,0,0
31621,-80,4,1,1,80,0,1
37996,-80,4,1,1,5,0,1
38071,-80,4,1,1,80,0,1
38821,-80,4,1,1,80,0,1
40921,-80,4,1,1,80,0,0
41221,-80,4,1,1,80,0,1
47596,-80,4,1,1,5,0,1
47671,-80,4,1,1,80,0,1
48421,-100,4,1,1,70,0,0
50071,-80,4,1,1,70,0,0
50221,-80,4,1,1,70,0,0
50821,-100,4,1,1,70,0,0
55921,-100,4,1,1,70,0,0
56221,-100,4,1,1,70,0,0
58471,-100,4,1,1,70,0,0
59071,-83.3333333333333,4,1,1,70,0,0

[Colours]
Combo1 : 241,163,179
Combo2 : 117,162,157
Combo3 : 235,219,169
Combo4 : 171,188,233

[HitObjects]
95,272,1621,6,0,L|46:262,2,40,6|2|2,0:2|0:2|0:2,0:0:0:0:
190,216,1921,2,0,P|204:268|225:315,1,80,10|0,0:2|0:2,0:2:0:0:
156,355,2221,1,2,0:2:0:0:
372,297,2371,2,0,P|333:287|295:273,1,80,2|8,0:2|0:2,0:2:0:0:
362,101,2671,6,0,P|313:112|324:203,1,160,2|0,0:2|0:2,0:0:0:0:
416,176,3121,2,0,P|471:163|525:158,1,80,10|2,0:2|0:2,0:0:0:0:
349,83,3421,1,2,0:2:0:0:
349,83,3571,1,2,0:2:0:0:
194,158,3721,1,10,0:2:0:0:
275,33,3871,5,2,0:2:0:0:
275,33,3946,1,0,0:0:0:0:
275,33,4021,2,0,P|265:85|265:129,1,80,6|0,0:2|0:2,0:2:0:0:
103,58,4321,2,0,P|143:62|182:74,1,80,8|0,0:2|0:2,0:0:0:0:
171,180,4621,1,2,0:2:0:0:
171,180,4771,2,0,P|131:184|93:196,1,80,2|8,0:2|0:2,0:2:0:0:
68,307,5071,6,0,P|134:279|244:260,1,160,2|0,0:2|0:2,0:0:0:0:
238,351,5521,2,0,P|273:351|327:365,1,80,10|2,0:2|0:2,0:0:0:0:
293,211,5821,1,2,0:2:0:0:
293,211,5971,1,2,0:2:0:0:
419,283,6121,1,14,0:2:0:0:
371,162,6271,1,2,0:2:0:0:
333,339,6421,6,0,P|330:314|330:275,2,40,6|2|2,0:2|0:2|0:2,0:0:0:0:
437,257,6721,2,0,P|485:236|540:229,1,80,10|0,0:2|0:2,0:2:0:0:
349,148,7021,1,2,0:2:0:0:
512,129,7171,2,0,P|473:138|437:155,1,80,2|8,0:2|0:2,0:2:0:0:
270,178,7471,6,0,P|267:102|331:60,1,160,2|0,0:2|0:2,0:0:0:0:
158,21,7921,2,0,P|177:80|190:123,1,80,10|0,0:2|0:2,0:2:0:0:
89,169,8221,1,2,0:2:0:0:
89,169,8371,1,2,0:2:0:0:
207,229,8521,1,10,0:2:0:0:
42,282,8671,5,2,0:2:0:0:
42,282,8746,1,0,0:0:0:0:
42,282,8821,2,0,P|91:255|136:247,1,80,6|2,0:2|0:2,0:2:0:0:
230,248,9121,2,0,P|220:287|216:327,1,80,10|0,0:2|0:2,0:2:0:0:
167,175,9421,1,2,0:2:0:0:
167,175,9571,2,0,P|177:136|182:97,1,80,2|8,0:2|0:2,0:2:0:0:
370,110,9871,5,2,0:2:0:0:
370,110,9946,1,2,0:2:0:0:
370,110,10021,2,0,P|331:149|331:204,1,95.9999970703126,10|2,0:2|0:2,0:2:0:0:
435,327,10321,2,0,P|470:295|478:249,1,95.9999970703126,10|2,0:2|0:2,0:2:0:0:
410,188,10621,1,10,0:2:0:0:
410,188,10696,1,8,0:2:0:0:
410,188,10771,1,8,0:2:0:0:
317,332,10921,2,0,L|260:320,3,47.9999985351563,10|8|8|8,0:2|0:2|0:2|0:2,0:0:0:0:
249,296,11221,6,0,P|222:334|133:346,1,128,6|8,0:2|0:2,0:2:0:0:
155,240,12121,5,8,0:2:0:0:
158,225,12721,1,8,0:2:0:0:
161,210,13321,1,8,0:2:0:0:
164,195,13921,1,8,0:2:0:0:
167,180,14521,1,8,0:2:0:0:
170,165,15121,1,8,0:2:0:0:
331,83,15421,5,0,0:2:0:0:
233,50,15571,1,10,0:2:0:0:
200,148,15721,1,10,0:2:0:0:
298,181,15871,1,10,0:2:0:0:
246,74,16021,6,0,P|257:141|269:248,1,160,6|8,1:2|0:2,0:2:0:0:
350,289,16471,1,0,0:2:0:0:
350,289,16621,1,0,1:2:0:0:
400,186,16771,2,0,P|433:180|487:174,1,80,0|8,0:2|0:2,0:2:0:0:
479,174,17071,1,0,0:2:0:0:
512,275,17221,6,0,P|479:269|425:263,1,80,2|2,1:2|0:2,0:2:0:0:
331,303,17521,2,0,P|325:336|319:390,1,80,10|2,0:2|0:2,0:2:0:0:
202,352,17821,2,0,P|169:346|115:340,1,80,2|2,1:2|0:2,0:2:0:0:
100,226,18121,1,10,0:2:0:0:
100,226,18271,1,2,0:2:0:0:
188,113,18421,6,0,B|159:192|220:192|172:292,2,160,2|8|0,1:2|0:2|1:2,0:2:0:0:
268,157,19171,1,0,0:2:0:0:
268,157,19321,2,0,P|327:146|373:142,1,80,8|0,0:2|0:2,0:0:0:0:
420,195,19621,5,0,1:2:0:0:
420,195,19771,1,0,0:2:0:0:
501,158,19921,2,0,P|508:222|515:265,1,80,8|0,0:2|0:2,0:0:0:0:
430,325,20221,5,0,1:2:0:0:
400,213,20371,1,10,0:2:0:0:
288,243,20521,1,10,0:2:0:0:
318,355,20671,1,10,0:2:0:0:
409,308,20821,6,0,P|335:286|216:289,1,167.999994873047,6|8,0:2|0:2,0:2:0:0:
168,350,21271,1,2,0:2:0:0:
168,350,21421,2,0,P|146:304|153:250,2,83.9999974365235,2|2|0,0:2|0:2|0:0,0:0:0:0:
207,211,21871,1,2,0:2:0:0:
65,256,22021,5,2,0:2:0:0:
65,256,22171,1,2,0:2:0:0:
99,103,22321,1,10,0:2:0:0:
99,103,22471,2,0,P|119:160|128:216,1,83.9999974365235,10|0,0:2|0:2,0:2:0:0:
265,52,22771,1,2,0:2:0:0:
185,119,22921,1,8,0:2:0:0:
362,168,23071,1,2,0:2:0:0:
275,78,23221,6,0,P|282:176|287:254,2,167.999994873047,2|10|2,0:2|0:2|0:2,0:2:0:0:
423,107,23971,1,2,0:2:0:0:
423,107,24121,2,0,P|448:159|428:219,1,83.9999974365235,10|2,0:2|0:2,0:0:0:0:
394,279,24421,1,0,0:2:0:0:
394,279,24571,1,2,0:2:0:0:
286,245,24721,2,0,P|305:190|361:162,1,83.9999974365235,10|10,0:2|0:2,0:0:0:0:
294,343,25021,5,0,0:0:0:0:
181,373,25171,1,2,0:2:0:0:
151,260,25321,1,10,0:2:0:0:
264,230,25471,1,2,0:2:0:0:
194,348,25621,6,0,P|175:263|155:168,1,176.000005371094,6|8,0:2|0:2,0:2:0:0:
51,107,26071,1,2,0:2:0:0:
51,107,26221,2,0,P|41:150|32:192,2,88.000002685547,2|2|8,0:2|0:2|0:2,0:0:0:0:
207,147,26671,1,2,0:2:0:0:
159,48,26821,5,2,0:2:0:0:
159,48,26971,1,2,0:2:0:0:
277,145,27121,1,10,0:2:0:0:
277,145,27271,2,0,P|219:129|170:134,1,88.000002685547,10|0,0:2|0:2,0:2:0:0:
358,104,27571,1,2,0:2:0:0:
228,212,27721,1,10,0:2:0:0:
287,56,27871,1,2,0:2:0:0:
338,207,28021,6,0,P|404:194|520:182,2,176.000005371094,6|10|2,0:2|0:2|0:2,0:2:0:0:
277,316,28771,1,0,0:2:0:0:
277,316,28921,2,0,P|234:305|178:297,1,88.000002685547,10|0,0:2|0:2,0:0:0:0:
145,228,29221,5,2,0:2:0:0:
40,364,29371,2,0,P|83:353|139:345,1,88.000002685547,2|10,0:2|0:2,0:0:0:0:
232,217,29671,1,10,0:2:0:0:
232,217,29821,2,0,P|209:167|87:160,1,176.000005371094,2|10,0:2|0:2,0:0:0:0:
3,213,30271,1,10,0:2:0:0:
35,73,30421,6,0,L|42:97,14,23.9999992675781,0|0|0|0|0|0|0|0|0|0|0|0|0|0|0,1:2|0:2|0:2|0:2|0:2|0:2|0:2|0:2|0:2|0:2|0:2|0:2|0:2|0:2|0:2,0:2:0:0:
92,12,31021,5,10,0:2:0:0:
203,121,31246,1,10,0:2:0:0:
362,77,31471,1,10,0:2:0:0:
409,219,31621,6,0,P|359:195|302:191,1,100,6|0,0:2|0:0,0:2:0:0:
465,47,31921,2,0,P|469:102|494:153,1,100,10|0,0:2|0:0,0:2:0:0:
288,84,32221,2,0,P|333:52|365:5,1,100,2|0,0:2|0:0,0:2:0:0:
359,17,32521,1,10,0:2:0:0:
200,38,32671,6,0,B|170:160|247:125|213:267,1,200,2|2,0:2|0:2,0:2:0:0:
130,200,33121,1,10,0:2:0:0:
130,200,33271,1,2,0:2:0:0:
64,323,33421,2,0,P|116:299|186:290,1,100,0|2,0:2|0:2,0:0:0:0:
277,316,33721,1,10,0:2:0:0:
240,211,33871,1,2,0:2:0:0:
407,140,34021,6,0,P|328:174|371:283,1,200,2|10,0:2|0:2,0:0:0:0:
470,246,34471,1,2,0:2:0:0:
455,70,34621,2,0,P|443:130|438:178,1,100,2|2,0:2|0:2,0:2:0:0:
324,97,34921,1,10,0:2:0:0:
252,192,35071,6,0,P|190:176|36:163,1,200,2|2,0:2|0:2,0:2:0:0:
145,94,35521,1,10,0:2:0:0:
0,277,35671,2,0,P|62:261|174:251,1,150,2|0,0:2|0:0,0:2:0:0:
169,262,35971,1,2,0:2:0:0:
272,213,36121,1,10,0:2:0:0:
347,303,36271,1,2,0:2:0:0:
382,125,36421,6,0,P|353:175|355:228,1,100,2|0,0:2|0:0,0:2:0:0:
431,378,36721,2,0,P|457:336|460:286,1,100,10|0,0:2|0:0,0:2:0:0:
435,197,37021,1,2,0:2:0:0:
435,197,37171,1,2,0:2:0:0:
330,289,37321,2,0,P|259:288|202:296,1,100,10|2,0:2|0:2,0:0:0:0:
85,150,37621,5,2,0:2:0:0:
85,150,37771,2,0,B|68:170|40:193|40:193|71:233|104:288,1,150,2|0,0:2|0:0,0:2:0:0:
103,244,38071,2,0,P|171:224|228:217,1,100,2|0,0:2|0:2,0:2:0:0:
274,147,38371,1,2,0:2:0:0:
274,147,38521,1,10,0:2:0:0:
400,201,38671,1,2,0:2:0:0:
346,79,38821,2,0,P|320:126|291:277,1,200,6|2,0:2|0:2,0:2:0:0:
416,226,39271,5,10,0:2:0:0:
259,59,39571,1,10,0:2:0:0:
179,263,39871,2,0,B|70:257|111:311|-28:298,1,200,14|2,0:2|0:2,0:2:0:0:
27,199,40321,1,10,0:2:0:0:
148,110,40471,1,2,0:2:0:0:
148,110,40546,1,0,0:2:0:0:
148,110,40621,2,0,L|135:162,1,50,0|0,0:2|0:2,0:0:0:0:
260,201,40771,1,2,0:2:0:0:
260,201,40846,1,0,0:2:0:0:
260,201,40921,2,0,L|244:144,3,50,10|0|0|0,0:2|0:0|0:2|0:2,0:0:0:0:
365,68,41221,6,0,P|322:115|326:161,1,100,6|0,0:2|0:0,0:2:0:0:
378,228,41521,2,0,P|440:241|478:215,1,100,10|0,0:2|0:0,0:2:0:0:
512,143,41821,2,0,P|492:82|450:62,1,100,2|0,0:2|0:0,0:2:0:0:
463,65,42121,1,10,0:2:0:0:
337,157,42271,5,2,0:2:0:0:
337,157,42421,2,0,P|385:144|435:136,2,100,2|2|8,0:2|0:2|0:2,0:0:0:0:
293,269,42871,2,0,P|235:216|117:227,1,200,2|2,0:2|0:2,0:2:0:0:
34,293,43321,1,10,0:2:0:0:
77,153,43471,1,2,0:2:0:0:
50,267,43621,6,0,P|37:178|19:59,2,200,6|10|2,0:2|0:2|0:2,0:2:0:0:
178,322,44371,1,2,0:2:0:0:
141,208,44521,1,10,0:2:0:0:
293,204,44671,6,0,P|214:238|230:346,1,200,2|2,0:2|0:2,0:2:0:0:
456,300,45121,1,10,0:2:0:0:
372,352,45271,2,0,B|340:240|411:281|366:144,1,200,2|2,0:2|0:2,0:2:0:0:
285,132,45721,1,10,0:2:0:0:
409,73,45871,1,2,0:2:0:0:
289,44,46021,6,0,P|240:55|180:85,1,100,6|0,0:2|0:0,0:2:0:0:
68,40,46321,2,0,P|79:89|109:149,1,100,10|0,0:2|0:0,0:2:0:0:
206,176,46621,1,2,0:2:0:0:
206,176,46771,1,2,0:2:0:0:
103,227,46921,2,0,P|47:219|-32:220,1,100,10|2,0:2|0:2,0:0:0:0:
244,254,47221,5,2,0:2:0:0:
244,254,47371,2,0,P|196:270|176:362,1,150,2|0,0:2|0:0,0:2:0:0:
197,349,47671,2,0,P|253:341|332:342,1,100,2|0,0:2|0:2,0:2:0:0:
401,223,47971,1,2,0:2:0:0:
371,355,48121,1,10,0:2:0:0:
510,249,48271,1,2,0:2:0:0:
329,265,48421,5,10,0:2:0:0:
474,132,50071,5,2,0:2:0:0:
474,132,50146,1,0,0:2:0:0:
474,132,50221,2,0,L|484:71,3,50,8|0|2|0,0:2|0:2|0:2|0:2,0:2:0:0:
506,63,50521,1,12,0:2:0:0:
300,111,50821,6,0,L|247:101,2,40,6|2|2,0:2|0:2|0:2,0:0:0:0:
397,77,51121,2,0,P|380:146|374:185,1,80,10|0,0:2|0:2,0:2:0:0:
424,233,51421,1,2,0:2:0:0:
307,274,51571,2,0,P|298:234|288:196,1,80,2|8,0:2|0:2,0:2:0:0:
131,225,51871,6,0,P|194:217|217:303,1,160,2|0,0:2|0:2,0:0:0:0:
125,320,52321,2,0,P|55:305|20:303,1,80,10|2,0:2|0:2,0:0:0:0:
148,199,52621,1,0,0:2:0:0:
13,225,52771,1,2,0:2:0:0:
13,225,52921,1,10,0:2:0:0:
98,84,53071,5,2,0:2:0:0:
98,84,53146,1,0,0:0:0:0:
98,84,53221,2,0,P|86:137|75:174,1,80,6|0,0:2|0:2,0:2:0:0:
193,259,53521,2,0,P|182:220|173:181,1,80,10|0,0:2|0:2,0:2:0:0:
304,55,53821,1,2,0:2:0:0:
243,122,53971,2,0,P|251:161|262:199,1,80,2|10,0:2|0:2,0:0:0:0:
348,291,54271,6,0,B|380:203|318:217|357:114,1,160,2|2,0:2|0:2,0:0:0:0:
405,66,54721,2,0,P|438:108|431:160,1,80,8|2,0:2|0:2,0:0:0:0:
262,199,55021,1,0,0:0:0:0:
262,199,55171,1,2,0:2:0:0:
369,302,55321,2,0,P|318:311|278:325,1,80,14|0,0:2|0:2,0:2:0:0:
184,270,55621,5,6,0:2:0:0:
184,270,55696,1,0,0:0:0:0:
184,270,55771,1,0,0:2:0:0:
65,333,55921,6,0,L|57:311,6,20,2|0|0|0|0|0|0,0:2|0:2|0:2|0:2|0:2|0:2|0:2,0:2:0:0:
55,362,56221,5,2,0:2:0:0:
101,218,56371,2,0,P|49:230|-4:251,1,80,0|10,0:2|0:2,0:0:0:0:
80,116,56671,6,0,P|132:128|252:172,1,160,0|2,0:2|0:2,0:0:0:0:
284,238,57121,2,0,P|321:183|313:142,1,80,2|2,0:2|0:2,0:0:0:0:
195,242,57421,1,2,0:2:0:0:
195,242,57571,1,2,0:2:0:0:
282,99,57721,5,2,3:2:0:0:
290,97,57796,5,2,3:2:0:0:
299,95,57871,5,2,3:2:0:0:
308,93,57946,5,2,3:2:0:0:
318,93,58021,6,0,P|402:103|490:118,1,160,14|10,0:2|0:2,0:2:0:0:
489,242,58471,6,0,L|456:226,4,20,2|0|0|0|0,0:2|0:2|0:2|0:2|0:2,0:2:0:0:
361,188,58771,2,0,P|377:241|386:287,1,80,2|8,0:2|0:2,0:2:0:0:
322,341,59071,5,2,0:2:0:0:
319,333,59146,1,2,0:2:0:0:
316,325,59221,1,10,0:2:0:0:
224,239,59371,5,0,0:2:0:0:
220,248,59446,1,0,0:2:0:0:
215,260,59521,2,0,L|159:268,1,47.9999985351563,8|0,0:2|0:2,0:2:0:0:
75,342,59671,5,10,0:2:0:0:
69,330,59746,1,0,0:2:0:0:
63,318,59821,1,0,0:2:0:0:
57,306,59896,1,0,0:2:0:0:
51,292,59971,2,0,L|57:225,1,47.9999985351563,10|0,0:2|0:2,0:2:0:0:
126,186,60121,5,10,0:2:0:0:
