osu file format v14

[General]
AudioFilename: audio.mp3
AudioLeadIn: 0
PreviewTime: -1
Countdown: 1
SampleSet: Normal
StackLeniency: 0.7
Mode: 0
LetterboxInBreaks: 0
WidescreenStoryboard: 0

[Editor]
DistanceSpacing: 0.7
BeatDivisor: 4
GridSize: 8
TimelineZoom: 1

[Metadata]
Title:The Living Infinite I
TitleUnicode:The Living Infinite I
Artist:Soilwork
ArtistUnicode:Soilwork
Creator:zargot
Version:practice
Source:
Tags:
BeatmapID:1531957
BeatmapSetID:725566

[Difficulty]
HPDrainRate:5
CircleSize:4
OverallDifficulty:5
ApproachRate:10
SliderMultiplier:1.75
SliderTickRate:1

[Events]
//Background and Video events
//Break Periods
//Storyboard Layer 0 (Background)
//Storyboard Layer 1 (Fail)
//Storyboard Layer 2 (Pass)
//Storyboard Layer 3 (Foreground)
//Storyboard Sound Samples

[TimingPoints]
28021,352.941176470588,4,1,0,100,1,0

[HitObjects]
296,96,28021,5,0,0:0:0:0:
160,264,28197,1,0,0:0:0:0:
96,64,28373,1,0,0:0:0:0:
360,224,28550,1,0,0:0:0:0:
344,96,28726,2,0,L|432:56,1,87.5
448,176,29080,5,0,0:0:0:0:
448,176,29256,1,0,0:0:0:0:
352,128,29432,2,0,L|264:88,1,87.5
200,56,29785,1,0,0:0:0:0:
200,56,29962,1,0,0:0:0:0:
192,272,30138,5,0,0:0:0:0:
104,88,30314,1,0,0:0:0:0:
328,224,30490,1,0,0:0:0:0:
288,56,30668,1,0,0:0:0:0:
144,240,31021,5,0,0:0:0:0:
160,112,31197,1,0,0:0:0:0:
256,240,31373,1,0,0:0:0:0:
312,128,31550,2,0,L|392:88,1,87.5
448,264,31903,1,0,0:0:0:0:
384,176,32079,5,0,0:0:0:0:
384,176,32255,1,0,0:0:0:0:
272,176,32431,1,0,0:0:0:0:
272,176,32608,1,0,0:0:0:0:
184,192,32784,2,0,L|104:232,1,87.5
128,200,33315,5,0,0:0:0:0:
376,272,33491,1,0,0:0:0:0:
112,160,33668,2,0,L|192:120,1,87.5
280,120,34021,1,0,0:0:0:0:
280,120,34198,1,0,0:0:0:0:
408,144,34373,5,0,0:0:0:0:
408,152,34550,1,0,0:0:0:0:
368,280,34726,2,0,L|264:280,1,87.5
176,288,35079,1,0,0:0:0:0:
128,96,35256,1,0,0:0:0:0:
320,88,35432,6,0,L|368:160,1,87.5
392,248,35785,2,0,L|352:336,1,87.5
168,320,36138,1,0,0:0:0:0:
248,128,36315,1,0,0:0:0:0:
400,56,36491,5,0,0:0:0:0:
400,56,36667,1,0,0:0:0:0:
288,56,36843,1,0,0:0:0:0:
288,56,37020,1,0,0:0:0:0:
208,72,37196,2,0,L|120:112,1,87.5
80,224,37551,5,0,0:0:0:0:
80,224,37727,1,0,0:0:0:0:
192,224,37903,1,0,0:0:0:0:
192,224,38080,1,0,0:0:0:0:
272,208,38256,2,0,L|360:168,1,87.5
448,160,38609,1,0,0:0:0:0:
452,116,38697,1,0,0:0:0:0:
434,77,38785,1,0,0:0:0:0:
397,54,38873,1,0,0:0:0:0:
354,48,38961,1,0,0:0:0:0:
312,56,39050,1,0,0:0:0:0:
272,72,39138,1,0,0:0:0:0:
176,80,39491,5,0,0:0:0:0:
248,288,39668,1,0,0:0:0:0:
408,104,39844,1,0,0:0:0:0:
176,80,40021,1,0,0:0:0:0:
248,272,40197,1,0,0:0:0:0:
408,104,40373,2,0,L|296:104,1,87.5
408,272,40726,1,0,0:0:0:0:
408,104,40903,1,0,0:0:0:0:
160,104,41079,1,0,0:0:0:0:
160,272,41256,2,0,P|256:272|280:264,1,87.5
392,256,41785,5,0,0:0:0:0:
160,96,41962,1,0,0:0:0:0:
352,72,42138,5,0,0:0:0:0:
160,272,42315,1,0,0:0:0:0:
352,272,42491,1,0,0:0:0:0:
160,72,42668,1,0,0:0:0:0:
352,72,42844,1,0,0:0:0:0:
160,272,43021,1,0,0:0:0:0:
352,272,43197,1,0,0:0:0:0:
160,72,43373,1,0,0:0:0:0:
160,72,43550,5,0,0:0:0:0:
352,272,43727,1,0,0:0:0:0:
160,272,43903,2,0,P|192:232|200:240,1,43.75
352,72,44080,1,0,0:0:0:0:
160,72,44256,1,0,0:0:0:0:
352,272,44433,1,0,0:0:0:0:
160,272,44609,1,0,0:0:0:0:
256,192,44785,1,0,0:0:0:0:
160,72,44962,5,0,0:0:0:0:
160,272,45138,1,0,0:0:0:0:
352,272,45315,1,0,0:0:0:0:
352,72,45491,1,0,0:0:0:0:
160,72,45668,2,0,B|200:120|216:104|232:80,1,87.5
352,72,46021,2,0,B|312:120|296:104|280:80,1,87.5
160,272,46373,2,0,B|200:224|216:240|232:264,1,87.5
352,272,46726,2,0,B|312:224|296:240|280:264,1,87.5
240,232,47079,5,0,0:0:0:0:
248,64,47256,1,0,0:0:0:0:
152,152,47432,1,0,0:0:0:0:
352,104,47609,1,0,0:0:0:0:
368,176,47785,6,0,B|344:240|312:200,1,43.75
272,208,47962,1,0,0:0:0:0:
136,80,48138,1,0,0:0:0:0:
272,80,48315,1,0,0:0:0:0:
272,200,48491,1,0,0:0:0:0:
136,200,48668,1,0,0:0:0:0:
