osu file format v14

[General]
AudioFilename: audio.mp3
AudioLeadIn: 0
PreviewTime: 46005
Countdown: 0
SampleSet: Soft
StackLeniency: 0.7
Mode: 0
LetterboxInBreaks: 0
WidescreenStoryboard: 0

[Editor]
DistanceSpacing: 1
BeatDivisor: 4
GridSize: 4
TimelineZoom: 1.9

[Metadata]
Title:Yuudachi Houteishiki
TitleUnicode:夕立方程式
Artist:Sodachi Oikura (CV: Marina Inoue)
ArtistUnicode:老倉育(CV: 井上麻里奈)
Creator:Alexsander
Version:Victor's Easy
Source:終物語
Tags:Owarimonogatari op 3 dvd blu-ray lost victorfernando
BeatmapID:1426819
BeatmapSetID:671673

[Difficulty]
HPDrainRate:2
CircleSize:3
OverallDifficulty:2
ApproachRate:3
SliderMultiplier:0.9
SliderTickRate:1

[Events]
//Background and Video events
Video,784,"video.avi"
0,0,"Best+BG.jpg",0,0
//Break Periods
//Storyboard Layer 0 (Background)
//Storyboard Layer 1 (Fail)
//Storyboard Layer 2 (Pass)
//Storyboard Layer 3 (Foreground)
//Storyboard Sound Samples

[TimingPoints]
2295,468.75,4,2,1,40,1,0
2295,-100,4,2,1,40,0,0
16826,-100,4,2,1,50,0,0
17177,-100,4,2,1,5,0,0
17295,-100,4,2,3,65,0,0
32295,-100,4,2,3,60,0,0
39795,-100,4,2,1,50,0,0
45420,-100,4,2,1,70,0,0
47295,-100,4,2,1,80,0,1
81045,-100,4,2,1,40,0,0
84560,-100,4,2,1,30,0,0
84795,-100,4,2,1,30,0,0
86670,-100,4,2,1,20,0,0

[Colours]
Combo1 : 128,128,128
Combo2 : 151,255,151
Combo3 : 255,255,128
Combo4 : 255,128,128
SliderBorder : 255,255,255
SliderTrackOverride : 40,50,70

[HitObjects]
116,68,2295,6,0,B|84:140|84:140|112:248,1,180,2|2,0:0|0:0,0:0:0:0:
176,300,3701,2,0,L|236:296,1,45,2|2,0:0|0:0,0:0:0:0:
292,244,4404,1,2,0:0:0:0:
196,88,5341,6,0,L|132:84,1,45,0|0,0:0|0:0,0:0:0:0:
114,111,5810,2,0,B|103:193|103:193|126:244|126:244|115:334,1,225,0|2,0:0|0:0,0:0:0:0:
250,330,7685,1,0,0:0:0:0:
390,100,9091,6,0,P|416:158|398:242,1,135,0|2,0:0|0:0,0:0:0:0:
328,337,10498,2,0,L|221:332,1,90,0|0,0:0|0:0,0:0:0:0:
149,319,11435,2,0,P|141:263|157:219,1,90,0|0,0:0|0:0,0:0:0:0:
219,176,12373,1,0,0:0:0:0:
246,90,12841,2,0,P|246:59|240:35,2,45,0|2|0,0:0|0:0|0:0,0:0:0:0:
416,32,14248,6,0,L|404:132,1,90,0|0,0:0|0:0,0:0:0:0:
377,206,15185,2,0,B|326:198|306:240|306:240|225:268|171:191,1,225,0|0,0:0|0:0,0:0:0:0:
124,33,17295,6,0,P|126:84|112:129,1,90,6|8,0:0|0:0,0:0:0:0:
56,188,18232,1,2,0:0:0:0:
108,264,18701,2,0,L|102:308,2,45,8|0|2,0:0|0:0|0:0,0:0:0:0:
160,192,19638,1,8,0:0:0:0:
212,120,20107,2,0,P|244:164|248:216,1,90,2|8,0:0|0:0,0:0:0:0:
327,244,21045,6,0,P|374:248|421:235,2,90,6|8|2,0:0|0:0|0:0,0:0:0:0:
249,198,22451,1,8,0:0:0:0:
158,195,22920,1,2,0:0:0:0:
87,250,23388,2,0,P|85:302|103:350,1,90,8|2,0:0|0:0,0:0:0:0:
180,369,24326,1,8,0:0:0:0:
260,329,24795,6,0,P|262:277|244:229,1,90,6|8,0:0|0:0,0:0:0:0:
197,168,25732,2,0,P|195:116|213:68,1,90,2|8,0:0|0:0,0:0:0:0:
285,36,26670,1,2,0:0:0:0:
344,102,27138,2,0,B|360:182|360:182|327:275,1,180,8|8,0:0|0:0,0:0:0:0:
249,320,28545,6,0,L|157:304,1,90,2|8,0:0|0:0,0:0:0:0:
164,216,29482,2,0,L|268:232,1,90,2|8,0:0|0:0,0:0:0:0:
327,274,30420,1,6,0:0:0:0:
385,205,30888,2,0,P|397:153|389:113,1,90,8|2,0:0|0:0,0:0:0:0:
326,54,31826,1,8,0:0:0:0:
236,49,32295,6,0,B|168:17|168:69|104:45,2,135,6|0|8,0:0|0:0|0:0,0:0:0:0:
282,125,34170,2,0,P|298:189|260:259,2,135,2|0|8,0:0|0:0|0:0,0:0:0:0:
212,182,36045,6,0,L|112:186,1,90,6|8,0:0|0:0,0:0:0:0:
49,131,36982,2,0,P|44:109|45:87,2,45,2|0|8,0:0|0:0|0:0,0:0:0:0:
122,185,37920,2,0,P|136:230|120:286,1,90,2|8,0:0|0:0,0:0:0:0:
155,356,38857,2,0,L|251:356,1,90,2|8,0:0|0:0,0:0:0:0:
319,304,39795,6,0,P|367:288|471:356,2,180,6|8|6,0:0|0:0|0:0,0:0:0:0:
162,217,42607,2,0,P|168:169|162:127,1,90,8|8,0:0|0:0,0:0:0:0:
175,38,43545,6,0,P|265:69|341:25,1,180,6|10,0:0|0:0,0:0:0:0:
512,66,45420,2,0,B|513:106|513:106|508:117|508:117|512:170,1,90,12|4,0:0|0:0,0:0:0:0:
316,328,47295,6,0,P|336:256|308:188,2,135,6|0|8,0:0|0:0|0:0,0:0:0:0:
232,356,49170,2,0,L|136:344,1,90,0|8,0:0|0:0,0:0:0:0:
80,280,50107,1,2,0:0:0:0:
104,192,50576,1,8,0:0:0:0:
165,126,51045,6,0,P|101:102|33:138,2,135,6|0|8,0:0|0:0|0:0,0:0:0:0:
197,210,52920,2,0,P|235:183|254:133,1,90,6|8,0:0|0:0,0:0:0:0:
280,64,53857,1,2,0:0:0:0:
369,60,54326,1,8,0:0:0:0:
430,125,54795,6,0,P|422:193|450:265,1,135,4|0,0:0|0:0,0:0:0:0:
398,332,55966,1,0,0:0:0:0:
310,327,56435,2,0,L|214:319,1,90,2|0,0:0|0:0,0:0:0:0:
149,263,57373,1,0,0:0:0:0:
88,197,57841,2,0,P|131:176|185:182,1,90,0|0,0:0|0:0,0:0:0:0:
217,183,58545,6,0,B|254:206|323:198|284:159|353:159|405:190,1,180,6|6,0:0|0:0,0:0:0:0:
346,309,60185,1,4,0:0:0:0:
174,362,61123,2,0,P|113:358|61:305,1,135,0|8,0:0|0:0,0:0:0:0:
147,275,62295,6,0,B|145:238|171:208|171:208|153:179|152:135,2,135,6|0|8,0:0|0:0|0:0,0:0:0:0:
191,353,64170,2,0,P|244:360|283:350,1,90,2|8,0:0|0:0,0:0:0:0:
356,307,65107,1,2,0:0:0:0:
344,220,65576,1,8,0:0:0:0:
286,151,66045,6,0,P|350:131|418:167,2,135,6|0|8,0:0|0:0|0:0,0:0:0:0:
204,188,67920,2,0,P|157:197|117:185,1,90,4|8,0:0|0:0,0:0:0:0:
36,146,68857,1,2,0:0:0:0:
1,229,69326,1,8,0:0:0:0:
39,310,69795,6,0,P|102:330|176:302,1,135,6|0,0:0|0:0,0:0:0:0:
233,251,70966,1,0,0:0:0:0:
314,212,71435,2,0,P|366:200|402:212,1,90,2|0,0:0|0:0,0:0:0:0:
469,268,72373,1,0,0:0:0:0:
500,183,72841,2,0,L|496:79,1,90,0|0,0:0|0:0,0:0:0:0:
460,66,73545,6,0,B|432:34|376:30|376:30|340:62|284:50,1,180,6|6,0:0|0:0,0:0:0:0:
160,48,75185,2,0,P|149:99|165:149,1,90,4|0,0:0|0:0,0:0:0:0:
214,257,76357,2,0,B|367:247,1,135,10|8,0:0|0:0,0:0:0:0:
392,238,77295,6,0,P|408:178|372:108,2,135,6|0|8,0:0|0:0|0:0,0:0:0:0:
320,182,79170,2,0,B|260:202|260:146|180:182,2,135,4|0|8,0:0|0:0|0:0,0:0:0:0:
256,192,81045,12,2,86670,0:0:0:0:
