osu file format v14

[General]
AudioFilename: audio.mp3
AudioLeadIn: 0
PreviewTime: -1
Countdown: 0
SampleSet: Soft
StackLeniency: 0.7
Mode: 3
LetterboxInBreaks: 0
SpecialStyle: 0
WidescreenStoryboard: 1

[Editor]
DistanceSpacing: 3.9
BeatDivisor: 16
GridSize: 4
TimelineZoom: 2.800009

[Metadata]
Title:Onion
TitleUnicode:Onion
Artist:Socrates
ArtistUnicode:Socrates
Creator:IceDynamix
Version:Good onyo is a heavy onyo
Source:
Tags:dump tech jean pierre diced oño
BeatmapID:2105051
BeatmapSetID:1005829

[Difficulty]
HPDrainRate:8
CircleSize:4
OverallDifficulty:8
ApproachRate:5
SliderMultiplier:1.4
SliderTickRate:1

[Events]
//Background and Video events
0,0,"onion.jpg",0,0
//Break Periods
//Storyboard Layer 0 (Background)
//Storyboard Layer 1 (Fail)
//Storyboard Layer 2 (Pass)
//Storyboard Layer 3 (Foreground)
//Storyboard Sound Samples

[TimingPoints]
333,292.682926829268,4,2,0,5,1,0
333,-113.636363636364,4,2,0,5,0,0
1503,264.31718061674,4,2,0,5,1,0
1503,-126.582278481013,4,2,0,5,0,0
2300,235.294117647059,4,2,0,5,1,0
2300,-140.845070422535,4,2,0,5,0,0
3246,226.415094339623,4,2,0,5,1,0
3246,-147.058823529412,4,2,0,5,0,0
3981,244.897959183673,4,2,0,5,1,0
3981,-136.986301369863,4,2,0,5,0,0
6521,272.727272727273,4,2,0,5,1,0
6521,-121.951219512195,4,2,0,5,0,0
7163,244.897959183673,4,2,0,5,1,0
7163,-136.986301369863,4,2,0,5,0,0
7754,240,4,2,0,5,1,0
7754,-138.888888888889,4,2,0,5,0,0
8129,199.999999999999,4,2,0,5,1,0
8129,-166.666666666667,4,2,0,5,0,0
8532,255.31914893617,4,2,0,5,1,0
8532,-129.87012987013,4,2,0,5,0,0
9046,226.415094339623,4,2,0,5,1,0
9046,-147.058823529412,4,2,0,5,0,0
10067,222.222222222222,4,2,0,5,1,0
10067,-149.253731343284,4,2,0,5,0,0
10955,333.333333333333,4,2,0,5,1,0
10955,-100,4,2,0,5,0,0
17660,333.333333333333,4,2,0,5,1,0
17660,-100,4,2,0,5,0,0
21284,333.333333333333,4,2,0,5,1,0
21284,-100,4,2,0,5,0,0
22617,352.941176470588,4,2,0,5,1,0
22617,-94.3396226415094,4,2,0,5,0,0
24867,333.333333333333,4,2,0,5,1,0
24867,-100,4,2,0,5,0,0
25492,500,4,2,0,5,1,0
25492,-66.6666666666667,4,2,0,5,0,0

[HitObjects]
448,192,333,5,0,0:0:0:0:
64,192,333,1,0,0:0:0:0:
320,192,333,1,0,0:0:0:0:
192,192,381,1,0,0:0:0:0:
320,192,430,1,0,0:0:0:0:
448,192,479,1,0,0:0:0:0:
64,192,552,1,0,0:0:0:0:
192,192,650,1,0,0:0:0:0:
320,192,650,1,0,0:0:0:0:
448,192,674,1,0,0:0:0:0:
64,192,747,1,0,0:0:0:0:
192,192,747,1,0,0:0:0:0:
320,192,772,1,0,0:0:0:0:
320,192,918,1,0,0:0:0:0:
448,192,918,1,0,0:0:0:0:
64,192,967,1,0,0:0:0:0:
192,192,1015,1,0,0:0:0:0:
448,192,1064,1,0,0:0:0:0:
64,192,1137,1,0,0:0:0:0:
320,192,1211,1,0,0:0:0:0:
192,192,1211,1,0,0:0:0:0:
448,192,1211,1,0,0:0:0:0:
64,192,1320,1,0,0:0:0:0:
192,192,1320,128,0,1393:0:0:0:0:
320,192,1357,128,0,1503:0:0:0:0:
64,192,1406,1,0,0:0:0:0:
448,192,1536,1,0,0:0:0:0:
64,192,1536,128,0,1602:0:0:0:0:
192,192,1569,128,0,1701:0:0:0:0:
448,192,1602,1,0,0:0:0:0:
320,192,1723,1,0,0:0:0:0:
448,192,1723,1,0,0:0:0:0:
320,192,1849,128,0,1899:0:0:0:0:
448,192,1849,1,0,0:0:0:0:
192,192,1882,128,0,1998:0:0:0:0:
448,192,1932,1,0,0:0:0:0:
192,192,2075,128,0,2141:0:0:0:0:
320,192,2081,1,0,0:0:0:0:
64,192,2114,128,0,2229:0:0:0:0:
320,192,2180,1,0,0:0:0:0:
320,192,2300,1,0,0:0:0:0:
448,192,2300,1,0,0:0:0:0:
192,192,2378,1,0,0:0:0:0:
320,192,2378,1,0,0:0:0:0:
192,192,2456,1,0,0:0:0:0:
64,192,2456,1,0,0:0:0:0:
64,192,2692,1,0,0:0:0:0:
192,192,2770,1,0,0:0:0:0:
448,192,2829,1,0,0:0:0:0:
320,192,2858,1,0,0:0:0:0:
64,192,2888,1,0,0:0:0:0:
192,192,2917,1,0,0:0:0:0:
448,192,2947,1,0,0:0:0:0:
320,192,2976,1,0,0:0:0:0:
64,192,3005,1,0,0:0:0:0:
192,192,3035,1,0,0:0:0:0:
448,192,3064,1,0,0:0:0:0:
320,192,3094,1,0,0:0:0:0:
64,192,3123,1,0,0:0:0:0:
192,192,3152,1,0,0:0:0:0:
448,192,3246,1,0,0:0:0:0:
320,192,3246,1,0,0:0:0:0:
192,192,3359,1,0,0:0:0:0:
320,192,3359,1,0,0:0:0:0:
448,192,3500,1,0,0:0:0:0:
192,192,3500,1,0,0:0:0:0:
64,192,3500,1,0,0:0:0:0:
64,192,3670,1,0,0:0:0:0:
192,192,3670,128,0,3727:0:0:0:0:
448,192,3670,1,0,0:0:0:0:
320,192,3698,128,0,3812:0:0:0:0:
64,192,3755,1,0,0:0:0:0:
64,192,3826,128,0,3882:0:0:0:0:
448,192,3840,1,0,0:0:0:0:
192,192,3854,128,0,3953:0:0:0:0:
320,192,3882,1,0,0:0:0:0:
448,192,3911,1,0,0:0:0:0:
320,192,3981,1,0,0:0:0:0:
64,192,3981,1,0,0:0:0:0:
448,192,4011,1,0,0:0:0:0:
192,192,4072,128,0,4118:0:0:0:0:
320,192,4072,1,0,0:0:0:0:
64,192,4088,128,0,4195:0:0:0:0:
448,192,4164,1,0,0:0:0:0:
320,192,4225,128,0,4266:0:0:0:0:
192,192,4225,1,0,0:0:0:0:
448,192,4246,128,0,4348:0:0:0:0:
64,192,4333,1,0,0:0:0:0:
320,192,4378,1,0,0:0:0:0:
192,192,4440,1,0,0:0:0:0:
64,192,4440,1,0,0:0:0:0:
320,192,4532,1,0,0:0:0:0:
192,192,4532,1,0,0:0:0:0:
448,192,4532,1,0,0:0:0:0:
64,192,4593,1,0,0:0:0:0:
192,192,4715,1,0,0:0:0:0:
320,192,4715,1,0,0:0:0:0:
64,192,4715,1,0,0:0:0:0:
448,192,4776,1,0,0:0:0:0:
448,192,4853,1,0,0:0:0:0:
320,192,4853,128,0,4929:0:0:0:0:
192,192,4884,128,0,4991:0:0:0:0:
64,192,4899,1,0,0:0:0:0:
448,192,4929,1,0,0:0:0:0:
320,192,5021,128,0,5083:0:0:0:0:
64,192,5021,1,0,0:0:0:0:
448,192,5052,128,0,5174:0:0:0:0:
192,192,5083,1,0,0:0:0:0:
64,192,5113,1,0,0:0:0:0:
64,192,5205,1,0,0:0:0:0:
192,192,5205,1,0,0:0:0:0:
448,192,5266,1,0,0:0:0:0:
320,192,5266,1,0,0:0:0:0:
320,192,5389,1,0,0:0:0:0:
64,192,5450,1,0,0:0:0:0:
448,192,5511,1,0,0:0:0:0:
192,192,5572,1,0,0:0:0:0:
64,192,5572,1,0,0:0:0:0:
320,192,5572,1,0,0:0:0:0:
320,192,5817,1,0,0:0:0:0:
192,192,5817,1,0,0:0:0:0:
448,192,5817,1,0,0:0:0:0:
320,192,6001,128,0,6062:0:0:0:0:
192,192,6001,1,0,0:0:0:0:
448,192,6032,128,0,6185:0:0:0:0:
64,192,6062,1,0,0:0:0:0:
192,192,6093,1,0,0:0:0:0:
192,192,6246,128,0,6307:0:0:0:0:
320,192,6246,1,0,0:0:0:0:
64,192,6276,128,0,6429:0:0:0:0:
448,192,6307,1,0,0:0:0:0:
320,192,6338,1,0,0:0:0:0:
64,192,6491,1,0,0:0:0:0:
320,192,6521,1,0,0:0:0:0:
448,192,6521,1,0,0:0:0:0:
192,192,6566,1,0,0:0:0:0:
64,192,6611,1,0,0:0:0:0:
448,192,6657,1,0,0:0:0:0:
64,192,6725,1,0,0:0:0:0:
192,192,6793,1,0,0:0:0:0:
320,192,6793,1,0,0:0:0:0:
448,192,6839,1,0,0:0:0:0:
64,192,6884,1,0,0:0:0:0:
192,192,6930,1,0,0:0:0:0:
448,192,6998,1,0,0:0:0:0:
320,192,7032,1,0,0:0:0:0:
448,192,7163,128,0,7224:0:0:0:0:
64,192,7163,1,0,0:0:0:0:
192,192,7163,1,0,0:0:0:0:
320,192,7193,128,0,7316:0:0:0:0:
192,192,7254,1,0,0:0:0:0:
448,192,7407,1,0,0:0:0:0:
64,192,7407,128,0,7469:0:0:0:0:
320,192,7407,1,0,0:0:0:0:
192,192,7438,128,0,7560:0:0:0:0:
320,192,7499,1,0,0:0:0:0:
448,192,7591,1,0,0:0:0:0:
320,192,7591,1,0,0:0:0:0:
64,192,7668,1,0,0:0:0:0:
192,192,7668,1,0,0:0:0:0:
64,192,7744,1,0,0:0:0:0:
320,192,7754,128,0,7814:0:0:0:0:
448,192,7754,1,0,0:0:0:0:
192,192,7774,128,0,7894:0:0:0:0:
64,192,7844,1,0,0:0:0:0:
320,192,7979,1,0,0:0:0:0:
448,192,7994,1,0,0:0:0:0:
192,192,7994,128,0,8054:0:0:0:0:
64,192,8014,128,0,8129:0:0:0:0:
320,192,8054,1,0,0:0:0:0:
192,192,8129,1,0,0:0:0:0:
448,192,8129,1,0,0:0:0:0:
320,192,8341,1,0,0:0:0:0:
192,192,8341,1,0,0:0:0:0:
64,192,8341,1,0,0:0:0:0:
192,192,8532,1,0,0:0:0:0:
64,192,8532,1,0,0:0:0:0:
448,192,8574,1,0,0:0:0:0:
64,192,8617,1,0,0:0:0:0:
320,192,8680,1,0,0:0:0:0:
448,192,8680,1,0,0:0:0:0:
192,192,8744,1,0,0:0:0:0:
448,192,8787,1,0,0:0:0:0:
192,192,8872,1,0,0:0:0:0:
320,192,8872,1,0,0:0:0:0:
64,192,8914,1,0,0:0:0:0:
320,192,8957,1,0,0:0:0:0:
192,192,9042,1,0,0:0:0:0:
64,192,9042,1,0,0:0:0:0:
448,192,9046,1,0,0:0:0:0:
320,192,9083,1,0,0:0:0:0:
64,192,9121,1,0,0:0:0:0:
448,192,9159,1,0,0:0:0:0:
320,192,9272,1,0,0:0:0:0:
192,192,9272,1,0,0:0:0:0:
448,192,9310,1,0,0:0:0:0:
192,192,9385,1,0,0:0:0:0:
64,192,9385,1,0,0:0:0:0:
320,192,9385,1,0,0:0:0:0:
320,192,9498,128,0,9555:0:0:0:0:
192,192,9498,1,0,0:0:0:0:
64,192,9498,1,0,0:0:0:0:
448,192,9527,128,0,9640:0:0:0:0:
192,192,9583,1,0,0:0:0:0:
192,192,9725,128,0,9781:0:0:0:0:
64,192,9725,1,0,0:0:0:0:
448,192,9725,1,0,0:0:0:0:
320,192,9753,128,0,9866:0:0:0:0:
64,192,9810,1,0,0:0:0:0:
320,192,10067,1,0,0:0:0:0:
192,192,10067,1,0,0:0:0:0:
64,192,10094,1,0,0:0:0:0:
192,192,10178,1,0,0:0:0:0:
64,192,10178,1,0,0:0:0:0:
448,192,10205,1,0,0:0:0:0:
192,192,10289,128,0,10344:0:0:0:0:
448,192,10289,1,0,0:0:0:0:
64,192,10289,1,0,0:0:0:0:
320,192,10317,128,0,10442:0:0:0:0:
64,192,10372,1,0,0:0:0:0:
448,192,10511,1,0,0:0:0:0:
320,192,10539,1,0,0:0:0:0:
64,192,10539,128,0,10594:0:0:0:0:
192,192,10567,128,0,10678:0:0:0:0:
320,192,10622,1,0,0:0:0:0:
320,192,10789,1,0,0:0:0:0:
448,192,10955,128,0,11038:0:0:0:0:
64,192,10955,1,0,0:0:0:0:
320,192,10996,128,0,11205:0:0:0:0:
192,192,11010,1,0,0:0:0:0:
64,192,11066,1,0,0:0:0:0:
192,192,11121,1,0,0:0:0:0:
64,192,11177,1,0,0:0:0:0:
64,192,11267,128,0,11350:0:0:0:0:
320,192,11267,1,0,0:0:0:0:
192,192,11309,128,0,11559:0:0:0:0:
448,192,11309,1,0,0:0:0:0:
320,192,11350,1,0,0:0:0:0:
448,192,11392,1,0,0:0:0:0:
320,192,11434,1,0,0:0:0:0:
448,192,11621,1,0,0:0:0:0:
320,192,11621,1,0,0:0:0:0:
64,192,11663,1,0,0:0:0:0:
64,192,11871,1,0,0:0:0:0:
192,192,11871,1,0,0:0:0:0:
320,192,11913,1,0,0:0:0:0:
448,192,11954,1,0,0:0:0:0:
64,192,12010,1,0,0:0:0:0:
448,192,12121,1,0,0:0:0:0:
192,192,12121,1,0,0:0:0:0:
320,192,12163,1,0,0:0:0:0:
320,192,12246,1,0,0:0:0:0:
64,192,12246,1,0,0:0:0:0:
192,192,12288,1,0,0:0:0:0:
192,192,12538,1,0,0:0:0:0:
64,192,12538,1,0,0:0:0:0:
448,192,12579,1,0,0:0:0:0:
320,192,12663,1,0,0:0:0:0:
192,192,12663,1,0,0:0:0:0:
448,192,12704,1,0,0:0:0:0:
192,192,12850,1,0,0:0:0:0:
320,192,12850,1,0,0:0:0:0:
64,192,12954,128,0,13038:0:0:0:0:
448,192,12954,1,0,0:0:0:0:
320,192,12954,1,0,0:0:0:0:
192,192,12996,128,0,13163:0:0:0:0:
448,192,13038,1,0,0:0:0:0:
448,192,13225,128,0,13309:0:0:0:0:
64,192,13225,1,0,0:0:0:0:
192,192,13225,1,0,0:0:0:0:
320,192,13267,128,0,13434:0:0:0:0:
64,192,13309,1,0,0:0:0:0:
192,192,13454,1,0,0:0:0:0:
64,192,13454,1,0,0:0:0:0:
448,192,13454,1,0,0:0:0:0:
320,192,13517,1,0,0:0:0:0:
64,192,13566,1,0,0:0:0:0:
320,192,13621,1,0,0:0:0:0:
448,192,13621,1,0,0:0:0:0:
192,192,13663,1,0,0:0:0:0:
320,192,13704,1,0,0:0:0:0:
64,192,13746,1,0,0:0:0:0:
192,192,13788,1,0,0:0:0:0:
320,192,13829,1,0,0:0:0:0:
448,192,13871,1,0,0:0:0:0:
192,192,13913,1,0,0:0:0:0:
64,192,13954,1,0,0:0:0:0:
192,192,14121,1,0,0:0:0:0:
64,192,14121,1,0,0:0:0:0:
320,192,14121,1,0,0:0:0:0:
448,192,14204,1,0,0:0:0:0:
448,192,14288,1,0,0:0:0:0:
192,192,14288,1,0,0:0:0:0:
320,192,14288,1,0,0:0:0:0:
320,192,14371,1,0,0:0:0:0:
448,192,14454,1,0,0:0:0:0:
320,192,14454,1,0,0:0:0:0:
192,192,14454,1,0,0:0:0:0:
192,192,14538,1,0,0:0:0:0:
320,192,14621,1,0,0:0:0:0:
192,192,14621,1,0,0:0:0:0:
64,192,14621,1,0,0:0:0:0:
192,192,14954,1,0,0:0:0:0:
320,192,14954,1,0,0:0:0:0:
64,192,14954,1,0,0:0:0:0:
448,192,14996,1,0,0:0:0:0:
192,192,15100,1,0,0:0:0:0:
320,192,15100,1,0,0:0:0:0:
64,192,15163,1,0,0:0:0:0:
448,192,15246,128,0,15329:0:0:0:0:
192,192,15246,1,0,0:0:0:0:
320,192,15288,128,0,15454:0:0:0:0:
192,192,15329,1,0,0:0:0:0:
448,192,15454,1,0,0:0:0:0:
64,192,15454,128,0,15538:0:0:0:0:
192,192,15510,128,0,15621:0:0:0:0:
448,192,15538,1,0,0:0:0:0:
320,192,15538,1,0,0:0:0:0:
320,192,15704,1,0,0:0:0:0:
192,192,15704,1,0,0:0:0:0:
64,192,15732,1,0,0:0:0:0:
448,192,15788,1,0,0:0:0:0:
320,192,15843,1,0,0:0:0:0:
192,192,15954,1,0,0:0:0:0:
320,192,15954,1,0,0:0:0:0:
64,192,16121,128,0,16204:0:0:0:0:
320,192,16121,1,0,0:0:0:0:
448,192,16121,1,0,0:0:0:0:
192,192,16163,128,0,16288:0:0:0:0:
320,192,16204,1,0,0:0:0:0:
320,192,16329,128,0,16413:0:0:0:0:
64,192,16329,1,0,0:0:0:0:
192,192,16329,1,0,0:0:0:0:
448,192,16371,128,0,16538:0:0:0:0:
64,192,16413,1,0,0:0:0:0:
192,192,16538,1,0,0:0:0:0:
320,192,16704,1,0,0:0:0:0:
192,192,16704,1,0,0:0:0:0:
192,192,16871,128,0,16954:0:0:0:0:
448,192,16871,1,0,0:0:0:0:
64,192,16871,1,0,0:0:0:0:
320,192,16913,128,0,17038:0:0:0:0:
448,192,16954,1,0,0:0:0:0:
448,192,17079,1,0,0:0:0:0:
64,192,17079,128,0,17163:0:0:0:0:
192,192,17121,128,0,17288:0:0:0:0:
320,192,17121,1,0,0:0:0:0:
320,192,17204,1,0,0:0:0:0:
448,192,17621,1,0,0:0:0:0:
320,192,17621,1,0,0:0:0:0:
192,192,17621,1,0,0:0:0:0:
64,192,17621,1,0,0:0:0:0:
192,192,17826,1,0,0:0:0:0:
64,192,17826,1,0,0:0:0:0:
320,192,17910,128,0,17993:0:0:0:0:
64,192,17910,1,0,0:0:0:0:
192,192,17951,128,0,18118:0:0:0:0:
448,192,17951,1,0,0:0:0:0:
64,192,17993,1,0,0:0:0:0:
448,192,18118,128,0,18201:0:0:0:0:
64,192,18118,1,0,0:0:0:0:
320,192,18160,128,0,18243:0:0:0:0:
192,192,18160,1,0,0:0:0:0:
64,192,18201,1,0,0:0:0:0:
192,192,18285,1,0,0:0:0:0:
448,192,18285,1,0,0:0:0:0:
320,192,18326,1,0,0:0:0:0:
448,192,18410,1,0,0:0:0:0:
192,192,18410,1,0,0:0:0:0:
320,192,18410,1,0,0:0:0:0:
64,192,18451,1,0,0:0:0:0:
192,192,18493,1,0,0:0:0:0:
320,192,18535,1,0,0:0:0:0:
64,192,18576,1,0,0:0:0:0:
448,192,18618,1,0,0:0:0:0:
192,192,18660,1,0,0:0:0:0:
448,192,18785,1,0,0:0:0:0:
64,192,18826,1,0,0:0:0:0:
320,192,18826,1,0,0:0:0:0:
192,192,18826,1,0,0:0:0:0:
192,192,18993,1,0,0:0:0:0:
320,192,18993,1,0,0:0:0:0:
448,192,18993,1,0,0:0:0:0:
192,192,19076,128,0,19160:0:0:0:0:
448,192,19076,1,0,0:0:0:0:
64,192,19118,128,0,19243:0:0:0:0:
320,192,19118,1,0,0:0:0:0:
448,192,19160,1,0,0:0:0:0:
320,192,19285,128,0,19368:0:0:0:0:
64,192,19285,1,0,0:0:0:0:
192,192,19326,128,0,19493:0:0:0:0:
448,192,19326,1,0,0:0:0:0:
64,192,19368,1,0,0:0:0:0:
320,192,19659,1,0,0:0:0:0:
64,192,19659,1,0,0:0:0:0:
448,192,19659,1,0,0:0:0:0:
64,192,19784,1,0,0:0:0:0:
320,192,19784,128,0,19868:0:0:0:0:
448,192,19826,128,0,19951:0:0:0:0:
192,192,19826,1,0,0:0:0:0:
64,192,19868,1,0,0:0:0:0:
320,192,19993,1,0,0:0:0:0:
192,192,19993,128,0,20076:0:0:0:0:
64,192,20034,128,0,20159:0:0:0:0:
448,192,20034,1,0,0:0:0:0:
320,192,20076,1,0,0:0:0:0:
192,192,20215,1,0,0:0:0:0:
320,192,20326,1,0,0:0:0:0:
192,192,20326,1,0,0:0:0:0:
192,192,20472,1,0,0:0:0:0:
64,192,20472,1,0,0:0:0:0:
448,192,20576,128,0,20659:0:0:0:0:
192,192,20576,1,0,0:0:0:0:
320,192,20618,128,0,20743:0:0:0:0:
64,192,20618,1,0,0:0:0:0:
192,192,20659,1,0,0:0:0:0:
320,192,20826,128,0,20909:0:0:0:0:
64,192,20826,1,0,0:0:0:0:
192,192,20868,128,0,21034:0:0:0:0:
448,192,20868,1,0,0:0:0:0:
64,192,20909,1,0,0:0:0:0:
192,192,21243,1,0,0:0:0:0:
320,192,21243,1,0,0:0:0:0:
448,192,21243,1,0,0:0:0:0:
64,192,21325,1,0,0:0:0:0:
320,192,21409,128,0,21492:0:0:0:0:
192,192,21409,1,0,0:0:0:0:
448,192,21450,128,0,21575:0:0:0:0:
192,192,21492,1,0,0:0:0:0:
192,192,21575,128,0,21659:0:0:0:0:
64,192,21575,1,0,0:0:0:0:
320,192,21617,128,0,21742:0:0:0:0:
64,192,21659,1,0,0:0:0:0:
192,192,21742,1,0,0:0:0:0:
448,192,21742,1,0,0:0:0:0:
448,192,21950,128,0,22034:0:0:0:0:
192,192,21950,1,0,0:0:0:0:
320,192,21992,128,0,22200:0:0:0:0:
64,192,21992,1,0,0:0:0:0:
192,192,22034,1,0,0:0:0:0:
64,192,22075,1,0,0:0:0:0:
192,192,22117,1,0,0:0:0:0:
64,192,22159,1,0,0:0:0:0:
320,192,22242,128,0,22325:0:0:0:0:
192,192,22284,128,0,22492:0:0:0:0:
448,192,22284,1,0,0:0:0:0:
64,192,22339,1,0,0:0:0:0:
448,192,22395,1,0,0:0:0:0:
64,192,22450,1,0,0:0:0:0:
320,192,22617,128,0,22705:0:0:0:0:
64,192,22617,1,0,0:0:0:0:
448,192,22661,128,0,22881:0:0:0:0:
64,192,22705,1,0,0:0:0:0:
192,192,22793,1,0,0:0:0:0:
320,192,22881,1,0,0:0:0:0:
192,192,22881,128,0,22969:0:0:0:0:
64,192,22925,128,0,23146:0:0:0:0:
448,192,22969,1,0,0:0:0:0:
320,192,23058,1,0,0:0:0:0:
192,192,23102,128,0,23168:0:0:0:0:
448,192,23102,1,0,0:0:0:0:
320,192,23124,128,0,23256:0:0:0:0:
448,192,23190,1,0,0:0:0:0:
320,192,23300,128,0,23367:0:0:0:0:
64,192,23300,1,0,0:0:0:0:
192,192,23322,128,0,23499:0:0:0:0:
64,192,23389,1,0,0:0:0:0:
448,192,23411,1,0,0:0:0:0:
320,192,23411,1,0,0:0:0:0:
448,192,23587,1,0,0:0:0:0:
320,192,23587,1,0,0:0:0:0:
192,192,23631,1,0,0:0:0:0:
64,192,23675,1,0,0:0:0:0:
64,192,23808,1,0,0:0:0:0:
192,192,23808,1,0,0:0:0:0:
64,192,23940,1,0,0:0:0:0:
192,192,23940,1,0,0:0:0:0:
192,192,24205,128,0,24293:0:0:0:0:
448,192,24205,1,0,0:0:0:0:
64,192,24205,1,0,0:0:0:0:
320,192,24249,128,0,24425:0:0:0:0:
448,192,24293,1,0,0:0:0:0:
64,192,24337,1,0,0:0:0:0:
64,192,24469,128,0,24558:0:0:0:0:
448,192,24469,1,0,0:0:0:0:
320,192,24469,1,0,0:0:0:0:
192,192,24514,128,0,24734:0:0:0:0:
448,192,24558,1,0,0:0:0:0:
320,192,24675,1,0,0:0:0:0:
64,192,24734,1,0,0:0:0:0:
448,192,24734,128,0,24822:0:0:0:0:
320,192,24778,128,0,24992:0:0:0:0:
64,192,24822,1,0,0:0:0:0:
192,192,24908,1,0,0:0:0:0:
320,192,25117,1,0,0:0:0:0:
64,192,25117,128,0,25200:0:0:0:0:
448,192,25117,1,0,0:0:0:0:
192,192,25158,128,0,25367:0:0:0:0:
320,192,25200,1,0,0:0:0:0:
64,192,25367,1,0,0:0:0:0:
448,192,25450,1,0,0:0:0:0:
320,192,25450,1,0,0:0:0:0:
64,192,25992,1,0,0:0:0:0:
192,192,25992,1,0,0:0:0:0:
192,192,26242,1,0,0:0:0:0:
320,192,26242,1,0,0:0:0:0:
448,192,26742,1,0,0:0:0:0:
320,192,26742,1,0,0:0:0:0:
64,192,27117,1,0,0:0:0:0:
192,192,27492,1,0,0:0:0:0:
64,192,27867,1,0,0:0:0:0:
