osu file format v14

[General]
AudioFilename: audio.mp3
AudioLeadIn: 0
PreviewTime: 77022
Countdown: 0
SampleSet: Soft
StackLeniency: 1
Mode: 0
LetterboxInBreaks: 0
EpilepsyWarning: 1
WidescreenStoryboard: 1

[Editor]
Bookmarks: 886,32477,71795,109295,130662
DistanceSpacing: 0.7
BeatDivisor: 9
GridSize: 4
TimelineZoom: 6.699997

[Metadata]
Title:Random
TitleUnicode:Random
Artist:Sobrem x Silentroom
ArtistUnicode:Sobrem × Silentroom
Creator:seros
Version:yf's Sonata Movements
Source:BOFXVII
Tags:Featured Artist Sobrem Silentroom THE BMS OF FIGHTERS XVII -VISION RETRO FUTURE- following the clue [clue] harkiadel english electronic instrumental jazz funk fusion piano video game ak74 revoh dahkjdas kowari callionet intensity hakurei yoru hakurei_yoru zengsb pigeons arsalan yf yf_bmp mappers' guild mpg mg fa
BeatmapID:4433609
BeatmapSetID:1674155

[Difficulty]
HPDrainRate:5
CircleSize:3.8
OverallDifficulty:9
ApproachRate:9.6
SliderMultiplier:2.7
SliderTickRate:1

[Events]
//Background and Video events
0,0,"bg.jpg",0,0
Video,0,"bga.mp4"
//Break Periods
2,68131,69922
//Storyboard Layer 0 (Background)
//Storyboard Layer 1 (Fail)
//Storyboard Layer 2 (Pass)
//Storyboard Layer 3 (Foreground)
//Storyboard Layer 4 (Overlay)
//Storyboard Sound Samples

[TimingPoints]
-1159,454.545454545455,4,2,0,69,1,0
545,-50,4,2,0,69,0,0
886,-66.6666666666667,4,2,0,69,0,0
1056,-66.6666666666667,4,2,0,5,0,0
1113,-66.6666666666667,4,2,0,69,0,0
1283,-66.6666666666667,4,2,0,5,0,0
1341,-62.5,4,2,0,69,0,0
1511,-62.5,4,2,0,5,0,0
1568,-62.5,4,2,0,69,0,0
1738,-62.5,4,2,0,5,0,0
1795,-58.8235294117647,4,2,0,69,0,0
1965,-58.8235294117647,4,2,0,5,0,0
2022,-58.8235294117647,4,2,0,69,0,0
2192,-58.8235294117647,4,2,0,5,0,0
2250,-55.5555555555556,4,2,0,69,0,0
2420,-55.5555555555556,4,2,0,5,0,0
2477,-55.5555555555556,4,2,0,69,0,0
2647,-55.5555555555556,4,2,0,5,0,0
2704,-52.6315789473684,4,2,0,69,0,0
2874,-52.6315789473684,4,2,0,5,0,0
2931,-52.6315789473684,4,2,0,69,0,0
3101,-52.6315789473684,4,2,0,5,0,0
3159,-50,4,2,0,69,0,0
3329,-50,4,2,0,5,0,0
3386,-133.333333333333,4,2,0,69,0,0
3613,-100,4,2,0,69,0,0
3669,-100,4,2,0,5,0,0
3727,-100,4,2,0,69,0,0
3783,-100,4,2,0,5,0,0
3841,-100,4,2,0,69,0,0
3954,-133.333333333333,4,2,0,69,0,0
4010,-133.333333333333,4,2,0,5,0,0
4068,-50,4,2,0,69,0,0
4295,-200,4,2,0,69,0,0
4579,-200,4,2,0,5,0,0
4636,-66.6666666666667,4,2,0,69,0,0
4750,-40,4,2,0,40,0,0
6227,-66.6666666666667,4,2,0,40,0,0
6340,-66.6666666666667,4,2,0,40,0,0
6454,-66.6666666666667,4,2,0,40,0,0
6567,-66.6666666666667,4,2,0,40,0,0
6909,-66.6666666666667,4,2,0,40,0,0
7931,-200,4,2,0,40,0,0
8727,-100,4,2,0,40,0,0
8841,-100,4,2,0,40,0,0
9750,-200,4,2,0,40,0,0
10090,-200,4,2,0,5,0,0
10204,-100,4,2,0,50,0,0
10601,-100,4,2,0,5,0,0
10659,-66.6666666666667,4,2,0,50,0,0
11056,-66.6666666666667,4,2,0,5,0,0
11113,-50,4,2,0,50,0,0
11568,-74.0740740740741,4,2,0,50,0,0
11965,-74.0740740740741,4,2,0,5,0,0
12022,-74.0740740740741,4,2,0,50,0,0
12988,-74.0740740740741,4,2,0,5,0,0
13045,-74.0740740740741,4,2,0,50,0,0
15601,-74.0740740740741,4,2,0,5,0,0
15659,-66.6666666666667,4,2,0,50,0,0
16568,-100,4,2,0,50,0,0
16852,-100,4,2,0,5,0,0
16909,-50,4,2,0,50,0,0
17477,-66.6666666666667,4,2,0,50,0,0
17931,-74.0740740740741,4,2,0,50,0,0
18044,-74.0740740740741,4,2,0,5,0,0
18159,-74.0740740740741,4,2,0,50,0,0
18272,-74.0740740740741,4,2,0,5,0,0
18329,-74.0740740740741,4,2,0,50,0,0
18499,-74.0740740740741,4,2,0,5,0,0
18613,-74.0740740740741,4,2,0,50,0,0
18726,-74.0740740740741,4,2,0,5,0,0
18784,-74.0740740740741,4,2,0,50,0,0
18841,-66.6666666666667,4,2,0,50,0,0
19750,-74.0740740740741,4,2,0,50,0,0
20090,-74.0740740740741,4,2,0,5,0,0
20147,-74.0740740740741,4,2,0,50,0,0
20261,-74.0740740740741,4,2,0,5,0,0
20318,-74.0740740740741,4,2,0,50,0,0
20374,-74.0740740740741,4,2,0,5,0,0
20431,-74.0740740740741,4,2,0,50,0,0
20487,-74.0740740740741,4,2,0,5,0,0
20602,-74.0740740740741,4,2,0,50,0,0
20659,-57.1428571428571,4,2,0,50,0,0
21794,-57.1428571428571,4,2,0,5,0,0
21871,-57.1428571428571,4,2,0,50,0,0
21946,-57.1428571428571,4,2,0,5,0,0
22022,-57.1428571428571,4,2,0,50,0,0
22097,-57.1428571428571,4,2,0,5,0,0
22174,-57.1428571428571,4,2,0,50,0,0
22477,-57.1428571428571,4,2,0,50,0,0
22666,-100,4,2,0,50,0,0
23272,-57.1428571428571,4,2,0,50,0,0
23462,-74.0740740740741,4,2,0,50,0,0
23670,-57.1428571428571,4,2,0,50,0,0
23803,-57.1428571428571,4,2,0,50,0,0
24295,-57.1428571428571,4,2,0,50,0,0
24750,-66.6666666666667,4,2,0,50,0,0
25147,-66.6666666666667,4,2,0,50,0,0
25545,-66.6666666666667,4,2,0,50,0,0
25886,-66.6666666666667,4,2,0,50,0,0
26113,-45.4545454545455,4,2,0,69,0,0
27704,-40,4,2,0,69,0,0
28386,-50,4,2,0,69,0,0
28613,-33.3333333333333,4,2,0,69,0,0
29295,-66.6666666666667,4,2,0,69,0,0
29750,-50,4,2,0,69,0,0
30147,-50,4,2,0,5,0,0
30204,-50,4,2,0,69,0,0
30601,-50,4,2,0,5,0,0
30659,-50,4,2,0,69,0,0
31113,-200,4,2,0,69,0,0
31568,-200,4,2,0,69,0,1
32098,-133.333333333333,4,2,0,69,0,1
32211,-133.333333333333,4,2,0,5,0,1
32250,-133.333333333333,4,2,0,69,0,1
33159,-66.6666666666667,4,2,0,69,0,1
33329,-66.6666666666667,4,2,0,5,0,1
33386,-50,4,2,0,50,0,1
33897,-50,4,2,0,5,0,0
34144,-50,4,2,0,5,0,0
34750,-66.6666666666667,4,2,0,40,0,0
34800,-66.6666666666667,4,2,0,5,0,0
34851,-66.6666666666667,4,2,0,40,0,0
34901,-66.6666666666667,4,2,0,5,0,0
34952,-66.6666666666667,4,2,0,40,0,0
35002,-66.6666666666667,4,2,0,5,0,0
35053,-66.6666666666667,4,2,0,40,0,0
35103,-66.6666666666667,4,2,0,5,0,0
35154,-66.6666666666667,4,2,0,40,0,0
36341,-66.6666666666667,4,2,0,50,0,0
40545,-133.333333333333,4,2,0,50,0,0
40772,-133.333333333333,4,2,0,5,0,0
40886,-100,4,2,0,69,0,0
41056,-100,4,2,0,5,0,0
41113,-80,4,2,0,69,0,0
41283,-80,4,2,0,5,0,0
41341,-66.6666666666667,4,2,0,69,0,0
41511,-66.6666666666667,4,2,0,5,0,0
41568,-57.1428571428571,4,2,0,69,0,0
41738,-57.1428571428571,4,2,0,5,0,0
41795,-50,4,2,0,69,0,0
41965,-50,4,2,0,5,0,0
42022,-44.4444444444445,4,2,0,69,0,0
42192,-44.4444444444445,4,2,0,5,0,0
42250,-40,4,2,0,69,0,0
42420,-40,4,2,0,5,0,0
42477,-74.0740740740741,4,2,0,69,0,0
44409,-57.1428571428571,4,2,0,69,0,0
44977,-74.0740740740741,4,2,0,69,0,0
46056,-74.0740740740741,4,2,0,5,0,0
46113,-74.0740740740741,4,2,0,69,0,0
49295,-95.2380952380952,4,2,0,69,0,0
49750,-76.9230769230769,4,2,0,40,0,0
50545,-76.9230769230769,4,2,0,40,0,0
50602,-76.9230769230769,4,2,0,5,0,0
50659,-100,4,2,0,40,0,0
51113,-100,4,2,0,40,0,0
51511,-100,4,2,0,5,0,0
51568,-83.3333333333333,4,2,0,40,0,0
52363,-83.3333333333333,4,2,0,40,0,0
52420,-83.3333333333333,4,2,0,5,0,0
52477,-100,4,2,0,40,0,0
52931,-100,4,2,0,40,0,0
53329,-100,4,2,0,5,0,0
53386,-100,4,2,0,40,0,0
54067,-100,4,2,0,40,0,0
54238,-100,4,2,0,5,0,0
54295,-100,4,2,0,40,0,0
54749,-100,4,2,0,40,0,0
55147,-100,4,2,0,5,0,0
55204,-125,4,2,0,40,0,0
55469,-125,4,2,0,40,0,0
56056,-125,4,2,0,5,0,0
56113,-125,4,2,0,40,0,0
57022,-200,4,2,0,40,0,0
57362,-200,4,2,0,5,0,0
57477,-200,4,2,0,40,0,0
58499,-200,4,2,0,5,0,0
58613,-133.333333333333,4,2,0,40,0,0
60204,-100,4,2,0,40,0,0
60544,-100,4,2,0,5,0,0
60659,-57.1428571428571,4,2,0,69,0,1
61397,-57.1428571428571,4,2,0,5,0,1
61454,-57.1428571428571,4,2,0,69,0,1
61510,-57.1428571428571,4,2,0,5,0,1
61568,-57.1428571428571,4,2,0,69,0,1
62192,-57.1428571428571,4,2,0,5,0,1
62250,-57.1428571428571,4,2,0,69,0,1
63101,-57.1428571428571,4,2,0,5,0,1
63159,-57.1428571428571,4,2,0,69,0,1
63841,-50,4,2,0,69,0,1
64238,-50,4,2,0,5,0,1
64295,-50,4,2,0,40,0,0
70431,-133.333333333333,4,2,0,40,0,0
71795,-50,4,2,0,69,0,0
72136,-45.4545454545455,4,2,0,69,0,0
72591,-41.6666666666667,4,2,0,69,0,0
72761,-41.6666666666667,4,2,0,5,0,0
72818,-41.6666666666667,4,2,0,69,0,0
73386,-50,4,2,0,69,0,0
74295,-45.4545454545455,4,2,0,69,0,0
74749,-45.4545454545455,4,2,0,69,0,0
74863,-41.6666666666667,4,2,0,69,0,0
74976,-41.6666666666667,4,2,0,69,0,0
75091,-41.6666666666667,4,2,0,69,0,0
75318,-41.6666666666667,4,2,0,69,0,0
75431,-38.4615384615385,4,2,0,69,0,0
76056,-38.4615384615385,4,2,0,5,0,0
76113,-35.7142857142857,4,2,0,69,0,0
76681,-35.7142857142857,4,2,0,5,0,0
76719,-35.7142857142857,4,2,0,69,0,0
76984,-35.7142857142857,4,2,0,5,0,0
77022,-35.7142857142857,4,2,0,40,0,0
77059,-35.7142857142857,4,2,0,5,0,0
78841,-35.7142857142857,4,2,0,69,0,0
79295,-57.1428571428571,4,2,0,69,0,1
79920,-57.1428571428571,4,2,0,5,0,1
79977,-57.1428571428571,4,2,0,69,0,1
80204,-66.6666666666667,4,2,0,69,0,1
80943,-66.6666666666667,4,2,0,5,0,1
81000,-80,4,2,0,69,0,1
81568,-100,4,2,0,69,0,1
81681,-100,4,2,0,69,0,1
81795,-44.4444444444445,4,2,0,69,0,1
82192,-44.4444444444445,4,2,0,5,0,1
82250,-50,4,2,0,69,0,1
82420,-50,4,2,0,5,0,1
82477,-57.1428571428571,4,2,0,69,0,1
82817,-57.1428571428571,4,2,0,5,0,1
82931,-57.1428571428571,4,2,0,69,0,1
83271,-57.1428571428571,4,2,0,5,0,1
83386,-50,4,2,0,69,0,1
83556,-50,4,2,0,5,0,1
83613,-66.6666666666667,4,2,0,69,0,1
83953,-66.6666666666667,4,2,0,5,0,1
84068,-50,4,2,0,69,0,1
84238,-50,4,2,0,5,0,1
84295,-50,4,2,0,69,0,1
84409,-100,4,2,0,69,0,1
84864,-86.9565217391304,4,2,0,69,0,1
85204,-76.9230769230769,4,2,0,69,0,1
85659,-66.6666666666667,4,2,0,69,0,1
86056,-66.6666666666667,4,2,0,5,0,1
86113,-50,4,2,0,69,0,0
86510,-50,4,2,0,5,0,0
86568,-66.6666666666667,4,2,0,69,0,1
87420,-66.6666666666667,4,2,0,5,0,1
87477,-66.6666666666667,4,2,0,69,0,1
89919,-66.6666666666667,4,2,0,5,0,1
89977,-58.8235294117647,4,2,0,69,0,1
90147,-58.8235294117647,4,2,0,5,0,1
90204,-52.6315789473684,4,2,0,69,0,1
90374,-52.6315789473684,4,2,0,5,0,1
90431,-47.6190476190476,4,2,0,69,0,1
90601,-47.6190476190476,4,2,0,5,0,1
90659,-43.4782608695652,4,2,0,69,0,1
90829,-43.4782608695652,4,2,0,5,0,1
90886,-40,4,2,0,69,0,1
91056,-40,4,2,0,5,0,1
91113,-37.037037037037,4,2,0,69,0,1
91283,-37.037037037037,4,2,0,5,0,1
91341,-28.5714285714286,4,2,0,69,0,1
91795,-28.5714285714286,4,2,0,69,0,0
92704,-66.6666666666667,4,2,0,69,0,0
92982,-50,4,2,0,69,0,0
93841,-66.6666666666667,4,2,0,69,0,1
97477,-58.8235294117647,4,2,0,69,0,1
97931,-52.6315789473684,4,2,0,69,0,1
98386,-47.6190476190476,4,2,0,69,0,1
98841,-43.4782608695652,4,2,0,69,0,1
99295,-40,4,2,0,69,0,1
99750,-133.333333333333,4,2,0,69,0,0
100545,-50,4,2,0,69,0,0
100659,-50,4,2,0,69,0,1
102250,-46.5116279069767,4,2,0,69,0,1
103159,-43.4782608695652,4,2,0,69,0,1
104068,-40,4,2,0,69,0,1
104465,-40,4,2,0,5,0,1
104522,-100,4,2,0,50,0,0
104673,-100,4,2,0,5,0,0
104750,-88.4955752212389,4,2,0,50,0,0
104901,-88.4955752212389,4,2,0,5,0,0
104977,-80,4,2,0,50,0,0
105128,-80,4,2,0,5,0,0
105204,-72.463768115942,4,2,0,50,0,0
105355,-72.463768115942,4,2,0,5,0,0
105431,-66.6666666666667,4,2,0,50,0,0
105582,-66.6666666666667,4,2,0,5,0,0
105659,-61.3496932515337,4,2,0,50,0,0
105810,-61.3496932515337,4,2,0,5,0,0
105886,-57.1428571428571,4,2,0,50,0,0
106037,-57.1428571428571,4,2,0,5,0,0
106113,-53.1914893617021,4,2,0,60,0,0
106264,-53.1914893617021,4,2,0,5,0,0
106341,-50,4,2,0,60,0,0
106492,-50,4,2,0,5,0,0
106568,-46.9483568075117,4,2,0,60,0,0
106719,-46.9483568075117,4,2,0,5,0,0
106795,-44.4444444444445,4,2,0,60,0,0
106946,-44.4444444444445,4,2,0,5,0,0
107022,-42.0168067226891,4,2,0,69,0,0
107173,-42.0168067226891,4,2,0,5,0,0
107250,-40,4,2,0,69,0,0
107401,-40,4,2,0,5,0,0
107477,-38.0228136882129,4,2,0,69,0,0
107628,-38.0228136882129,4,2,0,5,0,0
107704,-36.3636363636364,4,2,0,69,0,1
108007,-36.3636363636364,4,2,0,5,0,0
109295,-36.3636363636364,4,2,0,69,0,0
110204,-200,4,2,0,69,0,0
110488,-200,4,2,0,5,0,0
110545,-200,4,2,0,69,0,0
113556,-100,4,2,0,69,0,0
113841,-200,4,2,0,69,0,0
114011,-200,4,2,0,5,0,0
114068,-200,4,2,0,69,0,0
116113,-66.6666666666667,4,2,0,69,0,0
116283,-66.6666666666667,4,2,0,5,0,0
116341,-66.6666666666667,4,2,0,69,0,0
116397,-66.6666666666667,4,2,0,5,0,0
116454,-66.6666666666667,4,2,0,69,0,0
116510,-66.6666666666667,4,2,0,5,0,0
116568,-57.1428571428571,4,2,0,69,0,0
117022,-57.1428571428571,4,2,0,69,0,1
117931,-66.6666666666667,4,2,0,69,0,1
122401,-66.6666666666667,4,2,0,69,0,0
123878,-57.1428571428571,4,2,0,69,0,0
124522,-66.6666666666667,4,2,0,69,0,0
124750,-400,4,2,0,69,0,0
124901,-400,4,2,0,5,0,0
124977,-263.157894736842,4,2,0,69,0,0
125128,-263.157894736842,4,2,0,5,0,0
125204,-200,4,2,0,69,0,0
125355,-200,4,2,0,5,0,0
125431,-158.730158730159,4,2,0,69,0,0
125582,-158.730158730159,4,2,0,5,0,0
125659,-133.333333333333,4,2,0,69,0,0
125810,-133.333333333333,4,2,0,5,0,0
125886,-113.636363636364,4,2,0,69,0,0
126037,-113.636363636364,4,2,0,5,0,0
126113,-100,4,2,0,69,0,0
126264,-100,4,2,0,5,0,0
126341,-88.4955752212389,4,2,0,69,0,0
126492,-88.4955752212389,4,2,0,5,0,0
126568,-80,4,2,0,69,0,0
126719,-80,4,2,0,5,0,0
126795,-72.463768115942,4,2,0,69,0,0
126946,-72.463768115942,4,2,0,5,0,0
127022,-66.6666666666667,4,2,0,69,0,0
127173,-66.6666666666667,4,2,0,5,0,0
127250,-61.3496932515337,4,2,0,69,0,0
127401,-61.3496932515337,4,2,0,5,0,0
127477,-57.1428571428571,4,2,0,69,0,0
127628,-57.1428571428571,4,2,0,5,0,0
127704,-53.1914893617021,4,2,0,69,0,0
127855,-53.1914893617021,4,2,0,5,0,0
127931,-50,4,2,0,69,0,0
128082,-50,4,2,0,5,0,0
128159,-46.9483568075117,4,2,0,69,0,0
128310,-46.9483568075117,4,2,0,5,0,0
128386,-44.4444444444445,4,2,0,69,0,0
128537,-44.4444444444445,4,2,0,5,0,0
128613,-42.0168067226891,4,2,0,69,0,0
128764,-42.0168067226891,4,2,0,5,0,0
128841,-40,4,2,0,69,0,0
128992,-40,4,2,0,5,0,0
129068,-38.0228136882129,4,2,0,69,0,0
129219,-38.0228136882129,4,2,0,5,0,0
129295,-36.3636363636364,4,2,0,69,0,0
129446,-36.3636363636364,4,2,0,5,0,0
129522,-34.7222222222222,4,2,0,69,0,1
129825,-34.7222222222222,4,2,0,5,0,0
130318,413.793103448276,4,2,0,69,1,1
130628,-133.333333333333,4,2,0,69,0,0
130731,-133.333333333333,4,2,0,5,0,0

[Colours]
Combo1 : 166,151,185
Combo2 : 226,179,158
Combo3 : 231,165,192
Combo4 : 234,220,179
Combo5 : 249,185,185
Combo6 : 169,175,207

[HitObjects]
158,193,431,6,0,P|159:211|168:232,1,33.75,0|0,2:0|2:0,2:0:0:0:
268,194,545,6,0,P|249:183|268:190,5,67.5,0|0|0|0|0|0,2:0|2:0|2:0|2:0|2:0|2:0,2:0:0:0:
354,191,886,6,0,P|327:124|250:95,1,151.875005793572,0|0,1:0|2:0,2:0:0:0:
158,193,1113,2,0,P|185:260|262:289,1,151.875005793572,0|0,1:0|2:0,2:0:0:0:
349,244,1341,6,0,P|361:166|303:96,1,162,0|0,1:0|2:0,2:0:0:0:
162,139,1568,2,0,P|150:217|208:287,1,162,2|0,1:2|2:0,2:0:0:0:
316,294,1795,6,0,P|370:225|354:127,1,172.125003283024,2|0,1:2|2:0,2:0:0:0:
195,89,2022,2,0,P|141:158|157:256,1,172.125003283024,2|0,1:2|2:0,2:0:0:0:
257,322,2250,6,0,P|346:286|385:184,1,182.249994438172,2|0,1:2|2:0,2:0:0:0:
254,61,2477,2,0,P|165:97|126:199,1,182.249994438172,2|0,1:2|2:0,2:0:0:0:
185,316,2704,6,0,P|290:331|383:255,1,192.374994863033,2|0,1:2|2:0,2:0:0:0:
326,67,2931,2,0,P|221:52|128:128,1,192.374994863033,2|0,1:2|2:0,2:0:0:0:
120,272,3159,6,0,P|211:344|342:322,1,202.5,4|0,1:0|2:0,2:0:0:0:
392,112,3386,6,0,P|368:80|348:64,1,50.6250019311906,2|0,2:0|2:0,2:0:0:0:
116,8,3613,6,2,L|160:12,1,33.75,2|0,3:0|2:0,2:0:0:0:
208,20,3727,2,0,L|182:56,1,33.75,2|0,3:0|2:0,2:0:0:0:
150,94,3841,1,2,3:0:0:0:
20,72,3954,6,0,L|32:32,1,25.3125009655953,0|0,3:0|2:0,2:0:0:0:
12,80,4068,6,0,B|40:76|40:76|52:92|52:92|68:88|68:88|139:93,1,135,2|0,3:2|1:0,2:0:0:0:
392,112,4295,6,0,B|374:82|374:82|361:85|361:85|357:120,1,84.375,4|0,1:2|2:0,2:0:0:0:
412,200,4636,6,0,L|387:206,2,25.3125009655953,0|0|0,2:0|2:0|2:0,2:0:0:0:
464,264,4750,6,0,B|432:227|477:179|552:208|559:284|504:353|426:332|440:218|369:224|328:268,1,337.5,2|0,3:2|2:0,2:1:0:0:
72,352,5204,5,0,2:0:0:0:
408,312,5659,1,0,3:0:0:0:
76,264,6000,1,0,2:0:0:0:
72,352,6113,5,0,3:0:0:0:
152,312,6227,2,0,P|184:280|172:220,1,101.250003862381,0|0,1:0|2:0,2:0:0:0:
252,20,6454,2,0,P|284:51|272:112,1,101.250003862381,0|0,1:0|2:0,2:0:0:0:
0,304,6909,1,0,2:0:0:0:
72,352,7022,5,0,3:0:0:0:
408,312,7477,1,0,2:0:0:0:
76,264,7818,1,0,2:0:0:0:
72,352,7931,6,0,B|84:349|84:349|92:353|92:353|164:342,1,67.5,0|0,1:0|2:0,2:0:0:0:
228,333,8272,1,0,3:0:0:0:
408,312,8386,1,2,2:0:0:0:
0,304,8727,6,0,L|36:328,1,33.75,0|0,3:0|3:0,2:0:0:0:
72,351,8841,1,0,3:0:0:0:
408,312,9295,1,0,2:0:0:0:
76,264,9636,1,0,2:0:0:0:
72,352,9750,6,0,P|42:312|44:256,1,101.25,4|0,3:0|2:0,1:0:0:0:
76,176,10204,6,0,B|63:145|63:145|104:145|104:145|124:120|124:120|108:83|108:83|140:83|140:83|192:12,1,236.25,2|0,1:0|2:0,2:0:0:0:
264,24,10659,6,0,B|289:21|289:21|278:61|278:61|297:86|297:86|337:80|337:80|329:111|329:111|386:156|386:156|386:211|386:211|432:248,1,354.375013518334,4|0,1:2|2:0,2:0:0:0:
416,292,11113,6,0,B|394:306|394:306|376:269|376:269|345:262|345:262|319:293|319:293|296:265|296:265|233:268|233:268|197:226|197:226|164:243|164:243|92:228,1,405,4|0,1:2|2:0,2:0:0:0:
44,256,11492,2,0,P|59:229|71:220,1,45,0|0,2:0|2:0,2:0:0:0:
96,184,11568,6,0,P|176:244|124:340,1,182.250000695229,2|0,1:0|2:0,1:0:0:0:
252,200,11909,2,0,P|252:176|240:140,1,45.5625001738071,0|0,1:0|2:0,2:0:0:0:
112,144,12022,2,0,P|68:156|23:152,1,91.1250003476143,8|0,3:2|2:0,2:0:0:0:
188,24,12250,1,2,2:0:0:0:
164,220,12363,1,0,3:0:0:0:
56,44,12477,6,0,P|-10:95|8:188,1,182.250000695229,0|0,1:0|2:0,2:0:0:0:
164,220,12818,1,0,3:0:0:0:
288,56,12931,1,10,1:2:0:0:
360,252,13045,2,0,P|321:256|296:268,1,60.7500002317429,0|2,1:0|2:0,2:0:0:0:
264,288,13159,2,0,P|260:248|300:152,1,136.687500521421,0|0,3:0|2:0,2:0:0:0:
360,116,13386,6,0,P|432:188|512:164,1,182.250000695229,0|0,1:0|2:0,2:0:0:0:
464,20,13727,1,0,3:0:0:0:
392,152,13840,2,0,P|400:188|372:264,1,91.1250003476143,10|0,1:2|1:0,2:0:0:0:
190,330,14068,2,0,P|182:294|210:218,1,91.1250003476143,0|0,3:0|3:0,2:0:0:0:
264,288,14238,1,0,3:0:0:0:
264,288,14295,6,0,B|107:279|107:279|80:304,1,182.250000695229,2|2,1:2|2:0,2:0:0:0:
256,384,14636,1,0,3:0:0:0:
372,360,14749,2,0,P|376:320|332:260,1,91.1250003476143,8|0,1:2|2:0,2:0:0:0:
300,160,14977,2,0,P|296:200|308:232,1,45.5625001738071,8|0,3:0|2:0,2:0:0:0:
268,296,15091,1,0,2:0:0:0:
268,296,15147,1,2,2:0:0:0:
268,296,15204,6,0,B|225:290|225:290|196:316|196:316|128:304|128:304|100:315,1,182.250000695229,4|0,1:2|2:0,2:0:0:0:
0,184,15545,2,0,P|9:201|8:232,1,45.5625001738071,0|0,1:0|2:0,2:0:0:0:
0,364,15659,6,0,P|12:292|84:280,1,151.875005793572,8|0,1:2|2:0,2:0:0:0:
153,225,15886,2,0,P|116:258|118:307,1,101.250003862381,2|0,2:0|2:0,2:0:0:0:
372,144,16113,2,0,P|352:80|308:60,1,101.250003862381,0|0,1:0|2:0,2:0:0:0:
248,108,16284,1,2,2:0:0:0:
248,108,16341,2,0,P|268:172|312:192,1,101.250003862381,2|0,2:0|3:0,2:0:0:0:
476,384,16568,6,0,B|481:345|481:345|464:312|464:312|476:220,1,168.75,8|0,1:2|2:0,2:0:0:0:
488,240,16909,6,0,P|452:252|416:224,1,67.5,0|2,3:0|2:0,2:0:0:0:
316,236,17022,5,0,1:0:0:0:
370,231,17079,2,0,P|426:251|438:327,1,135,2|0,2:0|2:0,2:0:0:0:
278,383,17306,1,2,2:0:0:0:
170,243,17420,1,2,2:0:0:0:
222,239,17477,6,0,P|205:310|140:338,1,101.250003862381,4|0,1:2|2:0,2:0:0:0:
18,270,17704,1,8,3:0:0:0:
138,139,17818,1,2,2:0:0:0:
120,224,17931,6,0,P|97:218|50:161,1,91.1250003476143,4|0,1:3|2:0,2:0:0:0:
256,24,18159,2,0,B|263:67|248:74|256:113,1,91.1250003476143,0|0,1:0|2:0,2:0:0:0:
340,208,18329,1,0,3:0:0:0:
392,224,18386,2,0,P|415:218|462:161,1,91.1250003476143,2|0,1:3|2:0,2:0:0:0:
256,194,18613,2,0,B|248:233|263:240|256:284,1,91.1250003476143,2|0,1:3|2:0,2:0:0:0:
256,364,18784,1,0,3:0:0:0:
256,364,18841,6,0,B|224:292|231:208|281:226|288:142|256:70,2,303.750011587143,4|0|8,1:2|1:0|3:2,2:0:0:0:
120,124,19750,6,0,P|97:130|50:187,1,91.1250003476143,2|0,3:2|2:0,2:0:0:0:
256,285,19977,2,0,B|263:241|248:234|256:195,1,91.1250003476143,0|0,1:0|2:0,2:0:0:0:
340,140,20147,1,0,3:0:0:0:
392,124,20205,2,0,P|415:130|433:143,1,45.5625001738071,0|0,1:0|2:0,2:0:0:0:
444,220,20318,2,0,P|427:236|407:246,1,45.5625001738071,0|0,1:0|2:0,2:0:0:0:
336,216,20431,2,0,P|329:193|331:170,1,45.5625001738071,2|0,3:2|2:0,2:0:0:0:
256,36,20602,1,0,3:0:0:0:
256,36,20659,6,0,B|180:104|219:215|291:170|329:281|254:349,2,354.375003379583,4|0|8,1:2|1:0|3:2,2:0:0:0:
252,268,21568,5,8,3:0:0:0:
140,320,21719,6,0,P|176:296|200:260,1,78.7500007510185,4|0,3:0|2:0,2:0:0:0:
257,114,21871,2,0,P|259:157|278:195,1,78.7500007510185,4|0,3:0|2:0,2:0:0:0:
372,320,22022,2,0,P|333:300|290:298,1,78.7500007510185,2|0,3:2|3:0,2:0:0:0:
244,236,22174,5,4,3:0:0:0:
273,246,22325,1,0,1:0:0:0:
312,64,22477,6,0,P|320:44|344:28,4,39.3750003755093,4|0|2|2|0,2:0|2:0|2:0|2:0|2:0,2:0:0:0:
320,64,22666,2,0,B|233:138|245:48|143:16|76:99|133:165|24:157,1,337.5,0|0,2:0|2:0,2:0:0:0:
32,168,23272,2,0,P|12:176|-4:200,4,39.3750003755093,0|0|2|4|0,2:0|2:0|2:0|2:0|2:0,2:0:0:0:
44,176,23462,6,0,P|47:229|92:276,1,91.1250003476143,0|0,2:0|2:0,2:0:0:0:
200,284,23670,2,0,L|228:240,2,29.5312502816319,0|2|0,2:0|2:0|2:0,2:0:0:0:
140,348,23803,2,0,P|116:340|92:340,7,39.3750003755093,0|0|0|0|0|0|0|0,2:0|2:0|2:0|2:0|2:0|2:0|2:0|2:0,2:0:0:0:
140,348,24295,5,4,2:0:0:0:
180,324,24371,1,0,2:0:0:0:
228,320,24447,1,0,2:0:0:0:
272,336,24522,1,0,2:0:0:0:
320,328,24598,1,0,2:0:0:0:
352,296,24674,1,0,2:0:0:0:
356,248,24750,2,0,P|357:217|347:181,1,67.5000025749207,2|0,2:0|2:0,2:0:0:0:
232,140,24920,2,0,P|232:80|280:28,1,101.250003862381,2|0,2:0|2:0,2:0:0:0:
332,8,25091,6,0,L|400:16,16,50.6250019311906,2|0|0|0|0|0|0|0|0|0|0|0|0|0|0|0|0,2:0|2:0|2:0|2:0|2:0|2:0|2:0|2:0|2:0|2:0|2:0|2:0|2:0|2:0|2:0|2:0|2:0,2:0:0:0:
344,96,26037,1,8,3:0:0:0:
344,96,26075,1,8,3:0:0:0:
344,96,26113,6,0,B|328:88|328:88|352:72|352:72|300:32|300:32|240:40|240:40|204:96|204:96|224:152,1,297.000009063721,4|8,1:2|3:0,2:0:0:0:
312,200,26416,1,4,3:0:0:0:
316,188,26492,1,4,3:0:0:0:
308,180,26568,6,0,B|290:181|290:181|303:156|303:156|238:147|238:147|190:184|190:184|186:250|186:250|120:292,1,297.000009063721,4|4,1:2|3:0,2:0:0:0:
404,332,27022,6,0,B|336:220|336:220|336:344|336:344|296:340,1,297.000009063721,4|8,1:2|3:0,2:0:0:0:
292,356,27306,1,8,3:0:0:0:
280,348,27363,2,0,L|308:248,1,74.2500022659302,4|0,3:0|2:0,2:0:0:0:
332,136,27477,1,2,1:3:0:0:
0,340,27704,6,0,B|14:367|14:367|29:243|29:243|108:281|108:281|139:233|139:233|183:238|183:238|298:180|298:180|309:184|309:184|432:120|432:120|417:139|417:139|425:173,1,675,6|0,1:0|1:0,2:0:0:0:
432,188,28234,5,0,1:0:0:0:
468,132,28310,1,0,1:0:0:0:
428,80,28386,2,8,B|380:76|380:76|356:112,1,90,8|8,3:0|3:0,3:0:0:0:
404,332,28537,1,4,3:0:0:0:
388,348,28613,6,0,B|348:340|348:340|288:212|288:212|288:176|288:176|228:40|228:40|188:32,1,405.000015449524,8|0,3:0|1:0,2:0:0:0:
108,68,28916,5,8,3:0:0:0:
68,108,28992,1,8,3:0:0:0:
104,160,29068,1,4,3:0:0:0:
68,208,29144,1,0,2:0:0:0:
68,208,29219,1,0,3:0:0:0:
68,208,29295,6,0,B|88:232|88:232|92:308,3,101.250003862381,4|0|4|0,1:3|3:0|3:0|3:0,2:0:0:0:
0,272,29750,6,0,B|64:264|64:264|88:128|88:128|184:116|184:116|232:248|232:248|208:288,1,472.5,4|0,1:2|2:0,2:0:0:0:
188,224,30204,2,0,B|252:232|252:232|276:368|276:368|372:380|372:380|420:248|420:248|396:208,1,472.5,4|0,1:2|2:0,2:0:0:0:
452,192,30659,5,0,1:3:0:0:
404,200,30716,1,0,1:3:0:0:
356,208,30772,1,8,1:3:0:0:
308,216,30829,1,8,1:3:0:0:
260,224,30886,1,8,1:3:0:0:
212,232,30943,1,8,1:3:0:0:
164,240,30999,1,8,1:3:0:0:
116,248,31056,1,8,1:3:0:0:
68,256,31113,6,0,L|-24:272,1,67.5,6|2,1:0|3:2,2:0:0:0:
1,267,31454,1,0,2:0:0:0:
0,132,31568,5,2,3:2:0:0:
40,72,31644,1,2,3:2:0:0:
108,96,31719,1,8,3:2:0:0:
96,168,31795,1,2,3:0:0:0:
84,240,31871,1,2,3:1:0:0:
152,264,31946,1,2,3:2:0:0:
188,204,32022,1,2,3:0:0:0:
228,144,32098,2,0,L|282:164,1,50.6250019311906,2|0,3:2|2:0,2:0:0:0:
281,173,32250,5,0,1:0:0:0:
353,190,32326,1,0,3:0:0:0:
424,207,32401,1,2,3:2:0:0:
449,138,32477,1,0,3:0:0:0:
389,98,32552,1,2,3:2:0:0:
329,58,32628,2,0,L|349:4,2,33.7500012874604,2|0|2,3:0|3:0|3:2,2:0:0:0:
320,68,32856,1,8,2:0:0:0:
260,24,32931,5,0,1:0:0:0:
144,56,33045,1,0,1:0:0:0:
228,144,33159,6,0,P|222:212|154:207,1,151.875005793572,8|0,3:0|2:0,2:0:0:0:
72,144,33386,6,0,B|109:142|109:142|140:187|140:187|223:173|223:173|281:273|281:273|431:240|431:240|506:388,1,607.5,4|0,3:0|2:0,2:0:0:0:
4,344,34750,6,0,L|64:344,1,45.0000017166138,0|0,3:0|3:0,3:0:0:0:
21,316,34851,6,0,L|51:264,1,45.0000017166138,0|0,3:0|3:0,3:0:0:0:
57,316,34952,6,0,L|117:316,1,45.0000017166138,0|0,3:0|3:0,3:0:0:0:
74,288,35053,6,0,L|104:236,1,45.0000017166138,0|0,3:0|3:0,3:0:0:0:
109,288,35154,5,0,3:0:0:0:
117,288,35204,1,4,1:0:0:0:
492,32,36341,5,0,2:0:0:0:
489,22,36417,1,2,2:0:0:0:
484,30,36493,1,2,2:0:0:0:
449,62,36568,5,0,2:0:0:0:
411,43,36643,5,2,2:0:0:0:
407,62,36719,1,2,2:0:0:0:
395,46,36795,1,0,2:0:0:0:
373,80,36871,5,2,2:0:0:0:
335,99,36946,5,0,2:0:0:0:
331,80,37022,1,2,2:0:0:0:
319,95,37098,1,0,2:0:0:0:
293,118,37174,5,2,2:0:0:0:
251,96,37249,5,2,2:0:0:0:
248,134,37325,1,0,2:0:0:0:
225,103,37401,1,2,2:0:0:0:
202,145,37477,5,2,2:0:0:0:
177,185,37552,5,0,2:0:0:0:
155,155,37628,1,2,2:0:0:0:
151,192,37704,1,2,2:0:0:0:
111,168,37780,5,2,2:0:0:0:
56,177,37855,5,0,2:0:0:0:
79,211,37931,1,2,2:0:0:0:
40,204,38007,1,0,2:0:0:0:
50,255,38083,5,2,2:0:0:0:
66,296,38158,5,2,2:0:0:0:
17,291,38234,1,2,2:0:0:0:
51,327,38310,1,2,2:0:0:0:
4,344,38386,5,0,2:0:0:0:
92,336,38613,1,2,2:0:0:0:
168,288,38841,1,2,2:0:0:0:
212,160,39068,1,0,2:0:0:0:
256,288,39295,1,0,2:0:0:0:
300,160,39522,1,0,2:0:0:0:
344,288,39750,1,0,2:0:0:0:
420,336,39977,1,0,2:0:0:0:
508,344,40204,1,0,2:0:0:0:
256,288,40431,5,0,2:0:0:0:
256,376,40545,2,0,L|256:268,1,101.250003862381,0|0,2:0|2:0,2:0:0:0:
4,344,40886,6,0,P|48:328|68:268,1,101.25,4|0,1:2|2:0,2:0:0:0:
92,336,41113,6,0,P|114:286|83:223,1,126.5625,0|0,1:0|2:0,2:0:0:0:
132,256,41341,6,0,P|196:249|245:176,1,151.875005793572,0|0,1:0|2:0,2:0:0:0:
244,244,41568,6,0,P|236:168|144:144,1,177.187501689792,0|0,1:0|2:0,2:0:0:0:
156,172,41795,6,0,P|272:132|288:52,1,202.5,4|0,1:2|2:0,2:0:0:0:
228,124,42022,6,0,P|248:64|392:68,1,227.812508690358,4|0,1:2|2:0,2:0:0:0:
308,92,42250,6,0,P|376:8|528:12,1,253.125,4|0,1:2|2:0,2:0:0:0:
476,84,42477,6,0,B|456:156|456:156|472:184|472:184|452:268,1,182.250000695229,4|2,1:0|3:2,2:0:0:0:
432,344,42818,1,0,3:0:0:0:
500,236,42931,1,8,1:2:0:0:
386,183,43045,2,0,B|410:147|410:147|459:158,1,91.1250003476143,0|0,1:0|2:0,2:0:0:0:
348,308,43272,6,0,L|160:314,1,182.250000695229,0|2,1:0|3:2,2:0:0:0:
72,316,43613,1,0,1:0:0:0:
16,80,43841,5,8,1:2:0:0:
142,129,43955,2,0,B|118:165|118:165|69:154,1,91.1250003476143,2|0,2:0|3:0,2:0:0:0:
180,3,44182,6,0,L|336:-1,1,91.1250003476143,2|0,2:0|3:0,2:0:0:0:
456,157,44409,6,0,B|471:180|471:180|460:140|472:88,1,118.125001126528,2|0,1:2|2:0,2:0:0:0:
471,90,44636,2,0,B|456:67|456:67|467:107|455:159,1,118.125001126528,4|8,1:2|3:0,2:0:0:0:
396,300,44863,5,0,2:0:0:0:
316,164,44977,2,0,P|271:161|231:182,1,91.1250003476143,4|0,1:3|2:0,2:0:0:0:
139,360,45204,6,0,B|152:276|232:268|232:268|204:284|200:304,1,182.250000695229,0|4,1:0|1:2,2:0:0:0:
85,280,45545,2,0,P|39:275|0:255,1,91.1250003476143,0|2,2:0|1:0,2:0:0:0:
244,368,45772,1,0,2:0:0:0:
148,212,45886,2,0,P|116:180|92:93,1,136.687500521421,2|0,1:3|2:0,2:0:0:0:
104,16,46113,6,0,P|124:104|72:176,1,182.250000695229,6|0,1:0|3:0,2:0:0:0:
20,44,46454,1,0,1:0:0:0:
212,80,46568,2,0,B|260:100|312:72|312:72|260:108,1,136.687500521421,8|0,1:2|2:0,2:0:0:0:
212,80,46795,6,0,P|220:36|232:16,2,45.5625001738071,0|0|2,3:0|2:0|2:0,2:0:0:0:
74,175,47022,2,0,P|58:133|58:85,1,91.1250003476143,0|0,3:0|2:0,2:0:0:0:
200,184,47250,2,0,P|216:226|216:274,1,91.1250003476143,0|0,1:0|2:0,2:0:0:0:
14,306,47477,2,0,B|13:228|87:214|87:214|104:240|132:241,1,182.250000695229,8|2,1:2|1:2,2:0:0:0:
292,192,47818,1,2,2:0:0:0:
260,352,47931,6,0,P|296:324|364:304,1,91.1250003476143,0|0,1:0|2:0,2:0:0:0:
500,280,48159,2,0,P|497:258|489:237,3,45.5625001738071,2|0|2|0,2:0|2:0|3:2|2:0,2:0:0:0:
416,280,48386,1,4,1:0:0:0:
404,252,48443,1,0,2:0:0:0:
400,220,48499,1,2,2:0:0:0:
408,188,48556,1,2,2:0:0:0:
428,164,48613,6,0,P|436:142|438:119,1,45.5625001738071,2|2,2:0|2:0,2:0:0:0:
372,36,48727,2,0,P|364:58|362:81,1,45.5625001738071,2|0,2:0|2:0,2:0:0:0:
324,168,48841,6,0,P|302:160|279:158,3,45.5625001738071,0|0|0|0,1:0|2:0|2:0|2:0,2:0:0:0:
284,256,49068,2,0,P|262:264|239:266,3,45.5625001738071,0|0|0|0,1:0|2:0|2:0|2:0,2:0:0:0:
152,228,49295,6,0,P|146:245|145:263,3,35.4374989185334,2|0|0|0,1:2|2:0|2:0|2:0,2:0:0:0:
100,167,49522,2,0,P|94:150|93:132,3,35.4374989185334,2|0|0|0,3:2|2:0|2:0|2:0,2:0:0:0:
72,240,49750,6,0,B|60:284|3:295|-48:272|-73:139|-12:84|103:67|212:100|212:100|124:92|88:116|72:164|120:180,1,614.249971881868,4|0,1:0|2:0,2:0:0:0:
224,16,50659,6,0,B|188:48|200:112|260:134|328:112|340:28|432:96,1,270,2|0,2:0|2:0,2:0:0:0:
439,127,51227,1,0,2:0:0:0:
488,92,51341,1,0,2:0:0:0:
339,251,51568,6,0,B|287:283|267:431|491:451|575:359|575:179|479:83,1,566.999982696534,2|0,2:0|2:0,2:0:0:0:
423,267,52477,6,0,B|405:306|444:341|523:358|558:245|479:175,1,270,2|0,2:0|2:0,2:0:0:0:
439,127,53045,1,0,2:0:0:0:
387,159,53159,1,0,2:0:0:0:
296,320,53386,6,0,B|304:248|264:200|216:220|164:300|108:144|140:44|272:64|324:120|280:168,1,405,2|0,2:0|2:0,2:0:0:0:
40,340,54295,6,0,P|85:219|212:196,1,270,2|0,2:0|2:0,2:0:0:0:
268,220,54863,1,0,2:0:0:0:
271,280,54977,1,0,2:0:0:0:
112,383,55204,6,0,P|133:326|204:311,1,126,2|0,2:0|2:0,2:0:0:0:
191,308,55545,1,0,2:0:0:0:
191,308,55621,1,0,2:0:0:0:
464,384,55886,2,0,P|456:346|464:296,1,54,0|0,2:0|2:0,2:0:0:0:
364,336,56113,5,2,2:0:0:0:
396,176,56341,1,2,2:0:0:0:
428,16,56569,1,2,2:0:0:0:
436,24,57022,6,0,P|374:37|330:25,1,101.25,4|0,2:0|2:0,2:0:0:0:
252,48,57477,1,2,2:0:0:0:
248,44,57931,1,0,2:0:0:0:
400,115,58159,2,0,B|405:143|424:160|424:160|405:143|377:139,1,101.25,2|0,2:0|2:0,2:0:0:0:
328,68,58613,6,0,P|237:46|127:127,1,202.500007724762,2|0,2:0|2:0,2:0:0:0:
60,84,59181,1,0,2:0:0:0:
88,164,59295,2,0,B|90:192|77:213|77:213|90:192|116:180,1,101.25,2|0,2:0|2:0,2:0:0:0:
284,384,59750,1,0,2:0:0:0:
284,384,60204,6,0,B|261:365|263:345|263:345|305:305|305:245|261:207,1,202.5,0|0,2:0|2:0,2:0:0:0:
240,120,60659,6,0,B|196:124|180:162|180:162|176:134|188:118,1,118.125001126528,4|2,1:0|2:0,2:0:0:0:
360,0,60886,1,8,3:0:0:0:
372,8,60943,1,8,3:0:0:0:
376,24,61000,1,8,3:0:0:0:
388,16,61056,1,8,3:0:0:0:
403,19,61113,6,0,P|375:26|359:51,1,59.0625005632639,0|0,1:0|2:0,2:0:0:0:
480,148,61227,2,0,B|494:130|487:87|487:87|463:145|396:151,1,177.187501689792,4|0,3:0|2:0,2:0:0:0:
284,216,61454,6,0,P|291:188|316:172,1,59.0625005632639,4|0,1:0|2:0,2:0:0:0:
392,304,61568,1,2,2:0:0:0:
392,304,61681,1,2,2:0:0:0:
120,360,61795,5,2,3:0:0:0:
120,360,61909,5,2,2:0:0:0:
120,360,62022,5,2,2:0:0:0:
0,288,62136,6,0,P|7:315|32:331,1,59.0625005632639,4|0,1:2|2:0,2:0:0:0:
8,204,62250,1,0,2:0:0:0:
132,212,62363,6,0,B|120:202|92:206|92:206|130:222|134:266,1,118.125001126528,4|0,1:2|2:0,2:0:0:0:
248,368,62591,5,2,2:0:0:0:
208,328,62704,5,0,2:0:0:0:
304,216,62818,5,2,2:0:0:0:
208,92,62932,5,2,3:2:0:0:
380,0,63045,6,0,P|352:7|336:32,1,59.0625005632639,4|0,1:0|2:0,2:0:0:0:
464,8,63159,1,0,2:0:0:0:
456,132,63272,6,0,B|465:120|461:92|461:92|445:130|401:134,1,118.125001126528,4|2,1:2|2:0,2:0:0:0:
300,128,63500,1,2,2:0:0:0:
264,244,63613,1,0,2:0:0:0:
80,68,63727,5,2,2:0:0:0:
64,84,63841,2,0,B|80:158|100:236|56:313|56:313|24:228|60:156|92:84,1,472.5,4|0,1:2|2:0,2:0:0:0:
80,68,64295,1,4,1:2:0:0:
256,192,64352,12,0,67931,2:0:0:0:
408,288,70431,6,0,P|366:290|287:286,2,101.250003862381,0|0|0,3:0|3:0|2:0,2:0:0:0:
464,216,71000,1,0,3:0:0:0:
464,216,71227,5,0,3:0:0:0:
436,172,71341,1,0,2:0:0:0:
428,120,71454,1,0,2:0:0:0:
440,68,71568,1,4,3:0:0:0:
440,68,71795,6,0,B|464:149|464:149|523:87|523:87|449:70|449:70|436:23,1,270,2|0,1:0|2:0,2:0:0:0:
376,164,72136,6,0,B|404:258|404:258|473:186|473:186|387:166|387:166|372:111,1,297.000009063721,2|8,1:0|3:0,2:0:0:0:
360,36,72477,1,2,1:0:0:0:
512,4,72591,6,0,B|500:32|500:32|280:84,1,242.999992584229,4|0,3:0|2:0,2:0:0:0:
216,100,72818,1,6,1:0:0:0:
216,100,73386,6,0,B|216:36|216:36|280:36|280:36|280:100|280:100|223:101|223:101|180:152,1,270,8|2,3:0|1:0,2:0:0:0:
176,248,73727,5,8,3:0:0:0:
168,260,73784,1,8,3:0:0:0:
160,248,73841,2,4,L|160:176,1,67.5,4|4,3:0|3:0,3:0:0:0:
124,108,73954,2,0,L|124:180,1,67.5,2|0,1:0|2:0,2:0:0:0:
48,256,74068,5,4,3:0:0:0:
60,264,74125,1,4,3:0:0:0:
52,276,74181,1,0,1:0:0:0:
40,268,74238,1,0,1:0:0:0:
48,256,74295,2,0,L|84:186,1,74.2500022659302,2|0,1:0|2:0,2:0:0:0:
56,80,74409,5,8,3:0:0:0:
48,92,74466,2,0,L|125:130,1,74.2500022659302,8|4,3:0|3:0,2:0:0:0:
232,92,74580,5,8,3:0:0:0:
212,92,74636,2,0,B|212:58|212:58|180:58|180:58|180:92|180:92|209:92|209:92|231:119,1,148.50000453186,2|0,1:0|2:0,2:0:0:0:
292,200,74863,6,0,B|274:190|274:190|255:232|255:232|283:242|283:242|292:203|292:203|323:178,1,161.999995056153,2|0,1:0|2:0,2:0:0:0:
432,88,75091,6,0,B|428:27|428:27|484:4|484:4|522:50|522:50|491:101|491:101|440:89|440:89|398:114,1,323.999990112305,2|0,1:0|2:0,2:0:0:0:
452,284,75431,6,0,B|396:250|396:250|346:291|346:291|371:351|371:351|435:347|435:347|449:293|449:293|494:265,1,350.999983932496,4|4,1:2|2:3,2:0:0:0:
500,376,75716,1,4,3:0:0:0:
476,384,75772,6,0,B|500:254|500:254|390:186|390:186|292:276|292:276|188:216,1,438.74997991562,4|0,1:2|2:0,2:0:0:0:
232,328,76113,6,0,B|181:300|181:300|168:228|168:228|116:200,1,188.999994232178,4|4,1:2|2:3,2:0:0:0:
114,148,76284,1,4,3:0:0:0:
164,132,76341,2,0,B|174:128|174:128|215:150|215:150|219:161|219:161|204:203|204:203|193:207,1,125.999996154785,8|4,3:0|3:0,2:0:0:0:
100,280,76511,6,0,B|75:287|75:287|-15:238|-15:238|-26:213|-26:213|8:118|8:118|34:108,1,283.499991348267,0|0,2:0|2:0,2:0:0:0:
8,104,76719,6,0,B|25:98|25:98|380:298|380:298|397:292,1,440.999986541748,4|0,1:0|2:0,2:0:0:0:
397,308,77022,6,0,P|428:334|471:327,1,62.9999980773926,2|0,2:0|2:0,2:0:0:0:
512,280,78841,5,4,1:2:0:0:
512,280,79295,6,0,B|466:150|224:339|324:449|425:483|502:407|516:302|448:224|441:128|355:149|263:193|253:261|278:292|382:309|373:186|334:155|310:168,1,649.687506195903,8|0,1:2|2:0,1:0:0:0:
320,156,79977,5,0,1:0:0:0:
328,8,80091,1,0,2:0:0:0:
204,96,80204,2,0,B|128:136|151:226|231:184|212:99,1,202.500007724762,8|0,1:2|1:0,2:0:0:0:
56,192,80545,1,2,2:0:0:0:
80,332,80659,6,0,B|82:352|64:393|36:399|3:340|51:265|125:253|181:292,1,253.125009655953,2|0,1:2|2:0,2:0:0:0:
259,341,81000,2,0,B|270:367|255:437|203:392|195:263|275:289|316:313|306:371|387:324,1,253.125,2|0,2:0|1:0,2:0:0:0:
504,244,81454,1,2,2:0:0:0:
458,313,81568,2,0,B|485:341|465:361|452:341|454:321,1,67.5,0|2,3:0|2:0,2:0:0:0:
324,240,81795,6,0,B|272:251|237:236|161:105|193:10|256:-28|320:10|351:105|276:236|241:251|189:240,1,531.562520277501,2|0,1:0|2:0,2:0:0:0:
128,192,82250,6,0,B|108:187|94:193|65:243|78:279|102:294|126:279|138:243|109:193|96:187|76:192,1,202.5,2|0,1:0|2:0,2:0:0:0:
80,100,82477,6,0,B|83:120|83:120|54:107|54:107|49:181|49:181|94:231|94:231|168:231|168:231|220:301,1,354.375003379583,4|0,1:2|2:0,2:0:0:0:
413,65,82931,2,0,B|394:56|394:56|419:38|419:38|359:-3|359:-3|292:10|292:10|256:75|256:75|169:85,1,354.375003379583,2|0,1:0|2:0,2:0:0:0:
276,370,83386,6,0,B|289:361|289:361|292:386|292:386|347:360|347:360|366:306|366:306|334:252|334:252,1,202.5,4|0,1:2|2:0,2:0:0:0:
312,190,83613,6,0,B|300:143|334:106|334:106|314:163|329:226|379:259|431:253,1,303.750011587143,0|0,1:0|2:0,2:0:0:0:
511,324,84068,6,2,P|444:278|446:165,1,202.5,2|0,2:0|2:0,2:0:0:0:
500,96,84295,5,4,1:2:0:0:
468,244,84409,2,0,P|454:262|408:277,1,67.5,2|2,3:2|3:2,2:0:0:0:
272,268,84636,1,0,3:0:0:0:
156,48,84750,5,4,1:0:0:0:
313,9,84864,2,0,P|336:13|377:50,1,77.6250014805794,2|2,3:2|2:0,2:0:0:0:
143,330,85091,5,2,3:2:0:0:
12,188,85204,2,0,P|17:162|60:115,1,87.749995983124,4|0,1:0|2:0,2:0:0:0:
376,212,85431,5,4,2:0:0:0:
296,340,85545,1,0,3:0:0:0:
143,330,85659,6,0,B|78:329|49:280|35:208|112:129|203:174|218:201|144:247|67:239|49:188|68:172,1,354.375013518334,4|0,1:2|2:0,2:0:0:0:
100,104,86113,6,0,B|108:140|94:168|94:168|116:236|188:240|188:240|164:128|252:44|357:76,1,472.5,4|0,1:0|2:0,2:0:0:0:
288,120,86568,6,0,P|271:74|287:26,1,101.250003862381,8|0,1:2|2:0,2:0:0:0:
496,0,86795,1,0,1:0:0:0:
460,40,86871,1,0,3:0:0:0:
500,80,86947,1,0,3:0:0:0:
464,120,87022,6,0,L|452:236,1,101.250003862381,0|0,1:0|2:0,2:0:0:0:
340,368,87250,2,0,B|280:348|279:283|279:283|312:252,1,151.875005793572,2|0,1:2|2:0,2:0:0:0:
288,176,87477,2,0,P|248:144|168:160,1,101.250003862381,2|0,1:2|2:0,2:0:0:0:
56,20,87704,6,0,L|28:323,1,303.750011587143,4|0,1:2|2:0,2:0:0:0:
120,332,88159,1,0,3:0:0:0:
128,240,88272,1,2,3:0:0:0:
36,232,88386,5,8,1:2:0:0:
47,125,88500,1,2,3:0:0:0:
56,20,88613,2,0,B|27:18|27:18|75:4|101:35|101:35|131:78|194:66,1,202.500007724762,0|0,1:0|3:0,2:0:0:0:
372,44,88954,1,0,2:0:0:0:
268,0,89068,1,0,1:0:0:0:
368,332,89296,2,0,B|335:372|335:372|291:341,1,101.250003862381,2|0,1:2|2:0,2:0:0:0:
256,192,89522,6,0,B|233:201|233:201|250:228|250:228|175:253|175:253|111:219|111:219|94:142|94:142|132:164|132:164|168:152,1,354.375013518334,4|0,1:2|2:0,2:0:0:0:
188,124,89977,6,0,B|194:116|194:116|179:113|179:113|198:82|198:82|230:74|230:74|260:96|260:96|301:82,1,172.125003283024,0|0,1:0|2:0,2:0:0:0:
344,112,90204,6,0,B|380:123|380:123|395:166|395:166|375:201|375:201|331:211|331:211|310:197,1,192.374994863033,4|0,1:0|2:0,2:0:0:0:
344,264,90431,6,0,B|343:277|343:277|362:267|362:267|369:318|369:318|340:355|340:355|289:358|289:358|256:410,1,212.6249935112,4|0,1:2|2:0,2:0:0:0:
208,332,90659,6,0,B|188:306|188:306|123:329|123:329|94:291|94:291|139:237|139:237|162:237,1,232.875004441738,4|0,1:2|2:0,2:0:0:0:
99,154,90886,6,0,B|70:113|70:113|88:58|88:58|136:38|136:38|188:59|188:59|172:78|172:78|187:81,1,253.125,4|0,1:2|2:0,2:0:0:0:
288,92,91113,6,0,B|287:76|287:76|351:23|351:23|396:57|396:57|369:134|369:134|399:157,1,273.375001042843,4|0,1:2|2:0,2:0:0:0:
424,236,91341,6,0,B|363:291|363:291|363:311|363:311|302:372|302:372|202:323|202:323|170:330|170:330|78:287|78:287|92:174|92:174|77:151|77:151|90:48|90:48|200:28|200:28|218:4|218:4|321:-14|321:-14|373:83|373:83|400:95|400:95|452:185,1,945.000009012222,4|0,1:0|3:0,2:0:0:0:
344,0,92022,5,0,3:0:0:0:
332,116,92136,1,2,3:2:0:0:
456,112,92250,5,2,3:2:0:0:
464,200,92364,1,2,3:0:0:0:
360,160,92477,5,0,3:0:0:0:
352,216,92591,1,2,2:0:0:0:
404,276,92704,6,0,P|356:296|280:248,1,101.250003862381,0|2,3:0|3:0,2:0:0:0:
264,220,92875,2,0,P|260:193|265:169,1,50.6250019311906,0|2,2:0|3:0,2:0:0:0:
240,92,92982,6,0,P|260:155|150:206,1,180,0|0,2:0|3:0,2:0:0:0:
175,232,93184,2,0,P|140:237|108:230,1,60,2|0,3:2|3:0,2:0:0:0:
40,148,93310,1,0,3:0:0:0:
72,40,93386,1,4,1:2:0:0:
72,40,93841,6,0,B|104:56|112:84|96:120|96:120|14:124|-27:208|29:276|29:276|85:265|85:265|101:287|101:287|258:270|258:270|279:291|279:291|307:293,1,607.500023174287,12|0,1:0|1:0,2:0:0:0:
348,380,94636,1,0,2:0:0:0:
208,372,94750,6,0,B|178:359|178:359|154:297|181:244|243:228,1,202.500007724762,8|0,1:2|1:0,2:0:0:0:
352,172,95091,1,2,3:2:0:0:
288,80,95204,6,0,B|286:51|286:51|272:99|303:125|303:125|346:155|334:218,1,202.500007724762,0|0,1:0|2:0,2:0:0:0:
464,236,95545,1,2,3:2:0:0:
436,368,95659,2,0,P|449:305|482:243,1,101.250003862381,10|0,1:2|2:0,2:0:0:0:
512,24,95886,6,0,B|506:54|517:77|517:77|499:135|438:138|438:138|459:44|384:-26|296:0,1,405.000015449524,0|4,1:0|1:2,2:0:0:0:
40,208,96568,1,8,1:2:0:0:
44,212,96795,5,2,1:2:0:0:
56,288,96909,1,0,2:0:0:0:
60,292,96966,1,2,2:0:0:0:
64,296,97022,2,0,B|31:299|31:299|114:237|124:319|220:285|172:213|281:220,1,303.750011587143,2|0,1:0|2:0,2:0:0:0:
268,308,97420,1,2,2:0:0:0:
268,308,97477,6,0,B|235:319|235:319|287:257|316:324|370:326|417:296|437:245|388:191|464:170,1,344.250006566048,4|0,1:2|2:0,2:0:0:0:
496,252,97875,1,2,2:0:0:0:
496,252,97931,6,0,B|533:250|533:250|452:200|480:301|411:347|327:321|296:245|376:177|280:173,1,384.749989726067,4|0,1:2|2:0,2:0:0:0:
220,232,98329,1,2,2:0:0:0:
220,232,98386,6,0,B|234:232|257:246|257:246|260:213|226:179|175:178|216:295|170:320|63:293|17:192|34:142|157:162|146:112|107:84|75:93,1,425.2499870224,4|0,1:2|2:0,2:0:0:0:
0,172,98784,1,2,2:0:0:0:
0,172,98841,6,0,B|39:180|39:180|57:298|57:298|124:305|124:305|166:193|166:193|206:193,1,388.125007402897,4|0,1:0|3:0,2:0:0:0:
316,196,99181,1,0,3:0:0:0:
316,196,99238,1,0,1:0:0:0:
316,196,99295,6,0,B|339:164|339:164|282:1|282:1|394:132|394:132|433:127,1,421.875,4|0,1:2|2:0,2:0:0:0:
504,28,99636,1,4,2:3:0:0:
504,28,99693,1,4,2:3:0:0:
504,28,99750,6,0,B|458:49|458:49|405:13,3,101.250003862381,4|4|8|6,1:2|3:0|3:0|3:0,2:0:0:0:
426,175,100545,6,0,P|452:195|460:228,1,67.5,2|2,2:0|2:0,2:0:0:0:
380,246,100659,6,0,B|332:278|304:186|412:182|444:92|404:14|404:14|296:96|388:142|332:168|306:163,1,472.5,4|0,1:0|2:0,2:0:0:0:
232,184,101113,6,0,B|152:204|102:167|119:127|52:117|52:117|77:147|68:182,1,270,8|0,1:2|1:0,2:0:0:0:
28,264,101454,1,2,2:0:0:0:
236,360,101568,5,2,1:2:0:0:
120,384,101681,1,0,2:0:0:0:
208,280,101795,1,2,1:3:0:0:
116,298,101908,1,0,2:0:0:0:
148,216,102022,6,0,P|206:192|283:236,1,135,2|0,1:3|2:0,2:0:0:0:
292,264,102174,2,0,P|317:278|354:280,1,45,2|2,2:0|2:0,2:0:0:0:
356,328,102250,6,0,B|388:264|453:395|520:332|556:226|523:194|450:173|426:212|353:185|380:88|396:40|462:10|515:125|556:49,1,435.375006643295,4|0,1:2|3:0,2:0:0:0:
512,0,102705,1,0,1:0:0:0:
512,56,102780,1,2,2:0:0:0:
488,108,102856,1,2,2:0:0:0:
440,140,102931,6,0,P|404:180|480:168,1,145.125002214432,8|0,1:2|2:0,2:0:0:0:
512,340,103159,6,0,B|544:212|425:168|425:168|352:260|248:207|248:207|256:120|179:88|179:88|136:128|81:105|81:105|76:68|44:52|44:52|29:64|0:54,1,776.250014805794,4|0,1:2|2:0,2:0:0:0:
120,12,103841,2,0,P|140:48|28:140,1,155.250002961159,8|0,1:2|2:0,2:0:0:0:
0,224,104011,1,2,2:0:0:0:
4,244,104068,6,0,B|66:229|21:363|122:358|219:323|221:276|185:206|140:215|108:142|208:83|246:77|316:100|267:222|354:200|395:132|339:93|385:75|414:76,1,590.625,2|0,1:0|2:0,2:0:0:0:
455,63,104522,6,0,P|408:36|391:-22,1,90,0|0,3:2|2:0,2:0:0:0:
464,144,104750,6,0,P|417:170|400:229,1,101.700000310364,2|0,3:2|2:0,2:0:0:0:
332,104,104977,6,0,P|304:57|319:-2,1,112.5,2|0,3:2|2:0,2:0:0:0:
320,184,105204,6,0,P|304:239|336:298,1,124.200000189514,2|0,1:2|2:0,2:0:0:0:
176,120,105431,6,0,P|175:57|225:6,1,135.000005149841,2|0,1:2|2:0,2:0:0:0:
192,256,105659,6,0,P|208:321|275:361,1,146.699999888077,2|0,1:2|2:0,2:0:0:0:
28,124,105886,6,0,P|62:61|141:39,1,157.500001502037,2|0,1:2|2:0,2:0:0:0:
44,293,106113,6,0,P|106:347|189:341,1,169.199997418213,2|0,1:2|2:0,2:0:0:0:
222,7,106341,6,0,P|302:18|359:93,1,180,2|0,1:2|2:0,2:0:0:0:
272,360,106568,6,0,P|347:318|375:220,1,191.700000731277,2|0,1:2|2:0,2:0:0:0:
468,50,106795,6,0,P|422:76|236:79,1,202.500007724762,2|0,1:2|2:0,2:0:0:0:
436,364,107022,6,0,P|399:327|220:276,1,214.199995751038,2|0,1:2|2:0,2:0:0:0:
204,132,107250,6,0,P|153:118|19:-11,1,225,4|0,1:2|2:0,2:0:0:0:
196,212,107477,6,0,P|143:212|-18:302,1,236.700011196442,4|0,1:2|2:0,2:0:0:0:
132,0,107704,6,0,P|248:152|32:336,1,495.000004720688,4|0,1:0|2:0,2:0:0:0:
304,2,109295,5,8,3:0:0:0:
192,88,109409,1,4,3:0:0:0:
288,176,109522,1,8,3:0:0:0:
224,280,109636,1,4,3:0:0:0:
268,380,109750,5,6,1:0:0:0:
216,292,109863,1,0,2:0:0:0:
272,220,109977,1,0,2:0:0:0:
212,164,110091,1,0,1:0:0:0:
260,108,110204,2,0,P|268:65|272:20,1,84.375,8|0,1:2|2:0,2:0:0:0:
420,80,110545,5,0,1:0:0:0:
0,324,111113,5,8,1:2:0:0:
60,280,111226,1,2,2:0:0:0:
204,328,111341,5,0,3:0:0:0:
144,372,111454,1,2,1:0:0:0:
60,280,111568,5,4,1:2:0:0:
140,216,111681,1,2,1:0:0:0:
100,132,111795,1,2,2:0:0:0:
184,96,111909,1,2,1:0:0:0:
156,24,112022,5,8,1:2:0:0:
96,128,112136,1,2,2:0:0:0:
208,172,112250,1,0,1:0:0:0:
136,300,112363,2,0,P|125:318|120:336,1,33.75,2|0,2:0|2:0,2:0:0:0:
136,300,112628,5,2,2:0:0:0:
172,236,112729,5,2,2:0:0:0:
236,272,112830,5,2,2:0:0:0:
200,336,112931,5,8,1:2:0:0:
236,200,113045,1,0,1:0:0:0:
348,240,113159,1,2,2:0:0:0:
372,136,113272,1,2,2:0:0:0:
460,156,113386,5,4,1:2:0:0:
468,44,113500,1,0,1:0:0:0:
468,44,113556,2,0,P|435:54|400:58,1,67.5,0|2,1:0|2:0,2:0:0:0:
296,96,113784,1,0,1:0:0:0:
296,96,113841,6,0,P|296:72|286:47,1,50.625,8|0,1:2|2:0,2:0:0:0:
216,92,114068,5,0,1:0:0:0:
240,204,114181,2,0,P|239:189|233:170,1,33.75,8|0,1:2|2:0,2:0:0:0:
216,92,114522,5,0,1:0:0:0:
240,204,114636,1,2,1:3:0:0:
240,204,114750,1,8,1:2:0:0:
200,380,114977,5,4,3:0:0:0:
168,356,115053,1,8,3:0:0:0:
156,316,115128,1,8,3:0:0:0:
168,276,115204,1,4,1:3:0:0:
264,160,115356,5,2,3:2:0:0:
256,80,115457,5,2,3:2:0:0:
180,28,115558,5,2,3:2:0:0:
80,28,115659,5,4,1:2:0:0:
33,64,115724,1,2,2:0:0:0:
15,126,115789,1,2,2:0:0:0:
33,190,115853,1,2,2:0:0:0:
252,240,116000,5,0,1:0:0:0:
328,116,116113,2,0,P|299:62|213:40,1,151.875005793572,2|0,1:0|2:0,2:0:0:0:
144,68,116341,2,0,P|126:84|115:109,1,50.6250019311906,2|0,3:2|2:0,2:0:0:0:
136,288,116454,2,0,P|149:307|172:321,1,50.6250019311906,2|0,3:2|2:0,2:0:0:0:
352,324,116568,6,0,B|408:292|410:347|464:352|495:327|494:275|494:275|460:264|468:304,1,236.250002253056,6|2,1:0|2:0,2:0:0:0:
476,220,116909,1,0,2:0:0:0:
380,156,117022,5,4,1:2:0:0:
380,288,117136,1,2,2:0:0:0:
496,224,117250,1,2,2:0:0:0:
404,200,117363,1,0,1:0:0:0:
252,240,117477,5,8,1:2:0:0:
172,300,117591,1,2,2:0:0:0:
264,344,117704,1,4,1:2:0:0:
216,276,117818,1,2,2:0:0:0:
88,288,117903,1,2,2:0:0:0:
88,288,117931,6,0,P|74:251|14:187,1,126.562504827976,2|2,2:0|2:0,2:0:0:0:
116,0,118159,5,2,2:0:0:0:
200,36,118272,1,0,3:0:0:0:
220,116,118386,1,8,2:0:0:0:
196,184,118500,1,2,2:0:0:0:
144,216,118613,5,0,1:0:0:0:
112,144,118727,1,2,1:2:0:0:
196,108,118841,1,4,1:2:0:0:
272,176,118954,1,2,2:0:0:0:
200,272,119068,1,2,2:0:0:0:
232,356,119181,1,0,1:0:0:0:
348,376,119295,2,0,P|354:321|376:272,1,101.250003862381,8|2,1:2|2:0,2:0:0:0:
492,88,119522,1,2,2:0:0:0:
400,184,119636,1,8,1:3:0:0:
268,92,119750,5,4,1:3:0:0:
352,16,119863,1,8,3:0:0:0:
284,96,119977,1,2,2:0:0:0:
112,24,120128,5,2,2:0:0:0:
104,32,120204,5,4,3:0:0:0:
184,108,120318,1,4,3:0:0:0:
192,208,120431,1,8,3:0:0:0:
160,292,120545,1,4,3:0:0:0:
88,328,120659,1,4,1:0:0:0:
32,376,120772,1,2,2:0:0:0:
112,328,120886,5,2,2:0:0:0:
112,280,120962,1,2,2:0:0:0:
76,240,121037,1,2,2:0:0:0:
16,240,121113,1,8,1:2:0:0:
40,120,121227,1,0,2:0:0:0:
148,84,121341,1,2,3:0:0:0:
240,128,121454,1,2,2:0:0:0:
268,216,121568,5,4,1:2:0:0:
372,256,121681,1,2,2:0:0:0:
452,176,121795,1,0,1:0:0:0:
332,76,121909,1,4,3:0:0:0:
280,204,122022,5,8,1:3:0:0:
368,240,122135,1,2,2:0:0:0:
436,168,122249,1,4,1:3:0:0:
436,168,122325,1,8,3:0:0:0:
436,168,122401,1,8,3:0:0:0:
368,276,122591,5,4,3:0:0:0:
368,276,122647,1,4,3:0:0:0:
368,276,122704,2,0,B|326:305|326:305|277:293,1,101.250003862381,2|0,1:0|2:0,2:0:0:0:
144,108,122931,2,0,B|185:79|185:79|234:91,1,101.250003862381,2|0,1:0|2:0,2:0:0:0:
196,248,123159,1,4,1:2:0:0:
168,240,123216,1,4,2:3:0:0:
152,264,123272,1,4,2:3:0:0:
56,288,123386,5,2,1:0:0:0:
56,288,123423,2,0,P|54:234|40:176,1,101.250003862381,4|0,1:3|2:0,2:0:0:0:
8,88,123613,1,4,1:2:0:0:
8,88,123652,2,0,L|107:106,1,101.250003862381,4|4,2:3|2:3,2:0:0:0:
204,128,123841,1,2,1:0:0:0:
204,128,123878,2,0,P|201:65|185:-1,1,118.125001126528,4|0,1:3|2:0,2:0:0:0:
356,48,124068,1,2,1:0:0:0:
356,48,124106,2,0,P|318:97|288:160,1,118.125001126528,4|0,1:3|2:0,2:0:0:0:
324,264,124295,5,4,3:0:0:0:
324,264,124522,2,0,L|325:227,5,33.7500012874604,2|0|0|0|0|0,3:2|3:0|3:0|3:0|3:0|3:0,2:0:0:0:
346,253,124750,6,0,P|358:251|367:246,1,22.5,0|0,1:0|2:0,2:0:0:0:
429,191,124977,6,0,P|436:170|437:152,1,34.1999995825195,2|0,1:2|2:0,2:0:0:0:
406,64,125204,6,0,P|390:46|373:35,1,45,2|0,1:2|2:0,2:0:0:0:
267,0,125431,6,0,P|236:5|213:17,1,56.6999982696534,2|0,1:2|2:0,2:0:0:0:
120,96,125659,6,0,P|107:130|106:160,1,67.5000025749207,2|0,1:2|2:0,2:0:0:0:
148,284,125886,6,0,P|179:313|211:329,1,79.2000024169923,2|0,1:2|2:0,2:0:0:0:
368,372,126113,6,0,P|395:325|453:308,1,90,2|0,1:2|2:0,2:0:0:0:
287,381,126341,6,0,P|261:334|202:317,1,101.700000310364,2|0,1:2|2:0,2:0:0:0:
327,249,126568,6,0,P|374:221|433:236,1,112.5,2|0,1:2|2:0,2:0:0:0:
247,237,126795,6,0,P|192:221|133:253,1,124.200000189514,2|0,1:2|2:0,2:0:0:0:
311,93,127022,6,0,P|374:92|425:142,1,135.000005149841,2|0,1:2|2:0,2:0:0:0:
175,109,127250,6,0,P|110:125|70:192,1,146.699999888077,2|0,1:2|2:0,2:0:0:0:
424,12,127477,6,0,P|487:46|509:125,1,157.500001502037,2|0,1:2|2:0,2:0:0:0:
226,42,127704,6,0,P|175:106|185:189,1,169.199997418213,2|0,1:2|2:0,2:0:0:0:
512,212,127931,6,0,P|506:292|435:354,1,180,2|0,1:2|2:0,2:0:0:0:
208,272,128159,6,0,P|250:346|348:375,1,191.700000731277,2|0,1:2|2:0,2:0:0:0:
508,123,128386,6,0,P|432:72|316:83,1,202.500007724762,2|0,1:2|2:0,2:0:0:0:
219,258,128613,6,0,P|106:266|28:203,1,214.199995751038,2|0,1:2|2:0,2:0:0:0:
90,0,128841,6,0,P|19:91|30:206,1,225,4|0,1:2|2:0,2:0:0:0:
316,176,129068,6,0,P|326:291|255:382,1,236.700011196442,2|0,1:2|2:0,2:0:0:0:
136,88,129295,6,0,P|225:3|353:4,1,247.500002360344,4|0,1:2|2:0,2:0:0:0:
456,259,129522,6,0,P|304:375|120:151,1,518.40001265625,4|0,1:0|2:0,2:0:0:0:
432,40,130318,5,2,2:0:0:0:
465,89,130369,5,2,2:0:0:0:
426,126,130421,5,0,2:0:0:0:
453,164,130473,5,2,2:0:0:0:
428,194,130524,5,0,2:0:0:0:
445,221,130576,5,2,2:0:0:0:
432,243,130628,6,0,L|424:308,1,50.6250019311906,4|0,1:0|2:0,2:0:0:0:
