osu file format v14

[General]
AudioFilename: audio.mp3
AudioLeadIn: 0
PreviewTime: 77022
Countdown: 0
SampleSet: Soft
StackLeniency: 1
Mode: 0
LetterboxInBreaks: 0
EpilepsyWarning: 1
WidescreenStoryboard: 1

[Editor]
Bookmarks: 886,71795,109295,130659
DistanceSpacing: 0.8
BeatDivisor: 16
GridSize: 4
TimelineZoom: 5.799998

[Metadata]
Title:Random
TitleUnicode:Random
Artist:Sobrem x Silentroom
ArtistUnicode:Sobrem × Silentroom
Creator:seros
Version:seros & ak74's Dadaism
Source:BOFXVII
Tags:Featured Artist Sobrem Silentroom THE BMS OF FIGHTERS XVII -VISION RETRO FUTURE- following the clue [clue] harkiadel english electronic instrumental jazz funk fusion piano video game ak74 revoh dahkjdas kowari callionet intensity hakurei yoru hakurei_yoru zengsb pigeons arsalan yf yf_bmp mappers' guild mpg mg fa
BeatmapID:3419890
BeatmapSetID:1674155

[Difficulty]
HPDrainRate:5
CircleSize:4
OverallDifficulty:8.5
ApproachRate:9.5
SliderMultiplier:2
SliderTickRate:1

[Events]
//Background and Video events
0,0,"bg.jpg",0,0
Video,0,"bga.mp4"
//Break Periods
2,39041,40361
2,57222,60134
2,67791,71043
2,108017,108770
//Storyboard Layer 0 (Background)
//Storyboard Layer 1 (Fail)
//Storyboard Layer 2 (Pass)
//Storyboard Layer 3 (Foreground)
//Storyboard Layer 4 (Overlay)
//Storyboard Sound Samples

[TimingPoints]
-1159,454.545454545455,4,2,0,69,1,0
886,-133.333333333333,4,2,0,69,0,0
1795,-100,4,2,0,69,0,0
2704,-83.3333333333333,4,2,0,69,0,0
3159,-50,4,2,0,69,0,0
3613,-33.3333333333333,4,2,0,69,0,0
3670,-33.3333333333333,4,2,0,5,0,0
3727,-66.6666666666667,4,2,0,69,0,0
4068,-50,4,2,0,69,0,0
4295,-40,4,2,0,69,0,0
4750,-40,4,2,0,40,0,0
6227,-66.6666666666667,4,2,0,40,0,0
7931,-40,4,2,0,40,0,0
9750,-100,4,2,0,40,0,0
10204,-43.4782608695652,4,2,0,50,0,0
10659,-28.5714285714286,4,2,0,50,0,0
11113,-20.4081632653061,4,2,0,50,0,0
11568,-50,4,2,0,69,0,0
11681,-27.7777777777778,4,2,0,69,0,0
12022,-40,4,2,0,69,0,0
12477,-45.4545454545455,4,2,0,69,0,0
12931,-33.3333333333333,4,2,0,69,0,0
12988,-33.3333333333333,4,2,0,5,0,0
13045,-50,4,2,0,69,0,0
13386,-33.3333333333333,4,2,0,69,0,0
13841,-66.6666666666667,4,2,0,69,0,0
15204,-18.8679245283019,4,2,0,69,0,1
15659,-83.3333333333333,4,2,0,69,0,0
17022,-33.3333333333333,4,2,0,69,0,0
17477,-200,4,2,0,69,0,0
17931,-133.333333333333,4,2,0,69,0,0
18159,-166.666666666667,4,2,0,69,0,0
18386,-222.222222222222,4,2,0,69,0,0
18613,-333.333333333333,4,2,0,69,0,0
18841,-200,4,2,0,50,0,0
20659,-100,4,2,0,50,0,0
22553,-100,4,2,0,50,0,1
23310,-100,4,2,0,50,0,0
23462,-100,4,2,0,50,0,1
24219,-100,4,2,0,50,0,0
24371,-100,4,2,0,50,0,1
25886,-100,4,2,0,50,0,0
26113,-33.3333333333333,4,2,0,69,0,0
26568,-66.6666666666667,4,2,0,69,0,0
27477,-133.333333333333,4,2,0,69,0,0
27704,-31.25,4,2,0,69,0,0
28159,-62.5,4,2,0,69,0,0
28613,-22.2222222222222,4,2,0,69,0,0
28841,-66.6666666666667,4,2,0,69,0,0
29295,-83.3333333333333,4,2,0,69,0,0
29750,-33.3333333333333,4,2,0,69,0,0
29977,-83.3333333333333,4,2,0,69,0,0
30204,-33.3333333333333,4,2,0,69,0,0
30431,-83.3333333333333,4,2,0,69,0,0
31113,-33.3333333333333,4,2,0,69,0,0
31341,-33.3333333333333,4,2,0,69,0,1
33386,-33.3333333333333,4,2,0,50,0,0
34144,-33.3333333333333,4,2,0,5,0,0
34750,-66.6666666666667,4,2,0,40,0,0
34787,-66.6666666666667,4,2,0,5,0,0
34825,-51.2820512820513,4,2,0,40,0,0
34863,-51.2820512820513,4,2,0,5,0,0
34901,-38.4615384615385,4,2,0,40,0,0
34939,-38.4615384615385,4,2,0,5,0,0
34977,-31.25,4,2,0,40,0,0
35015,-31.25,4,2,0,5,0,0
35053,-24.6913580246914,4,2,0,40,0,0
35091,-24.6913580246914,4,2,0,5,0,0
35128,-20,4,2,0,40,0,0
35166,-20,4,2,0,5,0,0
35204,-45.4545454545455,4,2,0,40,0,1
36341,-45.4545454545455,4,2,0,50,0,1
38841,-45.4545454545455,4,2,0,50,0,0
40886,-133.333333333333,4,2,0,69,0,0
41341,-100,4,2,0,69,0,0
41795,-66.6666666666667,4,2,0,69,0,0
42250,-100,4,2,0,69,0,0
42477,-33.3333333333333,4,2,0,69,0,0
43045,-50,4,2,0,69,0,0
44409,-100,4,2,0,69,0,0
44977,-40,4,2,0,69,0,0
45886,-50,4,2,0,69,0,0
46113,-31.25,4,2,0,69,0,0
46568,-83.3333333333333,4,2,0,69,0,0
48386,-37.7358490566038,4,2,0,69,0,1
48841,-100,4,2,0,69,0,0
49068,-133.333333333333,4,2,0,69,0,0
49295,-200,4,2,0,69,0,0
49522,-285.714285714286,4,2,0,69,0,0
49750,-200,4,2,0,40,0,0
50602,-200,4,2,0,5,0,0
50659,-250,4,2,0,40,0,0
51511,-250,4,2,0,5,0,0
51568,-333.333333333333,4,2,0,40,0,0
52420,-333.333333333333,4,2,0,5,0,0
52477,-500,4,2,0,40,0,0
53329,-500,4,2,0,5,0,0
53386,-200,4,2,0,40,0,0
54238,-200,4,2,0,5,0,0
54295,-250,4,2,0,40,0,0
55147,-250,4,2,0,5,0,0
55204,-333.333333333333,4,2,0,40,0,0
56056,-333.333333333333,4,2,0,5,0,0
56113,-100,4,2,0,40,0,0
56568,-125,4,2,0,40,0,0
60659,-22.2222222222222,4,2,0,69,0,1
61113,-40,4,2,0,69,0,1
61227,-20,4,2,0,69,0,1
61454,-18.1818181818182,4,2,0,69,0,1
61795,-40.0000000000002,4,2,0,69,0,1
62136,-22.2222222222222,4,2,0,69,0,1
62363,-16.6666666666667,4,2,0,69,0,1
63045,-15.3846153846154,4,2,0,69,0,1
63272,-14.2857142857143,4,2,0,69,0,1
63841,-28.5714285714287,4,2,0,69,0,1
64295,-26.3157894736842,4,2,0,40,0,0
71795,-54.054054054054,4,2,0,69,0,0
72136,-66.6666666666667,4,2,0,69,0,1
72250,-57.1428571428571,4,2,0,69,0,1
72363,-50,4,2,0,69,0,1
72477,-44.4444444444445,4,2,0,69,0,1
72591,-40,4,2,0,69,0,1
72704,-36.3636363636364,4,2,0,69,0,1
72818,-28.5714285714286,4,2,0,69,0,0
73613,-50,4,2,0,69,0,1
74636,-40,4,2,0,69,0,0
74863,-31.25,4,2,0,69,0,0
75091,-45.4545454545455,4,2,0,69,0,1
75431,-35.7142857142857,4,2,0,69,0,1
75772,-29.4117647058824,4,2,0,69,0,1
76113,-37.037037037037,4,2,0,69,0,1
76416,-25.0000000000001,4,2,0,69,0,1
77022,-25.0000000000001,4,2,0,40,0,0
78841,-100,4,2,0,69,0,0
79295,-20.8333333333333,4,2,0,69,0,1
79977,-50,4,2,0,69,0,0
80204,-33.3333333333333,4,2,0,69,0,0
80431,-66.6666666666667,4,2,0,69,0,0
80659,-28.5714285714286,4,2,0,69,0,0
81568,-166.666666666667,4,2,0,69,0,0
81795,-26.3157894736843,4,2,0,69,0,0
82250,-83.3333333333333,4,2,0,69,0,0
82477,-28.5714285714286,4,2,0,69,0,1
82931,-41.3223140495868,4,2,0,69,0,1
83386,-66.6666666666667,4,2,0,69,0,1
83841,-50,4,2,0,69,0,1
85204,-31.25,4,2,0,69,0,1
85375,-66.6666666666667,4,2,0,69,0,1
85659,-23.8095238095238,4,2,0,69,0,1
86113,-30.3030303030303,4,2,0,69,0,0
86284,-200,4,2,0,69,0,0
86568,-30.3030303030303,4,2,0,69,0,0
86795,-200,4,2,0,69,0,0
87022,-35.7142857142857,4,2,0,69,0,0
87704,-28.5714285714286,4,2,0,69,0,0
89068,-45.4545454545455,4,2,0,69,0,0
89522,-28.5714285714286,4,2,0,69,0,0
89977,-100,4,2,0,69,0,0
90204,-66.6666666666667,4,2,0,69,0,0
90431,-50,4,2,0,69,0,0
90659,-40,4,2,0,69,0,0
90886,-33.3333333333333,4,2,0,69,0,0
91113,-28.5714285714286,4,2,0,69,0,0
91341,-25,4,2,0,69,0,0
92136,-35.7142857142857,4,2,0,69,0,0
93386,-333.333333333333,4,2,0,69,0,0
93841,-28.169014084507,4,2,0,69,0,1
94522,-66.6666666666667,4,2,0,69,0,0
94750,-27.027027027027,4,2,0,69,0,0
94977,-50,4,2,0,69,0,0
95204,-22.2222222222222,4,2,0,69,0,0
95659,-28.5714285714286,4,2,0,69,0,0
95886,-58.8235294117647,4,2,0,69,0,0
96341,-26.3157894736842,4,2,0,69,0,0
96795,-83.3333333333333,4,2,0,69,0,0
97022,-22.7272727272727,4,2,0,69,0,1
97477,-26.3157894736842,4,2,0,69,0,1
97931,-55.5555555555556,4,2,0,69,0,1
98386,-34.4827586206897,4,2,0,69,0,1
98841,-17.5746924428822,4,2,0,69,0,1
99977,-200,4,2,0,69,0,0
100659,-50,4,2,0,69,0,0
101568,-27.027027027027,4,2,0,69,0,0
102136,-66.6666666666667,4,2,0,69,0,0
102250,-27.027027027027,4,2,0,69,0,0
102591,-50,4,2,0,69,0,0
102704,-55.5555555555556,4,2,0,69,0,0
102931,-40,4,2,0,69,0,0
103159,-21.505376344086,4,2,0,69,0,0
103841,-23.8095238095238,4,2,0,69,0,0
104068,-250.000000000001,4,2,0,69,0,0
104522,-1000,4,2,0,50,0,0
104750,-333.333333333333,4,2,0,50,0,0
104977,-192.307692307692,4,2,0,50,0,0
105204,-135.135135135135,4,2,0,50,0,0
105431,-104.166666666667,4,2,0,50,0,0
105659,-84.7457627118644,4,2,0,50,0,0
105886,-71.4285714285714,4,2,0,50,0,0
106113,-61.7283950617284,4,2,0,60,0,0
106341,-54.3478260869565,4,2,0,60,0,0
106568,-48.5436893203883,4,2,0,60,0,0
106795,-43.859649122807,4,2,0,60,0,0
107022,-40,4,2,0,69,0,0
107250,-36.7647058823529,4,2,0,69,0,0
107477,-34.0136054421769,4,2,0,69,0,0
107704,-31.6455696202532,4,2,0,69,0,0
109295,-66.6666666666667,4,2,0,69,0,0
109522,-43.4782608695652,4,2,0,69,0,0
109750,-35.7142857142857,4,2,0,69,0,0
110091,-47.6190476190476,4,2,0,69,0,0
110204,-33.3333333333333,4,2,0,69,0,0
110545,-285.714285714284,4,2,0,69,0,0
111000,-66.6666666666667,4,2,0,69,0,0
111227,-55.5555555555556,4,2,0,69,0,0
111454,-43.4782608695652,4,2,0,69,0,0
112022,-100,4,2,0,69,0,0
112250,-250,4,2,0,69,0,0
113386,-40,4,2,0,69,0,0
113841,-100,4,2,0,69,0,0
114181,-250,4,2,0,69,0,0
114636,-40,4,2,0,69,0,0
114863,-66.6666666666667,4,2,0,69,0,0
114977,-133.333333333333,4,2,0,69,0,0
115659,-43.4782608695652,4,2,0,69,0,1
116113,-28.5714285714286,4,2,0,69,0,1
116568,-20.4081632653061,4,2,0,69,0,1
117022,-18.1818181818182,4,2,0,69,0,0
117250,-66.6666666666667,4,2,0,69,0,0
120659,-66.6666666666667,4,2,0,69,0,1
121265,-40,4,2,0,69,0,1
121568,-25,4,2,0,69,0,1
121909,-50,4,2,0,69,0,1
122477,-200,4,2,0,69,0,1
122704,-66.6666666666667,4,2,0,69,0,1
122931,-50,4,2,0,69,0,1
123159,-40,4,2,0,69,0,1
123386,-33.3333333333333,4,2,0,69,0,1
124068,-66.6666666666667,4,2,0,69,0,1
124295,-66.6666666666667,4,2,0,69,0,0
124750,-133.333333333333,4,2,0,69,0,0
125659,-100,4,2,0,69,0,0
126568,-83.3333333333333,4,2,0,69,0,0
127477,-66.6666666666667,4,2,0,69,0,0
128386,-55.5555555555556,4,2,0,69,0,0
129295,-40,4,2,0,69,0,0
130318,413.793103448276,4,2,0,69,1,1
130318,-45.4545454545455,4,2,0,69,0,1
130628,-133.333333333333,4,2,0,69,0,0

[Colours]
Combo1 : 166,151,185
Combo2 : 226,179,158
Combo3 : 231,165,192
Combo4 : 234,220,179
Combo5 : 249,185,185
Combo6 : 169,175,207

[HitObjects]
32,377,886,70,0,L|37:337,1,37.5000014305115,0|0,1:0|0:0,0:0:0:0:
123,349,1113,2,0,L|118:303,1,37.5000014305115,0|0,1:0|0:0,0:0:0:0:
29,327,1341,6,0,L|24:285,1,37.5000014305115,0|0,1:0|0:0,0:0:0:0:
129,291,1568,2,0,L|139:249,1,37.5000014305115,2|0,1:2|0:0,0:0:0:0:
61,222,1795,38,0,L|41:167,1,50,2|0,1:2|0:0,0:0:0:0:
214,227,2022,2,0,L|236:177,1,50,2|0,1:2|0:0,0:0:0:0:
128,135,2250,6,0,L|94:90,1,50,2|0,1:2|0:0,0:0:0:0:
319,182,2477,2,0,L|364:143,1,50,2|0,1:2|0:0,0:0:0:0:
233,63,2704,38,0,L|176:27,1,59.9999981689454,2|0,1:2|0:0,0:0:0:0:
453,156,2931,2,0,L|528:143,1,59.9999981689454,2|0,1:2|0:0,0:0:0:0:
316,11,3159,6,0,B|329:129|329:129|327:141|327:141|336:225|336:225|337:213|337:213|345:289,1,300,4|0,1:0|0:0,0:0:0:0:
436,266,3613,6,0,B|463:236|463:236|433:258,1,75.0000028610231
338,295,3727,6,0,B|374:316|374:316|384:348,2,75.0000028610231,0|2|0,3:0|3:0|3:0,0:0:0:0:
255,220,4068,38,0,B|218:185|218:185|251:140,1,100,2|0,3:2|1:0,0:0:0:0:
512,6,4295,6,0,B|526:41|526:41|428:165|428:165|405:146|405:146|417:15|417:15|436:4,1,375,4|0,1:2|0:0,0:0:0:0:
361,216,4750,5,0,3:0:0:0:
361,216,5204,1,0,0:0:0:0:
361,216,5659,1,0,3:0:0:0:
361,216,6113,1,0,3:0:0:0:
258,378,6227,22,0,B|252:375|252:375|235:317|235:317|238:310,1,75.0000028610231,0|0,1:0|0:0,0:0:0:0:
247,307,6454,2,0,B|253:310|253:310|270:368|270:368|267:375,1,75.0000028610231,0|0,1:0|0:0,0:0:0:0:
361,216,7022,21,0,3:0:0:0:
361,216,7477,1,0,0:0:0:0:
154,328,7931,6,0,B|159:355|159:355|24:382|24:382|11:310|11:310|148:283,1,375,0|0,1:0|3:0,0:0:0:0:
361,216,8386,5,2,0:0:0:0:
361,216,8841,1,0,3:0:0:0:
361,216,9295,1,0,0:0:0:0:
361,216,9750,6,0,B|379:239|379:239|365:268|365:268|332:261|332:261|332:227|332:227|364:219,1,150.000005722046,4|0,3:0|0:0,0:0:0:0:
392,298,10204,38,0,B|357:319|357:319|286:255|286:255|335:173|335:173|412:193|412:193|420:228,1,345.000006580353,2|0,1:0|0:0,0:0:0:0:
290,308,10659,6,0,B|260:216|260:216|360:137|360:137|464:212|464:212|428:317|428:317|362:334,1,525.00000500679,4|0,1:2|0:0,0:0:0:0:
262,159,11113,6,0,B|300:115|300:115|454:138|454:138|493:301|493:301|344:373|344:373|231:279|231:279|233:236,1,735.000007009506,4|0,1:2|0:0,0:0:0:0:
374,240,11568,6,0,B|366:243|366:243|319:230,1,50,0|0,1:0|2:0,0:0:0:0:
376,254,11681,38,0,B|367:248|367:248|33:211|33:211|24:201,1,359.999989013672,4|0,1:2|1:0,0:0:0:0:
253,153,12022,6,0,B|279:214|279:214|225:237,1,125,8|0,3:2|0:0,0:0:0:0:
155,196,12250,1,2,0:0:0:0:
155,196,12363,1,0,3:0:0:0:
85,138,12477,6,0,B|191:164|191:164|253:241|253:241|377:266,1,330.000010070801,0|0,1:0|3:0,0:0:0:0:
146,276,12931,6,0,B|113:294|113:294|149:285,1,75.0000028610231,10|0,1:2|0:0,0:0:0:0:
280,323,13045,2,0,B|246:331|246:331|229:349|229:349|181:357,1,100,0|0,1:0|0:0,0:0:0:0:
75,223,13272,38,0,L|26:196,1,50,0|0,3:0|0:0,0:0:0:0:
4,289,13386,6,0,B|26:301|26:301|388:123|388:123|415:134,1,450.000017166138,0|0,1:0|3:0,0:0:0:0:
235,232,13841,6,0,L|219:155,1,75.0000028610231,10|0,1:2|1:0,0:0:0:0:
296,145,14068,2,0,L|312:222,1,75.0000028610231,0|0,0:0|3:0,0:0:0:0:
334,383,14295,6,0,B|386:347|386:347|400:343,1,75.0000028610231,2|0,1:2|0:0,0:0:0:0:
402,331,14522,2,0,B|465:325|465:325|479:329,1,75.0000028610231,8|0,3:0|0:0,0:0:0:0:
178,1,14750,38,0,B|126:37|126:37|112:41,1,75.0000028610231,4|0,3:0|0:0,0:0:0:0:
110,53,14977,2,0,B|46:58|46:58|32:54,1,75.0000028610231,8|0,3:0|0:0,0:0:0:0:
251,367,15204,6,0,B|179:348|179:348|156:286|156:286|340:266|340:266|361:201|361:201|204:188|204:188|188:137|188:137|284:101|284:101|288:68|288:68|257:54|257:54|257:31,1,795.000033359529,4|0,1:2|1:0,0:0:0:0:
124,213,15659,6,0,B|105:175|105:175|90:167,1,59.9999981689454,8|0,1:2|0:0,0:0:0:0:
82,158,15886,2,0,B|41:144|41:144|25:149,1,59.9999981689454,2|0,0:0|0:0,0:0:0:0:
367,121,16113,6,0,B|386:83|386:83|401:75,1,59.9999981689454,0|0,1:0|0:0,0:0:0:0:
409,66,16340,2,0,B|449:52|449:52|465:57,1,59.9999981689454,2|0,0:0|3:0,0:0:0:0:
260,375,16568,38,0,B|245:326|245:326|246:308,1,59.9999981689454,8|2,1:2|0:0,0:0:0:0:
253,307,16795,2,0,B|264:255|264:255|260:243,1,59.9999981689454,2|0,0:0|3:0,0:0:0:0:
214,118,17022,6,0,B|203:112|203:112|256:-16|256:-16|308:112|308:112|299:118,1,300.000011444092,0|2,1:0|3:0,0:0:0:0:
256,238,17477,6,0,B|253:232|253:232|258:196|258:196|256:189,1,50,4|8,1:2|3:0,0:0:0:0:
179,261,17931,22,0,L|171:223,1,37.5000014305115,4|0,1:3|0:0,0:0:0:0:
99,286,18159,6,0,L|102:255,1,29.9999990844727,0|0,1:0|0:0,0:0:0:0:
45,314,18386,70,0,L|39:290,1,22.4999993133545,2|0,1:3|0:0,0:0:0:0:
19,337,18613,6,0,L|19:322,1,14.9999995422363,2|0,1:3|0:0,0:0:0:0:
3,348,18841,70,0,B|16:369|16:369|-5:383|-5:383|-5:357,1,75,4|0,1:2|1:0,0:0:0:0:
3,339,19295,1,0,3:0:0:0:
18,319,19522,1,0,3:0:0:0:
66,278,19750,5,8,0:0:0:0:
144,244,19977,1,0,1:0:0:0:
246,230,20204,1,0,1:0:0:0:
365,247,20431,2,0,L|390:255,1,25,2|0,3:2|3:0,0:0:0:0:
501,337,20659,70,0,B|512:340|512:340|515:376|515:376|477:388|477:388|464:356|464:356|484:334,1,150,4|0,1:2|1:0,0:0:0:0:
489,320,21113,1,0,3:0:0:0:
461,294,21341,1,8,0:0:0:0:
386,261,21568,21,8,3:0:0:0:
314,281,21719,5,4,3:0:0:0:
242,303,21871,5,4,3:0:0:0:
174,255,22022,6,0,L|180:218,5,33.3333333333333,2|0|0|0|0|0,3:2|3:0|3:0|1:0|1:0|1:0,0:0:0:0:
190,213,22477,37,4,0:2:0:0:
256,192,22553,12,0,23310,0:0:0:0:
409,99,23386,5,4,0:0:0:0:
256,192,23462,12,0,24219,0:0:0:0:
104,34,24295,5,4,0:0:0:0:
256,192,24371,12,0,25886,0:0:0:0:
138,324,26037,6,0,B|144:328|144:328|166:324,1,16.6666666666667,8|8,3:0|3:0,0:0:0:0:
133,332,26113,54,0,B|158:343|158:343|364:215|364:215|393:225,1,300.000011444092,4|8,1:2|3:0,0:0:0:0:
351,315,26416,5,4,3:0:0:0:
316,338,26492,5,4,3:0:0:0:
268,327,26568,38,0,L|252:224,1,100.000003814697,4|0,1:2|0:0,0:0:0:0:
120,17,26795,5,4,3:0:0:0:
47,30,26871,5,8,3:0:0:0:
9,70,26947,5,4,3:0:0:0:
0,105,27022,38,0,L|20:199,1,75.0000028610231,4|0,1:2|0:0,0:0:0:0:
93,152,27250,6,0,L|81:99,2,50.0000019073487,8|8|8,3:0|3:0|3:0,0:0:0:0:
173,161,27477,6,0,B|185:184|185:184|162:196,1,50.0000019073487,2|0,1:3|0:0,0:0:0:0:
16,190,27704,22,0,B|38:213|38:213|440:98|440:98|463:122,1,480,6|0,1:0|0:0,0:0:0:0:
283,155,28159,6,0,L|285:99,2,53.3333333333333,0|0|0,1:0|1:0|1:0,0:0:0:0:
362,108,28386,2,0,L|360:161,1,53.3333333333333,8|8,3:0|3:0,0:0:0:0:
431,213,28537,69,4,3:0:0:0:
426,221,28613,6,0,B|407:227|407:227|189:77|189:77|167:83,1,300.000011444092,8|0,3:0|0:0,0:0:0:0:
9,179,28841,69,0,1:0:0:0:
73,140,28916,5,8,3:0:0:0:
138,151,28992,69,8,3:0:0:0:
165,179,29068,6,0,B|181:230|181:230|172:223|172:223|163:185,1,100.000003814697,4|0,3:0|3:0,0:0:0:0:
96,62,29295,70,0,L|101:0,1,59.9999981689454,4|0,1:3|0:0,0:0:0:0:
83,224,29522,2,0,L|80:284,1,59.9999981689454,2|0,3:2|0:0,0:0:0:0:
252,173,29750,6,0,B|281:178|304:204|304:204|311:164|311:164|281:178|252:173,1,150.000005722046,4|0,1:2|0:0,0:0:0:0:
68,145,29977,2,0,L|8:135,1,59.9999981689454,2|0,3:2|3:0,0:0:0:0:
180,86,30204,70,0,B|192:59|224:44|224:44|187:26|187:26|192:59|180:86,1,150.000005722046,4|0,1:2|0:0,0:0:0:0:
81,293,30431,2,0,L|54:347,1,59.9999981689454,0|2,3:0|3:2,0:0:0:0:
171,189,30659,5,0,1:3:0:0:
171,189,30716,1,0,1:3:0:0:
171,189,30772,1,8,1:3:0:0:
171,189,30829,1,8,1:3:0:0:
171,189,30886,1,8,1:3:0:0:
171,189,30943,1,8,1:3:0:0:
171,189,31000,1,8,1:3:0:0:
171,189,31056,1,8,1:3:0:0:
175,193,31113,70,0,B|185:203|185:203|185:262|185:262|177:266|177:266|162:213|162:213|167:199,1,150.000005722046,6|0,1:0|0:0,0:0:0:0:
2,260,31341,21,2,3:2:0:0:
8,302,31416,1,0,3:0:0:0:
28,300,31492,1,2,3:0:0:0:
33,325,31568,1,2,3:2:0:0:
48,348,31644,1,2,3:2:0:0:
107,345,31719,5,8,3:2:0:0:
86,338,31795,5,2,3:0:0:0:
87,362,31871,1,2,3:1:0:0:
101,368,31947,1,2,3:2:0:0:
138,370,32022,1,2,3:0:0:0:
159,384,32098,1,2,3:2:0:0:
179,380,32174,1,2,3:0:0:0:
221,350,32250,5,0,1:0:0:0:
192,361,32325,37,0,3:0:0:0:
221,378,32401,1,2,3:2:0:0:
245,372,32477,1,0,3:0:0:0:
248,343,32553,1,2,3:2:0:0:
266,334,32628,1,2,3:0:0:0:
288,352,32704,1,0,3:0:0:0:
308,334,32780,1,2,3:2:0:0:
322,280,32856,37,8,0:0:0:0:
301,306,32931,69,0,1:0:0:0:
347,301,33007,1,2,3:2:0:0:
364,245,33083,1,2,3:0:0:0:
337,200,33159,5,8,3:0:0:0:
334,241,33234,37,8,3:0:0:0:
363,202,33310,1,4,3:0:0:0:
341,173,33386,1,4,3:0:0:0:
256,192,33462,12,0,34144,0:0:0:0:
479,12,34750,54,0,L|446:16,1,25.0000009536744,0|0,3:0|3:0,0:0:0:0:
482,22,34825,6,0,L|440:28,1,32.5000001239777,0|0,3:0|3:0,0:0:0:0:
488,33,34901,70,0,L|442:42,1,43.3333313496908,0|0,3:0|3:0,0:0:0:0:
494,47,34977,6,0,L|433:57,1,53.3333333333333,0|0,3:0|3:0,0:0:0:0:
502,63,35053,70,0,L|429:74,1,67.4999985194207,0|0,3:0|3:0,0:0:0:0:
512,83,35128,6,0,L|424:96,1,83.3333333333333,0|0,3:0|3:0,0:0:0:0:
500,203,35204,54,0,B|492:235|492:235|496:217|496:217|493:208|469:202|462:208|462:208|458:226|458:226|471:173|471:173|482:165|502:172|505:183|505:183|500:203,1,220.000006713867,4|0,1:0|0:0,0:0:0:0:
512,384,36341,37,0,0:0:0:0:
510,374,36416,1,2,0:0:0:0:
496,378,36492,1,2,0:0:0:0:
500,364,36568,1,0,0:0:0:0:
482,370,36644,1,2,0:0:0:0:
485,352,36719,1,2,0:0:0:0:
466,360,36795,1,0,0:0:0:0:
470,340,36871,1,2,0:0:0:0:
448,351,36947,1,0,0:0:0:0:
451,323,37022,1,2,0:0:0:0:
428,339,37098,1,0,0:0:0:0:
430,307,37174,1,2,0:0:0:0:
408,325,37250,1,2,0:0:0:0:
404,288,37325,1,0,0:0:0:0:
377,305,37401,1,2,0:0:0:0:
379,264,37477,1,2,0:0:0:0:
334,277,37553,1,0,0:0:0:0:
338,231,37628,1,2,0:0:0:0:
288,244,37704,1,2,0:0:0:0:
290,196,37780,1,2,0:0:0:0:
238,210,37856,1,0,0:0:0:0:
239,159,37931,1,2,0:0:0:0:
183,175,38007,1,0,0:0:0:0:
186,125,38083,1,2,0:0:0:0:
128,136,38159,1,2,0:0:0:0:
132,84,38234,1,2,0:0:0:0:
70,91,38310,1,2,0:0:0:0:
77,39,38386,1,0,0:0:0:0:
10,45,38462,1,2,0:0:0:0:
26,0,38537,1,0,0:0:0:0:
0,0,38613,5,2,0:0:0:0:
0,17,38689,1,0,0:0:0:0:
23,22,38765,1,2,0:0:0:0:
20,7,38841,1,2,0:0:0:0:
283,265,40886,6,0,L|322:259,1,37.5000014305115,4|0,1:2|0:0,0:0:0:0:
228,118,41113,2,0,L|190:125,1,37.5000014305115,0|0,1:0|0:0,0:0:0:0:
401,172,41341,6,0,L|385:125,1,50,0|0,1:0|0:0,0:0:0:0:
111,212,41568,2,0,L|126:258,1,50,0|0,1:0|0:0,0:0:0:0:
473,53,41795,38,0,L|407:9,1,75.0000028610231,4|0,1:2|0:0,0:0:0:0:
39,331,42022,2,0,L|104:374,1,75.0000028610231,4|0,1:2|0:0,0:0:0:0:
251,217,42250,6,0,L|261:166,1,50,4|0,1:2|0:0,0:0:0:0:
220,50,42477,6,0,B|236:61|236:61|275:323|275:323|287:333,1,300.000011444092,4|2,1:0|3:2,0:0:0:0:
337,214,42818,1,0,3:0:0:0:
192,328,42931,5,8,1:2:0:0:
120,288,43045,2,0,B|131:238|131:238|184:244,1,100,0|0,1:0|0:0,0:0:0:0:
288,324,43272,38,0,B|210:342|210:342|179:372|179:372|93:386,1,200,0|2,1:0|3:2,0:0:0:0:
31,335,43613,6,0,B|0:297|0:297|45:324,1,100,0|0,1:0|0:0,0:0:0:0:
196,337,43841,5,8,1:2:0:0:
116,279,43954,2,0,B|100:181,1,100,2|0,0:0|3:0,0:0:0:0:
182,168,44181,6,0,B|187:158|187:158|193:79|193:79|197:68,1,100,2|0,0:0|3:0,0:0:0:0:
93,173,44409,38,0,L|37:184,1,50,2|0,1:2|0:0,0:0:0:0:
265,138,44636,1,4,1:2:0:0:
271,143,44750,2,0,L|320:133,1,50,8|0,3:0|0:0,0:0:0:0:
0,31,44977,6,0,B|-5:46|-5:46|43:104|43:104|107:78|107:78|85:4|85:4|73:-1,1,250,4|0,1:3|1:0,0:0:0:0:
324,115,45431,1,4,1:2:0:0:
187,116,45659,1,2,1:0:0:0:
437,220,45886,2,0,B|480:198|480:198|457:152,1,100,2|0,1:3|0:0,0:0:0:0:
386,22,46113,6,0,B|396:77|396:77|402:73|402:73|402:123|402:123|434:330,1,320,6|0,1:0|3:0,0:0:0:0:
338,226,46454,1,0,1:0:0:0:
427,340,46568,6,0,L|488:356,1,59.9999981689454,8|0,1:2|0:0,0:0:0:0:
277,220,46795,38,0,L|338:236,1,59.9999981689454,0|2,3:0|0:0,0:0:0:0:
73,339,47022,6,0,L|57:280,1,59.9999981689454,0|2,3:0|0:0,0:0:0:0:
208,163,47250,6,0,L|192:104,1,59.9999981689454,0|0,1:0|0:0,0:0:0:0:
72,195,47477,6,0,L|131:210,1,59.9999981689454,8|0,1:2|0:0,0:0:0:0:
331,341,47704,37,2,1:2:0:0:
331,341,47818,1,2,0:0:0:0:
331,341,47931,2,0,L|272:326,1,59.9999981689454,0|0,1:0|0:0,0:0:0:0:
165,353,48159,6,0,L|150:294,1,59.9999981689454,2|2,0:0|3:2,0:0:0:0:
296,145,48386,6,0,B|313:177|313:177|295:210|295:210|234:204|234:204|219:233|219:233|258:379|258:379|283:346|283:346|321:329,1,397.500016679764,4|0,1:0|0:0,0:0:0:0:
375,238,48841,6,0,L|389:291,1,50,0|2,1:0|0:0,0:0:0:0:
450,154,49068,38,0,L|446:196,1,37.5000014305115,2|0,1:2|0:0,0:0:0:0:
386,74,49295,6,0,L|393:103,1,25,2|0,1:2|0:0,0:0:0:0:
451,12,49522,6,0,L|448:35,1,17.4999994659424,2|0,3:2|0:0,0:0:0:0:
505,99,49750,22,0,L|320:138,1,187.5,4|0,1:0|0:0,0:0:0:0:
310,144,50659,6,0,L|162:112,1,150,2|0,0:0|0:0,0:0:0:0:
154,103,51568,70,0,L|214:7,1,112.499996566773,2|0,0:0|0:0,0:0:0:0:
225,11,52477,6,0,L|256:82,1,75,2|0,0:0|0:0,0:0:0:0:
261,90,53386,70,0,L|212:272,1,187.5,2|0,0:0|0:0,0:0:0:0:
201,278,54295,6,0,L|57:224,1,150,2|0,0:0|0:0,0:0:0:0:
58,213,55204,70,0,L|167:181,1,112.499996566773,2|0,0:0|0:0,0:0:0:0:
177,188,56113,6,0,L|173:248,1,50,2|0,0:0|0:0,0:0:0:0:
106,280,56341,70,0,L|118:336,1,50,2|0,0:0|0:0,0:0:0:0:
188,371,56568,6,0,L|361:382,1,160,2|4,0:0|0:0,0:0:0:0:
9,278,60659,6,0,B|27:217|96:245|96:283|90:286|86:287|75:336|152:365|175:305,1,225.000008583069,4|2,1:0|0:0,0:0:0:0:
474,191,60886,5,8,3:0:0:0:
475,172,60943,1,8,3:0:0:0:
471,148,61000,1,8,3:0:0:0:
454,123,61056,1,8,3:0:0:0:
424,111,61113,6,0,P|382:129|354:127,1,62.5,0|0,1:0|0:0,0:0:0:0:
375,248,61227,22,0,B|321:272|283:213|319:172|324:170|330:170|359:149|337:72|273:99,1,250,4|2,3:0|0:0,0:0:0:0:
316,21,61454,70,0,B|353:37|358:69|346:89|337:89|330:87|298:120|317:165|359:172|362:168|368:161|400:166|422:212|384:244,2,275.000002622604,4|2|2,1:0|0:0|0:0,0:0:0:0:
229,178,61795,38,0,B|216:204|257:268|166:252|228:205|229:178,2,125,2|2|2,3:0|0:0|0:0,0:0:0:0:
299,267,62136,70,0,B|291:355|235:239|201:153|117:198,1,225.000008583069,4|0,1:2|0:0,0:0:0:0:
59,246,62363,22,0,B|67:333|170:190|260:45|299:126,1,300.000011444092,4|0,1:2|0:0,0:0:0:0:
466,177,62591,5,2,0:0:0:0:
485,255,62704,1,0,0:0:0:0:
437,320,62818,1,2,0:0:0:0:
358,333,62931,1,2,3:2:0:0:
205,259,63045,22,0,B|148:286|73:128|128:104|186:78|259:233|205:259,1,325.000009298325,4|0,1:0|0:0,0:0:0:0:
169,371,63272,70,0,P|176:196|201:23,1,350.00000333786,4|2,1:2|0:0,0:0:0:0:
352,53,63500,37,2,0:0:0:0:
405,111,63613,1,0,0:0:0:0:
389,188,63727,1,2,0:0:0:0:
283,294,63841,54,0,B|158:364|-21:149|109:28|303:85|259:263|141:231,1,525.00000500679,4|0,1:2|0:0,0:0:0:0:
31,188,64295,5,4,1:2:0:0:
256,192,64352,12,0,67591,0:0:0:0:
87,330,71568,70,0,B|42:330|98:285|56:263|17:283|17:283|107:237|63:321|141:351|196:300,1,284.999992389679,4|0,3:0|0:0,0:0:0:0:
286,371,71795,6,0,B|265:377|265:377|214:190|214:190|241:184,1,231.249999117851,2|0,1:0|0:0,0:0:0:0:
307,202,72136,6,0,P|327:220|351:212,1,37.5000014305115,2|0,1:0|0:0,0:0:0:0:
378,180,72250,6,0,P|395:160|380:129,1,43.7500004172325,8|0,3:0|0:0,0:0:0:0:
323,129,72363,6,0,P|296:123|277:152,1,50,8|0,3:0|0:0,0:0:0:0:
223,90,72477,6,0,L|235:24,1,56.2500021457673,2|0,1:0|0:0,0:0:0:0:
318,8,72591,38,0,L|307:69,1,62.5,4|0,3:0|0:0,0:0:0:0:
280,137,72704,6,0,L|268:59,1,68.7500006556511,4|0,3:0|0:0,0:0:0:0:
318,8,72818,38,0,B|352:19|352:19|373:0|382:29|382:29|488:14|451:138|368:77|406:26|445:17,1,262.500002503395,6|0,1:0|0:0,0:0:0:0:
444,17,73386,6,0,B|470:117|470:117|477:136|451:164|451:164|480:175|499:212|499:212|479:147,1,262.500002503395,8|0,3:0|0:0,0:0:0:0:
505,162,73613,5,2,1:0:0:0:
426,234,73727,1,8,3:0:0:0:
418,243,73784,1,8,3:0:0:0:
409,251,73841,2,0,L|421:321,1,50,4|4,3:0|3:0,0:0:0:0:
467,352,73954,1,2,1:0:0:0:
321,372,74068,5,4,3:0:0:0:
313,363,74125,1,4,3:0:0:0:
304,355,74182,2,0,L|316:285,1,50,0|0,1:0|1:0,0:0:0:0:
263,249,74295,2,0,B|143:267,1,100,2|8,1:0|3:0,0:0:0:0:
155,258,74466,1,8,3:0:0:0:
146,252,74522,1,4,3:0:0:0:
137,246,74579,1,8,3:0:0:0:
128,240,74636,38,0,B|193:227|117:138|-6:174|53:220,1,187.5,2|0,1:0|0:0,0:0:0:0:
212,147,74863,6,0,B|179:166|152:85|96:-54|139:92|168:168|127:173,1,240,2|0,1:0|0:0,0:0:0:0:
251,29,75091,6,0,B|158:-8|158:-8|18:116,1,256.666674499512,2|0,1:0|0:0,0:0:0:0:
313,384,75431,6,0,B|193:332|193:332|137:123,1,326.666656697591,4|0,1:2|0:0,0:0:0:0:
511,174,75772,6,0,B|463:87|463:87|260:126|260:126|252:237,1,396.666674232483,4|0,1:2|0:0,0:0:0:0:
350,283,76113,6,0,B|372:258|391:287|378:329|321:313|316:293|341:251|348:273|348:273|371:195,1,180.000000686646,4|8,1:2|3:0,0:0:0:0:
170,17,76416,70,0,B|165:49|120:41|117:-24|180:-44|203:-12|194:38|177:24|177:24|207:116,1,200,6|4,1:0|3:0,0:0:0:0:
313,384,76719,5,6,1:0:0:0:
512,317,77250,5,0,0:0:0:0:
507,311,77306,1,2,0:0:0:0:
484,331,77477,1,2,0:0:0:0:
432,298,77704,1,2,0:0:0:0:
378,254,77931,5,0,0:0:0:0:
333,315,78159,1,2,0:0:0:0:
266,277,78386,1,0,0:0:0:0:
220,346,78613,69,0,0:0:0:0:
150,300,78727,1,2,0:0:0:0:
114,108,78841,70,0,B|118:122|118:122|66:136|66:136|72:159,1,75,4|0,1:2|0:0,0:0:0:0:
97,145,79068,1,0,3:0:0:0:
234,209,79295,38,0,B|264:195|324:231|304:306|267:320|157:343|200:236|43:259|234:19|488:-63|587:209|520:328|448:337|448:337|361:350|282:374|282:374|304:363|340:367|339:307|552:343|157:72|451:25,1,1319.9999597168,8|0,1:2|0:0,0:0:0:0:
415,25,79977,6,0,B|456:39|470:-34|460:40|504:46,1,100,0|0,1:0|0:0,0:0:0:0:
509,55,80204,6,0,B|357:75|442:32|261:61,1,225.000008583069,8|0,1:2|0:0,0:0:0:0:
211,89,80431,2,0,P|158:111|132:64,1,112.500004291535,0|0,1:0|0:0,0:0:0:0:
21,34,80659,6,0,B|64:29|85:62|85:62|371:20|371:20|298:31|293:114|332:145,1,525.00000500679,2|0,1:2|0:0,0:0:0:0:
295,243,81113,2,0,B|261:233|261:233|228:177|164:200|164:200|125:185,1,175.00000166893,8|0,1:2|0:0,0:0:0:0:
38,278,81341,37,0,1:0:0:0:
60,364,81454,1,2,0:0:0:0:
146,342,81568,2,0,B|154:312,1,29.9999990844727,0|2,3:0|0:0,0:0:0:0:
203,107,81795,6,0,B|181:127|208:186|300:198|231:63|300:25|343:21|343:21|139:116|426:229|367:338|271:339|216:313|266:242,1,664.999982242585,2|0,1:0|0:0,0:0:0:0:
343,186,82250,6,0,P|365:178|391:212,1,59.9999981689454,2|0,1:0|0:0,0:0:0:0:
431,82,82477,6,0,B|295:214|240:90|96:243|96:243|155:204|210:259|210:259|195:328|263:367,1,612.500005841255,4|0,1:2|0:0,0:0:0:0:
391,200,82931,2,0,B|448:217|475:271|493:348|493:348|462:285|386:305|386:305|365:373|295:372,1,423.499988045121,2|0,1:0|0:0,0:0:0:0:
241,351,83386,38,0,B|201:323|215:273|215:273|230:320,1,112.500004291535,4|0,1:2|0:0,0:0:0:0:
222,365,83613,2,0,B|194:394|178:351|136:389,1,75,0|0,1:0|3:0,0:0:0:0:
117,264,83841,6,0,B|95:243|110:191|153:182|153:182|129:239,1,150,8|0,1:2|0:0,0:0:0:0:
87,290,84068,2,0,B|36:312|47:245|-6:266,1,100,2|0,0:0|0:0,0:0:0:0:
26,117,84295,5,4,1:2:0:0:
34,89,84409,5,2,3:2:0:0:
97,32,84522,37,2,3:2:0:0:
199,32,84636,5,0,3:0:0:0:
278,93,84750,5,4,1:0:0:0:
199,173,84863,5,2,3:2:0:0:
132,144,84977,38,0,B|132:122|105:103|105:103|134:120|165:114,1,100,2|2,0:0|3:2,0:0:0:0:
305,232,85204,6,0,B|315:210|350:200|350:200|288:189|242:240,1,160,4|0,1:0|0:0,0:0:0:0:
88,287,85431,2,0,B|124:277|121:313|157:307,1,75.0000028610231,4|0,0:0|0:0,0:0:0:0:
383,355,85659,6,0,B|354:410|231:441|65:304|173:62|543:103|475:264|233:312|439:368|536:294|516:208|467:148|380:172|351:256|418:293|519:288|498:185,1,629.999980773926,4|0,1:2|0:0,0:0:0:0:
484,89,86113,6,0,B|487:104|487:104|349:137|349:137|352:154,1,165.000001573563,4|0,1:0|0:0,0:0:0:0:
512,63,86341,2,0,L|480:53,1,25,2|0,0:0|0:0,0:0:0:0:
321,0,86568,38,0,B|306:-3|306:-3|273:135|273:135|256:132,1,165.000001573563,8|0,1:2|0:0,0:0:0:0:
375,84,86795,2,0,L|365:52,1,25,0|0,1:0|0:0,0:0:0:0:
208,5,87022,6,0,B|197:18|197:18|212:86,1,69.9999978637696,0|0,1:0|0:0,0:0:0:0:
262,238,87250,6,0,B|273:251|273:251|258:319,1,69.9999978637696,2|0,1:2|0:0,0:0:0:0:
244,317,87477,6,0,B|233:330|233:330|248:398,1,69.9999978637696,2|0,1:2|0:0,0:0:0:0:
74,214,87704,38,0,B|66:129|-71:123|-53:284|39:285|91:271|157:197|234:107|234:107|202:176|162:148|154:254|194:274,1,612.500005841255,4|0,1:2|0:0,0:0:0:0:
230,297,88159,5,0,3:0:0:0:
320,312,88272,5,2,3:0:0:0:
413,283,88386,5,8,1:2:0:0:
489,202,88500,37,2,3:0:0:0:
512,92,88613,6,0,B|477:78|493:45|493:45|370:-6|381:118|304:122|320:73|320:73|240:35|381:14,1,350.00000333786,0|0,1:0|3:0,0:0:0:0:
489,202,89068,6,0,B|513:338|463:242|493:391,1,165.000005035401,0|0,1:0|0:0,0:0:0:0:
400,334,89295,2,0,B|377:294|414:257|414:257|478:267|476:323,1,165.000005035401,2|0,1:2|0:0,0:0:0:0:
501,380,89522,6,0,B|369:396|276:249|326:90|326:90|288:259|236:259|215:220|246:182|277:225,1,612.500005841255,4|0,1:2|0:0,0:0:0:0:
251,221,89977,38,0,B|231:235|226:217|200:232,1,50,0|0,1:0|0:0,0:0:0:0:
281,139,90204,6,0,B|280:187|258:171|257:219,1,75.0000028610231,4|0,1:0|0:0,0:0:0:0:
214,39,90431,6,0,B|272:67|247:78|288:103,1,100,4|0,1:2|0:0,0:0:0:0:
70,47,90659,6,0,B|100:9|135:17|125:28|158:36|181:9,1,125,4|0,1:2|0:0,0:0:0:0:
0,229,90886,38,0,B|-19:178|16:153|21:162|51:142|34:86,1,150.000005722046,4|0,1:2|0:0,0:0:0:0:
184,375,91113,6,0,B|125:380|107:323|132:341|115:287|50:283,1,175.00000166893,4|0,1:2|0:0,0:0:0:0:
457,222,91341,6,0,B|449:259|449:259|393:247|342:288|366:363|366:363|342:287|271:287|234:318|234:318|198:282,1,400,6|0,1:0|0:0,0:0:0:0:
214,298,91795,5,0,3:0:0:0:
183,235,91909,37,2,0:0:0:0:
220,166,92022,5,0,3:0:0:0:
296,119,92136,6,0,B|300:135|314:130|314:130|336:126|336:126|350:122|354:142,1,69.9999978637696,2|0,3:2|0:0,0:0:0:0:
384,172,92250,6,0,B|399:176|403:161|403:161|410:140|410:140|413:126|432:133,1,69.9999978637696,2|0,3:2|0:0,0:0:0:0:
490,96,92363,38,0,B|501:84|490:74|490:74|476:57|476:57|465:47|480:34,1,69.9999978637696,2|0,3:0|0:0,0:0:0:0:
411,0,92477,5,0,3:0:0:0:
335,34,92591,5,2,0:0:0:0:
296,119,92704,5,0,3:0:0:0:
318,221,92818,37,2,3:0:0:0:
389,306,92931,6,0,B|414:423|569:388|511:236|441:271|373:283|373:283|365:265|348:253|348:253|371:322|334:388|278:351|306:292|370:346,1,489.999985046387,2|0,3:0|0:0,0:0:0:0:
241,318,93386,6,0,P|219:320|192:331,1,44.999998626709,4|0,1:2|0:0,0:0:0:0:
70,278,93841,6,0,B|69:233|118:211|190:276|16:283|-31:172|43:97|43:97|5:133|-118:122|-69:-83|93:-137|301:-26|268:127|336:235|-30:325|-58:182|37:10|239:127|114:187|149:248|248:222,1,976.250003724098,12|0,1:0|0:0,0:0:0:0:
324,252,94522,38,0,L|305:159,1,75.0000028610231,0|0,1:0|0:0,0:0:0:0:
449,85,94750,2,0,L|488:272,1,184.999999294281,8|0,1:2|0:0,0:0:0:0:
246,369,94977,6,0,P|221:370|202:355,1,50,0|0,1:0|0:0,0:0:0:0:
134,317,95091,2,0,P|109:315|90:330,1,50,2|0,3:2|0:0,0:0:0:0:
20,348,95204,6,0,B|53:364|152:322|26:181|180:164|180:164|55:178|54:343|182:372|274:332|292:238|195:195|162:260,1,675.000025749207,0|0,1:0|3:0,0:0:0:0:
178,240,95659,6,0,B|228:221|215:251|269:229,1,87.500000834465,2|0,1:2|0:0,0:0:0:0:
512,33,95886,2,0,P|403:105|404:-4,1,297.500005674362,0|0,1:0|0:0,0:0:0:0:
446,51,96341,38,0,B|517:167|478:294|316:339|186:350|94:213|58:48|408:-76|432:224|273:224|257:182|265:136,1,664.999982242585,4|0,1:2|0:0,0:0:0:0:
282,184,96795,6,0,L|296:264,1,59.9999981689454,2|0,1:2|0:2,0:0:0:0:
246,345,97022,6,0,B|146:338|76:384|76:384|-11:213|7:42|7:42|82:61|150:17,1,660.000020141602,2|0,1:0|0:0,0:0:0:0:
319,329,97477,2,0,B|406:280|489:292|489:292|517:133|429:23|429:23|384:68|308:46,1,569.999984779358,4|0,1:2|0:0,0:0:0:0:
225,91,97931,6,0,B|207:141|110:157|110:157|191:194|190:251,1,269.999991760254,2|0,1:0|0:0,0:0:0:0:
297,26,98386,2,0,B|294:154|399:214|399:214|278:207|253:333,1,435.000013275147,4|0,1:2|0:0,0:0:0:0:
190,251,98841,38,0,B|145:265|132:324|132:324|116:207|-27:195|-27:195|90:85|199:125|199:125|268:41|425:78|425:78|297:166|336:273|336:273|298:232|248:236,2,1138.00004341126,4|4|4,1:0|1:2|1:2,0:0:0:0:
496,47,99977,6,0,P|484:24|463:11,2,50,4|8|6,3:0|3:0|3:0,0:0:0:0:
249,366,100659,6,0,B|251:378|251:378|398:357,1,150.000005722046,4|0,1:0|0:0,0:0:0:0:
340,345,100886,2,0,B|328:343|328:343|343:233,1,100,2|0,0:0|3:0,0:0:0:0:
512,170,101113,6,0,B|510:158|510:158|363:179,1,150.000005722046,8|0,1:2|0:0,0:0:0:0:
421,191,101340,2,0,B|433:193|433:193|418:303,1,100,0|0,1:0|0:0,0:0:0:0:
249,366,101568,38,0,B|232:359|225:329|225:329|252:297|276:315,1,92.4999996471405,2|0,1:2|0:0,0:0:0:0:
0,110,101795,6,0,B|-7:93|9:66|9:66|50:63|55:93,1,92.4999996471405,2|0,1:3|0:0,0:0:0:0:
135,306,102022,6,0,B|146:293|115:266|115:266|85:273|78:290,1,92.4999996471405,2|0,1:3|0:0,0:0:0:0:
64,290,102136,2,0,P|59:308|70:298,1,37.5000014305115,2|0,0:0|0:0,0:0:0:0:
142,322,102250,6,0,B|135:381|305:265|8:324|-25:31|258:-30|363:219|95:330|302:328|258:289,1,462.499998235703,4|0,1:2|0:0,0:0:0:0:
258,316,102591,38,0,L|248:370,1,50,0|0,3:0|0:0,0:0:0:0:
318,384,102704,2,0,B|325:342|325:342|381:353,1,89.9999972534181,0|0,1:0|0:0,0:0:0:0:
512,248,102931,6,0,B|497:251|497:251|472:154|472:154|449:159,1,125,8|0,1:2|0:0,0:0:0:0:
327,23,103159,6,0,B|87:-93|-55:64|-18:189|-96:207|-181:126|233:61|98:139|29:-4|23:253|87:308|176:245|256:296|311:162|299:119|205:133|225:7|381:28,1,929.999979600907,4|0,1:2|1:0,0:0:0:0:
165,136,103841,6,0,B|159:114|159:114|142:126|142:126|151:74|151:74|188:114|188:114|166:110|166:110|179:157,1,209.999993591309,8|0,1:2|0:0,0:0:0:0:
267,192,104068,38,0,P|243:188|265:198,1,60,2|0,1:0|0:0,0:0:0:0:
312,263,104522,6,0,L|309:259,1,5,0|0,3:2|0:0,0:0:0:0:
235,274,104750,6,0,L|233:288,1,14.9999995422363,2|0,3:2|0:0,0:0:0:0:
154,240,104977,6,0,L|178:229,1,25.9999998413086,2|0,3:2|0:0,0:0:0:0:
177,154,105204,38,0,L|144:139,1,37.0000009033203,2|0,1:2|0:0,0:0:0:0:
225,61,105431,6,0,B|226:67|226:67|236:108,1,48.000001171875,2|0,1:2|0:0,0:0:0:0:
308,123,105659,6,0,B|326:104|339:80|339:80|343:76,1,58.9999979293824,2|0,1:2|0:0,0:0:0:0:
411,192,105886,6,0,B|401:193|401:193|377:188|347:191|347:191|341:192,1,69.9999978637696,2|0,1:2|0:0,0:0:0:0:
312,263,106113,38,0,B|316:271|316:271|329:296|360:316|360:316|364:326,1,81.0000019775391,2|0,1:2|0:0,0:0:0:0:
216,362,106341,6,0,B|221:353|221:353|235:316|230:280|230:280|235:272,1,91.9999969116212,2|0,1:2|0:0,0:0:0:0:
214,7,106568,6,0,B|218:15|218:15|213:54|235:102|235:102|239:114,1,102.99999913559,2|0,1:2|0:0,0:0:0:0:
372,356,106795,6,0,B|370:343|370:343|330:308|313:273|313:273|311:259,1,113.999998608398,2|0,1:2|0:0,0:0:0:0:
66,99,107022,38,0,B|75:108|75:108|129:118|170:145|170:145|179:157,1,125,2|0,1:2|0:0,0:0:0:0:
473,187,107250,6,0,B|461:181|461:181|404:199|350:196|350:196|338:190,1,136.000000830078,4|0,1:2|0:0,0:0:0:0:
47,287,107477,6,0,B|62:289|62:289|111:241|167:227|167:227|180:229,1,146.999993158722,4|0,1:2|0:0,0:0:0:0:
395,0,107704,6,0,B|379:7|379:7|338:57|321:119|321:119|306:125,1,158.000003857422,4|0,1:0|0:0,0:0:0:0:
30,26,109295,6,0,L|-16:0,1,37.5000014305115,8|0,3:0|0:0,0:0:0:0:
57,68,109409,6,0,L|46:33,1,37.5000014305115,4|0,3:0|0:0,0:0:0:0:
131,94,109522,70,0,L|77:75,1,57.5000010967255,8|8,3:0|3:0,0:0:0:0:
147,168,109636,6,0,L|104:107,1,57.5000010967255,4|4,3:0|3:0,0:0:0:0:
233,192,109750,70,0,B|262:158|262:158|85:213|85:213|75:231|75:231|111:255,1,279.999991455078,6|0,1:0|0:0,0:0:0:0:
110,251,110091,2,0,B|117:287|117:287|107:314,1,52.4999983978272,0|0,1:0|0:0,0:0:0:0:
12,380,110204,6,0,B|23:326|23:326|-19:230|-19:230|16:338|16:338|41:349,1,300.000011444092,8|0,1:2|1:0,0:0:0:0:
181,352,110545,70,0,L|217:346,1,34.9999989318848,0|0,1:0|3:0,0:0:0:0:
283,304,110886,5,2,3:0:0:0:
374,341,111000,2,0,L|365:297,1,37.5000014305115,2|0,0:0|0:0,0:0:0:0:
310,227,111113,69,8,1:2:0:0:
195,268,111227,2,0,L|203:224,1,44.999998626709,2|0,0:0|0:0,0:0:0:0:
250,156,111341,5,0,3:0:0:0:
400,232,111454,2,0,L|389:173,1,57.5000010967255,2|0,1:0|0:0,0:0:0:0:
308,31,111568,69,4,1:2:0:0:
163,21,111681,1,2,1:0:0:0:
85,117,111795,1,0,0:0:0:0:
107,215,111909,1,2,1:0:0:0:
195,268,112022,6,0,L|251:285,1,50,8|0,1:2|0:0,0:0:0:0:
316,323,112250,2,0,L|377:342,1,60,0|2,1:0|0:0,0:0:0:0:
454,323,112704,1,0,3:0:0:0:
450,307,112818,1,0,1:0:0:0:
423,113,112931,69,8,1:2:0:0:
283,81,113045,1,0,1:0:0:0:
252,209,113159,1,2,0:0:0:0:
393,241,113272,1,2,0:0:0:0:
356,145,113386,6,0,B|319:122|319:122|274:158|274:158|295:212|295:212|344:206|344:206|367:168,1,250,4|0,1:2|0:0,0:0:0:0:
475,237,113727,70,0,B|479:207|479:207|453:179,1,62.5,0|0,1:0|1:0,0:0:0:0:
188,266,113841,2,0,B|176:263|176:263|139:293,1,50,8|0,1:2|0:0,0:0:0:0:
208,350,114068,5,0,3:0:0:0:
60,305,114181,2,0,B|19:309,1,40,8|2,1:2|3:0,0:0:0:0:
192,357,114522,69,0,1:0:0:0:
272,279,114636,2,0,L|259:205,1,62.5,2|0,1:3|0:0,0:0:0:0:
303,150,114750,5,0,1:0:0:0:
232,96,114863,2,0,L|240:58,1,37.5000014305115,8|8,3:0|3:0,0:0:0:0:
253,24,114977,70,0,L|246:-12,2,25.0000009536744,4|8|8,3:0|3:0|3:0,0:0:0:0:
334,47,115204,5,4,1:3:0:0:
339,62,115318,1,2,0:0:0:0:
124,136,115431,69,0,3:0:0:0:
159,37,115545,1,2,0:0:0:0:
223,244,115659,22,0,B|258:265|258:265|329:201|329:201|280:119|280:119|203:139|203:139|195:174,1,345.000006580353,4|0,1:2|0:0,0:0:0:0:
325,254,116114,6,0,B|355:162|355:162|255:83|255:83|151:158|151:158|187:263|187:263|253:280,1,525.00000500679,2|0,1:0|0:0,0:0:0:0:
353,105,116568,6,0,B|315:61|315:61|161:84|161:84|122:247|122:247|271:319|271:319|384:225|384:225|382:182,1,735.000007009506,6|0,1:0|0:0,0:0:0:0:
223,141,117022,22,0,B|204:196|204:196|261:227|261:227|305:190|305:190|287:148|287:148|250:135|250:135|254:124,1,275.000002622604,4|2,1:2|0:0,0:0:0:0:
197,66,117250,2,0,B|169:58|169:58|161:53|161:53|121:42,1,75.0000028610231,2|0,0:0|1:0,0:0:0:0:
312,34,117477,5,8,1:2:0:0:
388,14,117591,1,2,0:0:0:0:
463,43,117704,1,4,1:2:0:0:
485,119,117818,1,2,0:0:0:0:
399,100,117931,5,0,3:0:0:0:
419,212,118083,5,0,3:0:0:0:
396,243,118159,1,2,0:0:0:0:
436,311,118272,5,0,3:0:0:0:
371,357,118386,5,8,0:2:0:0:
314,304,118500,1,2,0:0:0:0:
239,289,118613,1,0,1:0:0:0:
165,313,118727,1,2,1:2:0:0:
108,373,118841,5,4,1:2:0:0:
73,218,118954,1,2,0:0:0:0:
151,299,119068,5,2,0:0:0:0:
6,285,119181,1,0,1:0:0:0:
57,139,119295,69,8,1:2:0:0:
132,114,119409,1,2,0:0:0:0:
199,154,119522,1,2,0:0:0:0:
213,231,119636,1,8,1:3:0:0:
271,321,119750,5,4,1:3:0:0:
386,359,119863,1,8,3:0:0:0:
291,175,119977,69,2,0:0:0:0:
124,211,120091,1,0,1:0:0:0:
230,0,120204,5,4,3:0:0:0:
293,91,120318,1,4,3:0:0:0:
218,143,120431,1,8,3:0:0:0:
265,208,120545,1,4,3:0:0:0:
253,304,120659,6,0,B|259:313|259:313|249:376,1,75.0000028610231,4|2,1:0|0:0,0:0:0:0:
259,283,120886,5,2,0:0:0:0:
227,251,120962,5,2,0:0:0:0:
248,203,121037,5,2,0:0:0:0:
293,197,121113,22,0,L|351:187,1,50.0000019073487,8|0,1:2|0:0,0:0:0:0:
354,154,121265,2,0,L|422:106,1,83.3333333333333,8|2,1:3|3:0,0:0:0:0:
435,82,121416,5,4,3:0:0:0:
447,82,121454,1,2,0:0:0:0:
512,22,121568,6,0,B|489:19|489:19|223:261|223:261|195:254,1,400,4|0,1:2|1:0,0:0:0:0:
281,138,121909,2,0,B|312:140|312:140|320:160,1,50,4|0,3:0|0:0,0:0:0:0:
359,248,122022,5,8,1:3:0:0:
306,250,122098,1,8,3:0:0:0:
274,298,122174,1,8,3:0:0:0:
193,341,122250,5,4,1:3:0:0:
131,384,122325,1,8,3:0:0:0:
57,367,122401,1,8,3:0:0:0:
46,366,122477,22,0,L|27:376,1,12.5,4|0,1:2|0:0,0:0:0:0:
127,293,122591,5,4,3:0:0:0:
127,293,122647,1,4,3:0:0:0:
127,293,122704,2,0,L|47:344,1,75.0000028610231,2|0,1:0|0:0,0:0:0:0:
218,244,122931,6,0,L|131:314,1,100,2|0,1:0|0:0,0:0:0:0:
344,162,123159,6,0,L|205:220,1,125,4|0,1:2|0:0,0:0:0:0:
512,0,123386,6,0,L|304:234,2,300.000011444092,2|4|4,1:0|1:2|1:0,0:0:0:0:
438,47,124068,38,0,L|358:96,1,75.0000028610231,2|0,1:0|0:0,0:0:0:0:
511,7,124295,6,0,L|544:-1,10,25.0000009536744,0|0|0|0|0|0|2|0|2|0|2,3:0|2:0|2:0|2:0|3:0|3:0|3:2|3:0|3:2|3:0|3:2,0:0:0:0:
512,20,124750,70,0,L|497:58,1,37.5000014305115,0|0,1:0|0:0,0:0:0:0:
431,0,124977,2,0,L|395:29,1,37.5000014305115,2|0,1:2|0:0,0:0:0:0:
490,61,125205,6,0,L|480:105,1,37.5000014305115,2|0,1:2|0:0,0:0:0:0:
390,32,125432,2,0,L|333:46,1,37.5000014305115,2|0,1:2|0:0,0:0:0:0:
476,117,125659,6,0,L|474:177,1,50,2|0,1:2|0:0,0:0:0:0:
333,53,125886,2,0,L|282:51,1,50,2|0,1:2|0:0,0:0:0:0:
468,197,126114,6,0,L|489:246,1,50,2|0,1:2|0:0,0:0:0:0:
257,58,126341,2,0,L|201:41,1,50,2|0,1:2|0:0,0:0:0:0:
462,266,126568,38,0,L|519:302,1,59.9999981689454,2|0,1:2|0:0,0:0:0:0:
172,46,126795,2,0,L|119:4,1,59.9999981689454,2|0,1:2|0:0,0:0:0:0:
326,178,127022,6,0,P|358:181|388:189,1,59.9999981689454,2|0,1:2|0:0,0:0:0:0:
59,138,127250,2,0,P|26:136|-4:129,1,59.9999981689454,2|0,1:2|0:0,0:0:0:0:
431,121,127477,6,0,B|451:118|465:112|465:112|468:112|468:112|482:107|503:103,1,75.0000028610231,2|0,1:2|0:0,0:0:0:0:
182,180,127704,2,0,B|162:183|147:189|147:189|144:190|144:190|134:193|110:198,1,75.0000028610231,2|0,1:2|0:0,0:0:0:0:
348,96,127931,6,0,B|356:78|373:66|373:66|375:64|375:64|393:47|400:34,1,75.0000028610231,2|0,1:2|0:0,0:0:0:0:
203,261,128159,2,0,B|189:280|181:287|181:287|179:290|179:290|160:303|151:323,1,75.0000028610231,2|0,1:2|0:0,0:0:0:0:
253,89,128386,38,0,B|257:63|248:47|248:47|245:40|245:40|225:34|241:-1,1,89.9999972534181,2|0,1:2|0:0,0:0:0:0:
281,295,128613,2,0,B|296:317|287:336|287:336|287:342|287:342|272:350|293:385,1,89.9999972534181,2|0,1:2|0:0,0:0:0:0:
166,97,128841,6,0,B|140:88|134:70|134:70|128:63|128:63|127:45|94:35,1,89.9999972534181,4|0,1:2|0:0,0:0:0:0:
351,254,129068,2,0,B|373:260|383:279|383:279|388:287|388:287|387:303|423:316,1,89.9999972534181,4|0,1:2|0:0,0:0:0:0:
113,214,129295,6,0,B|90:194|67:220|67:220|47:229|47:229|25:252|-16:236,1,125,4|0,1:2|0:0,0:0:0:0:
404,167,129522,2,0,B|413:151|448:161|448:161|468:153|468:153|496:165|529:145,1,125,4|0,1:0|0:0,0:0:0:0:
256,49,130318,5,2,0:0:0:0:
246,93,130369,37,2,0:0:0:0:
259,135,130421,5,0,0:0:0:0:
252,175,130473,5,2,0:0:0:0:
262,211,130524,5,0,0:0:0:0:
251,241,130576,37,2,0:0:0:0:
256,262,130628,54,0,L|256:289,1,18.7500007152558,4|2,1:0|0:0,0:0:0:0:
