osu file format v14

[General]
AudioFilename: audio.mp3
AudioLeadIn: 0
PreviewTime:77022
Countdown: 0
SampleSet: Soft
StackLeniency: 1
Mode: 0
LetterboxInBreaks: 0
WidescreenStoryboard: 1
EpilepsyWarning: 1

[Editor]
Bookmarks: 886,32477,71795,109295,130659
DistanceSpacing: 0.7
BeatDivisor: 6
GridSize: 32
TimelineZoom: 3.2

[Metadata]
Title:Random
TitleUnicode:Random
Artist:Sobrem x Silentroom
ArtistUnicode:Sobrem × Silentroom
Creator:seros
Version:Yoru's Insane
Source:BOFXVII
Tags:Featured Artist Sobrem Silentroom THE BMS OF FIGHTERS XVII -VISION RETRO FUTURE- following the clue [clue] harkiadel english electronic instrumental jazz funk fusion piano video game ak74 revoh dahkjdas kowari callionet intensity hakurei yoru hakurei_yoru zengsb pigeons arsalan yf yf_bmp mappers' guild mpg mg fa
BeatmapID:4058526
BeatmapSetID:1674155

[Difficulty]
HPDrainRate:5
CircleSize:4.4
OverallDifficulty:7.5
ApproachRate:9
SliderMultiplier:2
SliderTickRate:1

[Events]
//Background and Video events
0,0,"bg.jpg",0,0
Video,0,"bga.mp4"
//Break Periods
2,64835,70968
//Storyboard Layer 0 (Background)
//Storyboard Layer 1 (Fail)
//Storyboard Layer 2 (Pass)
//Storyboard Layer 3 (Foreground)
//Storyboard Layer 4 (Overlay)
//Storyboard Sound Samples

[TimingPoints]
-1159,454.545454545455,4,2,0,69,1,0
3159,-66.6666666666667,4,2,0,69,0,0
3310,-62.5,4,2,0,69,0,0
3386,-100,4,2,0,69,0,0
3669,-100,4,2,0,5,0,0
3727,-100,4,2,0,69,0,0
4636,-100,4,2,0,69,0,0
4750,-50,4,2,0,40,0,0
4977,-50,4,2,0,40,0,0
6341,-133.333333333333,4,2,0,40,0,0
7931,-133.333333333333,4,2,0,40,0,0
9750,-400,4,2,0,40,0,0
10204,-400,4,2,0,50,0,0
11568,-66.6666666666667,4,2,0,69,0,0
12987,-66.6666666666667,4,2,0,5,0,0
13045,-66.6666666666667,4,2,0,69,0,0
14295,-55.5555555555556,4,2,0,69,0,0
14750,-50,4,2,0,69,0,0
15659,-100,4,2,0,69,0,0
16568,-76.9230769230769,4,2,0,69,0,0
18386,-100,4,2,0,69,0,0
18841,-66.6666666666667,4,2,0,50,0,0
20204,-111.111111111111,4,2,0,50,0,0
20659,-66.6666666666667,4,2,0,50,0,0
22022,-83.3333333333333,4,2,0,50,0,0
22477,-100,4,2,0,50,0,0
26113,-52.6315789473684,4,2,0,69,0,0
27022,-66.6666666666667,4,2,0,69,0,0
27704,-55.5555555555556,4,2,0,69,0,0
28159,-71.4285714285714,4,2,0,69,0,0
29068,-58.8235294117647,4,2,0,69,0,0
30204,-66.6666666666667,4,2,0,69,0,0
30659,-76.9230769230769,4,2,0,69,0,0
33386,-76.9230769230769,4,2,0,50,0,0
34144,-76.9230769230769,4,2,0,5,0,0
34750,-76.9230769230769,4,2,0,40,0,0
34787,-76.9230769230769,4,2,0,5,0,0
34825,-76.9230769230769,4,2,0,40,0,0
34862,-76.9230769230769,4,2,0,5,0,0
34901,-76.9230769230769,4,2,0,40,0,0
34938,-76.9230769230769,4,2,0,5,0,0
34977,-76.9230769230769,4,2,0,40,0,0
35014,-76.9230769230769,4,2,0,5,0,0
35053,-76.9230769230769,4,2,0,40,0,0
35090,-76.9230769230769,4,2,0,5,0,0
35128,-76.9230769230769,4,2,0,40,0,0
35165,-76.9230769230769,4,2,0,5,0,0
35204,-76.9230769230769,4,2,0,40,0,0
36341,-76.9230769230769,4,2,0,50,0,0
40886,-142.857142857143,4,2,0,69,0,0
42477,-83.3333333333333,4,2,0,69,0,0
42931,-66.6666666666667,4,2,0,69,0,0
43386,-83.3333333333333,4,2,0,69,0,0
43841,-66.6666666666667,4,2,0,69,0,0
44068,-83.3333333333333,4,2,0,69,0,0
45204,-66.6666666666667,4,2,0,69,0,0
46568,-111.111111111111,4,2,0,69,0,0
46681,-111.111111111111,4,2,0,69,0,0
46795,-66.6666666666667,4,2,0,69,0,0
46909,-111.111111111111,4,2,0,69,0,0
47022,-111.111111111111,4,2,0,69,0,0
47136,-111.111111111111,4,2,0,69,0,0
47249,-66.6666666666667,4,2,0,69,0,0
47363,-111.111111111111,4,2,0,69,0,0
47477,-111.111111111111,4,2,0,69,0,0
47591,-111.111111111111,4,2,0,69,0,0
47704,-66.6666666666667,4,2,0,69,0,0
47818,-111.111111111111,4,2,0,69,0,0
47931,-111.111111111111,4,2,0,69,0,0
48045,-111.111111111111,4,2,0,69,0,0
48158,-66.6666666666667,4,2,0,69,0,0
48272,-111.111111111111,4,2,0,69,0,0
48386,-111.111111111111,4,2,0,69,0,0
48500,-111.111111111111,4,2,0,69,0,0
48613,-66.6666666666667,4,2,0,69,0,0
49750,-500.000000000003,4,2,0,40,0,0
50602,-500.000000000003,4,2,0,5,0,0
50659,-500.000000000003,4,2,0,40,0,0
51511,-500.000000000003,4,2,0,5,0,0
51568,-500.000000000003,4,2,0,40,0,0
52420,-500.000000000003,4,2,0,5,0,0
52477,-500.000000000003,4,2,0,40,0,0
53329,-500.000000000003,4,2,0,5,0,0
53386,-500.000000000003,4,2,0,40,0,0
54238,-500.000000000003,4,2,0,5,0,0
54295,-500.000000000003,4,2,0,40,0,0
55147,-500.000000000003,4,2,0,5,0,0
55204,-500.000000000003,4,2,0,40,0,0
56056,-500.000000000003,4,2,0,5,0,0
56113,-500.000000000003,4,2,0,40,0,0
57022,-76.9230769230769,4,2,0,40,0,0
58159,-133.333333333333,4,2,0,40,0,0
58613,-76.9230769230769,4,2,0,40,0,0
60659,-76.9230769230769,4,2,0,69,0,0
63841,-66.6666666666667,4,2,0,69,0,0
64295,-55.5555555555556,4,2,0,40,0,0
64636,-111.111111111111,4,2,0,5,0,0
71568,-55.5555555555556,4,2,0,40,0,0
71795,-55.5555555555556,4,2,0,69,0,0
75431,-50,4,2,0,69,0,0
76416,-66.6666666666667,4,2,0,69,0,0
77022,-66.6666666666667,4,2,0,40,0,0
78841,-100,4,2,0,69,0,0
79295,-55.5555555555556,4,2,0,69,0,0
80204,-83.3333333333333,4,2,0,69,0,0
80659,-55.5555555555556,4,2,0,69,0,0
81454,-100,4,2,0,69,0,0
81795,-55.5555555555556,4,2,0,69,0,0
86113,-100,4,2,0,69,0,0
86227,-111.111111111111,4,2,0,69,0,0
86341,-55.5555555555556,4,2,0,69,0,0
86454,-111.111111111111,4,2,0,69,0,0
86568,-100,4,2,0,69,0,0
86681,-111.111111111111,4,2,0,69,0,0
86796,-55.5555555555556,4,2,0,69,0,0
86909,-111.111111111111,4,2,0,69,0,0
87022,-100,4,2,0,69,0,0
87136,-111.111111111111,4,2,0,5,0,0
87250,-55.5555555555556,4,2,0,69,0,0
87363,-111.111111111111,4,2,0,5,0,0
87477,-100,4,2,0,69,0,0
87591,-111.111111111111,4,2,0,5,0,0
87705,-55.5555555555556,4,2,0,69,0,0
89068,-83.3333333333333,4,2,0,69,0,0
89977,-90.9090909090909,4,2,0,69,0,0
90091,-111.111111111111,4,2,0,69,0,0
90204,-55.5555555555556,4,2,0,69,0,0
90318,-111.111111111111,4,2,0,69,0,0
90431,-47.6190476190476,4,2,0,69,0,0
90545,-111.111111111111,4,2,0,69,0,0
90658,-55.5555555555556,4,2,0,69,0,0
90772,-111.111111111111,4,2,0,69,0,0
90886,-47.6190476190476,4,2,0,69,0,0
91000,-111.111111111111,4,2,0,69,0,0
91113,-55.5555555555556,4,2,0,69,0,0
91227,-111.111111111111,4,2,0,69,0,0
91341,-47.6190476190476,4,2,0,69,0,0
91568,-55.5555555555556,4,2,0,69,0,0
91795,-47.6190476190476,4,2,0,69,0,0
92477,-133.333333333333,4,2,0,69,0,0
92591,-111.111111111111,4,2,0,69,0,0
92704,-66.6666666666667,4,2,0,69,0,0
92931,-133.333333333333,4,2,0,69,0,0
93045,-111.111111111111,4,2,0,69,0,0
93158,-66.6666666666667,4,2,0,69,0,0
93386,-100,4,2,0,69,0,0
93841,-41.6666666666667,4,2,0,69,0,0
95204,-55.5555555555556,4,2,0,69,0,0
96341,-66.6666666666667,4,2,0,69,0,0
97022,-55.5555555555556,4,2,0,69,0,0
98841,-41.6666666666667,4,2,0,69,0,0
100204,-100,4,2,0,69,0,0
100659,-100,4,2,0,69,0,0
100772,-111.111111111111,4,2,0,5,0,0
100886,-55.5555555555556,4,2,0,69,0,0
101113,-100,4,2,0,69,0,0
101227,-111.111111111111,4,2,0,5,0,0
101341,-55.5555555555556,4,2,0,69,0,0
101567,-100,4,2,0,69,0,0
101681,-111.111111111111,4,2,0,5,0,0
101795,-55.5555555555556,4,2,0,69,0,0
102022,-100,4,2,0,69,0,0
102136,-111.111111111111,4,2,0,5,0,0
102250,-55.5555555555556,4,2,0,69,0,0
102931,-47.6190476190476,4,2,0,69,0,0
103613,-100,4,2,0,69,0,0
104068,-500.000000000003,4,2,0,69,0,0
104522,-500.000000000003,4,2,0,50,0,0
106113,-500.000000000003,4,2,0,60,0,0
107022,-500.000000000003,4,2,0,69,0,0
109295,-100,4,2,0,69,0,0
111681,-62.5,4,2,0,69,0,0
112363,-100,4,2,0,69,0,0
112704,-50,4,2,0,69,0,0
113045,-58.8235294117647,4,2,0,69,0,0
113841,-62.5,4,2,0,69,0,0
116569,-47.6190476190476,4,2,0,69,0,0
117250,-66.6666666666667,4,2,0,69,0,0
117477,-47.6190476190476,4,2,0,69,0,0
117704,-66.6666666666667,4,2,0,69,0,0
118386,-83.3333333333333,4,2,0,69,0,0
118841,-47.6190476190476,4,2,0,69,0,0
119067,-66.6666666666667,4,2,0,69,0,0
119294,-47.6190476190476,4,2,0,69,0,0
119521,-66.6666666666667,4,2,0,69,0,0
120886,-58.8235294117647,4,2,0,69,0,0
124295,-133.333333333333,4,2,0,69,0,0
124863,-111.111111111111,4,2,0,69,0,0
124977,-133.333333333333,4,2,0,69,0,0
125091,-111.111111111111,4,2,0,69,0,0
125204,-117.647058823529,4,2,0,69,0,0
125318,-111.111111111111,4,2,0,69,0,0
125431,-117.647058823529,4,2,0,69,0,0
125545,-111.111111111111,4,2,0,69,0,0
125659,-100,4,2,0,69,0,0
125772,-111.111111111111,4,2,0,69,0,0
125886,-100,4,2,0,69,0,0
126000,-111.111111111111,4,2,0,69,0,0
126113,-83.3333333333333,4,2,0,69,0,0
126227,-111.111111111111,4,2,0,69,0,0
126341,-83.3333333333333,4,2,0,69,0,0
126454,-111.111111111111,4,2,0,69,0,0
126568,-71.4285714285714,4,2,0,69,0,0
126681,-111.111111111111,4,2,0,69,0,0
126795,-71.4285714285714,4,2,0,69,0,0
126909,-111.111111111111,4,2,0,69,0,0
127022,-66.6666666666667,4,2,0,69,0,0
127136,-111.111111111111,4,2,0,69,0,0
127250,-66.6666666666667,4,2,0,69,0,0
127363,-111.111111111111,4,2,0,69,0,0
127477,-66.6666666666667,4,2,0,69,0,0
127591,-111.111111111111,4,2,0,69,0,0
127704,-66.6666666666667,4,2,0,69,0,0
127818,-111.111111111111,4,2,0,69,0,0
127931,-62.5,4,2,0,69,0,0
128045,-111.111111111111,4,2,0,69,0,0
128159,-62.5,4,2,0,69,0,0
128272,-111.111111111111,4,2,0,69,0,0
128386,-55.5555555555556,4,2,0,69,0,0
128500,-111.111111111111,4,2,0,69,0,0
128613,-55.5555555555556,4,2,0,69,0,0
128727,-111.111111111111,4,2,0,69,0,0
128841,-55.5555555555556,4,2,0,69,0,0
128954,-111.111111111111,4,2,0,69,0,0
129068,-55.5555555555556,4,2,0,69,0,0
129181,-111.111111111111,4,2,0,69,0,0
129295,-50,4,2,0,69,0,0
129409,-111.111111111111,4,2,0,69,0,0
129522,-50,4,2,0,69,0,0
130318,413.793103448276,4,2,0,69,1,1
130680,-100,4,2,0,69,0,0

[Colours]
Combo1 : 166,151,185
Combo2 : 226,179,158
Combo3 : 231,165,192
Combo4 : 234,220,179
Combo5 : 249,185,185
Combo6 : 169,175,207

[HitObjects]
323,259,886,69,0,1:0:0:0:
188,124,1113,5,0,1:0:0:0:
231,283,1341,69,0,1:0:0:0:
280,100,1568,5,2,1:2:0:0:
164,216,1795,37,2,1:2:0:0:
347,167,2022,5,2,1:2:0:0:
347,277,2250,37,2,1:2:0:0:
164,106,2477,5,2,1:2:0:0:
227,313,2705,5,2,1:2:0:0:
284,70,2932,5,2,1:2:0:0:
136,228,3159,37,4,1:0:0:0:
375,155,3386,5,2,0:0:0:0:
381,168,3500,1,0,0:0:0:0:
389,180,3613,2,0,L|377:257,1,50,0|0,0:0|3:0,0:0:0:0:
277,83,3841,2,0,L|269:133,1,50,2|0,3:0|3:0,0:0:0:0:
134,196,4068,2,0,B|120:223|120:223|146:262,1,50,2|0,3:2|1:0,0:0:0:0:
136,250,4295,6,0,L|328:264,1,150,4|0,1:2|0:0,0:0:0:0:
132,234,4750,6,0,B|139:212|190:194|208:240|208:240|221:283|277:282|294:229,1,200,0|0,3:0|0:0,0:0:0:0:
460,187,6227,37,0,1:0:0:0:
389,174,6454,2,0,P|446:178|479:209,1,75.0000028610231,0|0,1:0|0:0,0:0:0:0:
501,187,7931,38,0,L|507:221,3,25.0000009536744,0|0|0|0,1:0|0:0|0:0|0:0,0:0:0:0:
326,167,9750,5,4,3:0:0:0:
316,159,10204,6,0,L|320:134,1,25,2|0,1:0|0:0,0:0:0:0:
182,279,10659,6,0,L|178:254,1,25,4|0,1:2|0:0,0:0:0:0:
52,125,11113,6,0,L|48:150,1,25,4|0,1:2|0:0,0:0:0:0:
0,247,11454,1,0,1:0:0:0:
0,247,11568,38,0,P|143:251|252:346,1,225.000008583069,0|0,1:0|1:0,0:0:0:0:
248,352,12022,2,0,P|243:279|261:240,1,100.000003814697,8|0,3:2|0:0,0:0:0:0:
268,275,12250,2,0,P|288:227|339:169,1,75.0000028610231,2|0,0:0|3:0,0:0:0:0:
240,1,12477,6,0,B|229:157|229:157|106:120,1,225.000008583069,0|0,1:0|3:0,0:0:0:0:
44,196,12931,1,10,1:2:0:0:
4,177,13045,2,0,P|30:154|90:190,2,75.0000028610231,0|0|0,1:0|0:0|3:0,0:0:0:0:
121,11,13386,2,0,P|130:95|202:37,1,150.000005722046,0|2,1:0|0:0,0:0:0:0:
249,33,13841,2,0,P|287:57|346:50,1,100.000003814697,10|0,1:2|1:0,0:0:0:0:
325,87,14068,2,0,P|363:63|406:62,1,75.0000028610231,0|0,0:0|3:0,0:0:0:0:
441,0,14295,6,0,L|407:223,1,179.999994506836,2|8,1:2|3:0,0:0:0:0:
389,311,14750,2,0,P|259:335|329:247,1,300,4|0,3:0|0:0,0:0:0:0:
198,166,15204,6,0,P|328:190|258:102,1,300,4|0,1:2|1:0,0:0:0:0:
240,108,15659,38,0,L|104:131,1,100,8|2,1:2|0:0,0:0:0:0:
70,169,16113,6,0,L|14:162,1,50,0|0,1:0|0:0,0:0:0:0:
0,203,16341,2,0,L|49:193,1,50,2|0,0:0|3:0,0:0:0:0:
190,265,16568,6,0,P|181:310|160:331,1,64.9999970245363,8|2,1:2|0:0,0:0:0:0:
98,296,16795,2,0,P|107:251|128:230,1,64.9999970245363,2|0,0:0|3:0,0:0:0:0:
293,300,17022,6,0,B|315:322|315:322|356:320,1,64.9999970245363,0|0,1:0|0:0,0:0:0:0:
371,255,17250,2,0,B|349:233|349:233|308:235,1,64.9999970245363,2|0,3:0|0:0,0:0:0:0:
224,83,17477,2,0,B|179:132|179:132|218:227,1,129.999994049073,4|8,1:2|3:0,0:0:0:0:
209,202,17818,1,0,1:0:0:0:
214,213,17931,1,4,1:3:0:0:
84,383,18159,1,0,1:0:0:0:
89,372,18272,1,0,1:0:0:0:
97,361,18386,2,0,P|85:306|30:283,1,100,2|2,1:3|0:3,0:0:0:0:
82,33,18841,6,0,P|65:102|115:154,1,150.000005722046,4|0,1:2|3:0,0:0:0:0:
158,160,19181,2,0,L|381:131,1,225.000008583069,0|0,1:0|3:0,0:0:0:0:
449,67,19750,5,8,0:0:0:0:
401,209,19977,1,0,1:0:0:0:
396,223,20091,1,0,1:0:0:0:
391,237,20204,2,0,L|401:308,2,44.999998626709,0|0|2,1:0|0:0|3:2,0:0:0:0:
366,378,20659,70,0,B|415:338|415:338|402:249,1,150.000005722046,4|0,1:2|3:0,0:0:0:0:
446,131,21000,2,0,P|396:217|278:182,1,225.000008583069,0|8,1:0|0:0,0:0:0:0:
140,68,21568,22,0,P|80:36|4:54,2,100.000003814697,8|4|4,3:0|3:0|3:0,0:0:0:0:
65,135,22022,6,0,P|28:149|0:177,1,79.9999975585938,2|0,3:2|3:0,0:0:0:0:
1,265,22325,1,0,1:0:0:0:
98,301,22477,6,0,B|75:361|135:396|173:382|173:382|211:349|199:286|169:285|149:274|149:274|92:241|115:166|164:161,2,400,4|4|4,0:2|0:0|0:0,0:0:0:0:
256,192,24409,12,0,25659,0:0:0:0:
246,24,26037,5,8,3:0:0:0:
246,24,26113,2,0,P|301:1|388:18,1,94.9999974632264,4|0,1:2|0:0,0:0:0:0:
409,29,26341,1,8,3:0:0:0:
409,29,26416,2,0,P|407:77|399:94,1,63.3333316421509,4|4,3:0|3:0,0:0:0:0:
287,93,26568,54,0,P|232:70|150:81,1,94.9999974632264,4|0,1:2|0:0,0:0:0:0:
107,120,26796,1,4,3:0:0:0:
107,120,26871,2,0,P|109:168|122:197,1,63.3333316421509,8|4,3:0|3:0,0:0:0:0:
40,219,27022,6,0,L|268:184,1,200.000007629395,4|8,1:2|3:0,0:0:0:0:
312,223,27401,1,8,3:0:0:0:
312,223,27477,2,0,L|302:285,1,50.0000019073487,2|0,1:3|0:0,0:0:0:0:
279,376,27704,22,0,B|210:328|210:328|275:271|275:271|242:134,1,299.999990844727,6|0,1:0|0:0,0:0:0:0:
211,111,28159,6,0,P|228:53|229:24,1,69.9999978637696,0|0,1:0|0:0,0:0:0:0:
144,152,28386,2,0,P|149:186|161:219,1,69.9999978637696,8|0,3:0|0:0,0:0:0:0:
233,324,28613,70,0,P|196:276|114:293,1,139.999995727539,8|0,3:0|1:0,0:0:0:0:
26,357,28916,1,8,3:0:0:0:
26,357,28992,1,8,3:0:0:0:
26,357,29068,6,0,B|107:376|141:295|115:242|115:242|76:170|139:100|210:122,1,340.000006484985,4|2,3:0|3:2,0:0:0:0:
295,231,29750,70,0,P|220:298|148:269,1,170.000003242493,4|2,1:2|3:2,0:0:0:0:
331,58,30204,6,0,P|426:89|441:154,1,150.000005722046,4|0,1:2|3:0,0:0:0:0:
167,120,30659,70,0,P|146:21|195:-23,1,129.999994049073,0|8,1:3|1:3,0:0:0:0:
177,7,31000,1,8,1:3:0:0:
193,11,31113,2,0,L|278:2,1,64.9999970245363,6|0,1:0|0:0,0:0:0:0:
345,81,31341,2,0,L|260:72,1,64.9999970245363,2|0,3:2|0:0,0:0:0:0:
216,149,31568,22,0,L|295:139,2,43.3333313496908,2|2|8,3:2|3:2|3:2,0:0:0:0:
211,247,31795,22,0,L|274:198,2,43.3333313496908,2|2|2,3:0|3:1|3:2,0:0:0:0:
256,334,32022,6,0,L|286:260,2,43.3333313496908,2|2|2,3:0|3:2|3:0,0:0:0:0:
323,384,32250,37,0,1:0:0:0:
329,368,32325,1,0,3:0:0:0:
336,352,32401,1,2,3:2:0:0:
343,327,32477,38,0,L|359:366,2,43.3333313496908,0|2|2,3:0|3:2|3:0,0:0:0:0:
421,273,32704,70,0,L|415:315,2,43.3333313496908,0|2|8,3:0|3:2|0:0,0:0:0:0:
477,206,32931,1,0,1:0:0:0:
469,187,33007,6,0,L|475:145,1,43.3333313496908,2|2,3:2|3:0,0:0:0:0:
359,188,33159,38,0,L|385:154,2,43.3333313496908,8|8|4,3:0|3:0|3:0,0:0:0:0:
314,118,33386,38,0,B|263:119|263:119|246:171|246:171|145:146,1,194.999991073609,4|0,3:0|0:0,0:0:0:0:
159,149,35204,38,0,B|210:148|210:148|227:96|227:96|328:121,1,194.999991073609,4|0,1:0|0:0,0:0:0:0:
248,192,36341,5,0,0:0:0:0:
259,185,36417,1,2,0:0:0:0:
259,198,36492,1,2,0:0:0:0:
252,198,36568,5,0,0:0:0:0:
252,185,36644,1,2,0:0:0:0:
263,192,36719,1,2,0:0:0:0:
256,192,36795,12,2,38841,0:0:0:0:
170,309,40886,6,0,L|131:267,1,34.9999989318848,4|0,1:2|0:0,0:0:0:0:
170,185,41113,38,0,L|225:172,1,34.9999989318848,0|0,1:0|0:0,0:0:0:0:
276,247,41341,6,0,L|259:301,1,34.9999989318848,0|0,1:0|0:0,0:0:0:0:
76,266,41568,6,0,L|93:207,1,34.9999989318848,0|0,1:0|0:0,0:0:0:0:
264,121,41795,6,0,L|307:159,1,34.9999989318848,4|0,1:2|0:0,0:0:0:0:
290,352,42023,38,0,L|234:365,1,34.9999989318848,4|0,1:2|0:0,0:0:0:0:
248,285,42250,2,0,L|213:277,1,34.9999989318848,4|0,1:2|0:0,0:0:0:0:
249,201,42477,6,0,L|220:59,1,119.999996337891,4|2,1:0|3:2,0:0:0:0:
17,296,42931,6,0,P|109:280|96:151,1,225.000008583069,8|0,1:2|0:0,0:0:0:0:
97,163,43386,2,0,P|62:209|74:267,1,119.999996337891,0|0,0:0|1:0,0:0:0:0:
177,384,43841,6,0,P|177:292|322:315,1,225.000008583069,8|0,1:2|0:0,0:0:0:0:
337,338,44295,1,2,0:0:0:0:
383,269,44409,2,0,P|425:261|478:268,1,59.9999981689454,2|0,1:2|0:0,0:0:0:0:
385,277,44636,6,0,P|427:269|480:276,1,59.9999981689454,4|8,1:2|3:0,0:0:0:0:
512,123,44863,1,0,0:0:0:0:
471,187,44977,2,0,P|441:186|409:172,1,59.9999981689454,4|0,1:3|0:0,0:0:0:0:
362,52,45204,38,0,P|318:15|256:36,1,100.000003814697,0|0,1:0|0:0,0:0:0:0:
254,35,45431,2,0,L|271:137,1,75.0000028610231,4|0,1:2|0:0,0:0:0:0:
118,204,45659,6,0,P|162:167|224:188,1,100.000003814697,2|0,1:0|0:0,0:0:0:0:
224,190,45886,2,0,L|207:292,1,75.0000028610231,2|0,1:3|0:0,0:0:0:0:
247,332,46113,6,0,L|470:304,1,225.000008583069,6|0,1:0|1:0,0:0:0:0:
500,231,46568,6,0,L|485:167,1,44.999998626709,8|0,1:2|0:0,0:0:0:0:
416,157,46795,38,0,L|432:61,1,75.0000028610231,0|2,3:0|0:0,0:0:0:0:
268,3,47022,6,0,L|283:67,1,44.999998626709,0|2,3:0|0:0,0:0:0:0:
352,77,47249,6,0,L|336:173,1,75.0000028610231,0|0,1:0|0:0,0:0:0:0:
244,199,47477,6,0,L|255:156,1,44.999998626709,8|0,1:2|0:0,0:0:0:0:
321,230,47704,38,0,L|337:326,1,75.0000028610231,2|2,1:2|0:0,0:0:0:0:
506,364,47931,6,0,L|491:300,1,44.999998626709,0|0,1:0|0:0,0:0:0:0:
402,213,48158,6,0,L|414:286,1,75.0000028610231,2|2,0:0|3:2,0:0:0:0:
334,304,48386,6,0,L|270:289,1,44.999998626709,4|2,1:0|0:0,0:0:0:0:
104,159,48841,38,0,L|84:41,1,75.0000028610231,0|2,1:0|0:0,0:0:0:0:
209,224,49068,6,0,L|189:341,1,75.0000028610231,2|0,1:2|0:0,0:0:0:0:
103,269,49294,6,0,L|118:178,1,75.0000028610231,2|0,1:2|0:0,0:0:0:0:
182,61,49522,6,0,L|197:151,1,75.0000028610231,2|0,3:2|0:0,0:0:0:0:
336,198,49750,6,0,L|377:189,1,40,4|2,1:0|0:0,0:0:0:0:
379,112,50659,6,0,L|427:121,1,40,2|0,0:0|0:0,0:0:0:0:
462,49,51568,70,0,L|496:77,1,40,2|2,0:0|0:0,0:0:0:0:
226,48,52477,6,0,L|185:57,1,40,2|0,0:0|0:0,0:0:0:0:
183,134,53386,70,0,L|135:125,1,40,2|2,0:0|0:0,0:0:0:0:
100,197,54295,6,0,L|66:169,1,40,2|2,0:0|0:0,0:0:0:0:
6,212,55204,70,0,L|-9:171,1,40,2|2,0:0|0:0,0:0:0:0:
291,316,56113,5,2,0:0:0:0:
356,348,56341,1,2,0:0:0:0:
423,319,56568,2,0,L|428:297,1,20,2|0,0:0|0:0,0:0:0:0:
469,68,57022,70,0,P|400:47|280:193,2,259.999988098145,4|8|0,0:0|0:0|3:0,0:0:0:0:
232,59,58159,2,0,L|327:48,1,75.0000028610231,8|8,0:0|0:0,0:0:0:0:
171,131,58613,6,0,B|144:172|166:219|166:219|118:128|18:145,1,259.999988098145,2|0,0:0|3:0,0:0:0:0:
29,348,59295,2,0,P|133:308|144:252,1,129.999994049073,8|4,0:0|0:3,0:0:0:0:
267,159,59750,70,0,P|266:306|382:332,2,259.999988098145,0|4|4,3:0|0:3|1:0,0:0:0:0:
432,106,60886,1,8,3:0:0:0:
434,87,61000,1,8,3:0:0:0:
430,68,61113,1,0,1:0:0:0:
360,21,61227,22,0,P|321:27|296:45,1,64.9999970245363,4|2,3:0|0:0,0:0:0:0:
180,93,61454,2,0,B|215:85|241:109|241:109|268:133|303:126,2,129.999994049073,4|2|2,1:0|0:0|0:0,0:0:0:0:
117,140,62022,1,2,0:0:0:0:
117,140,62136,6,0,L|127:220,1,64.9999970245363,4|0,1:2|0:0,0:0:0:0:
86,360,62363,2,0,B|85:323|106:298|106:298|68:289|44:243,1,129.999994049073,4|2,1:2|0:0,0:0:0:0:
125,204,62704,1,0,0:0:0:0:
145,201,62818,1,2,0:0:0:0:
164,206,62931,1,2,3:2:0:0:
263,260,63045,6,0,P|221:274|184:264,1,64.9999970245363,4|0,1:0|0:0,0:0:0:0:
292,186,63272,2,0,P|324:184|353:197,2,64.9999970245363,4|2|2,1:2|0:0|0:0,0:0:0:0:
253,100,63613,1,0,0:0:0:0:
235,109,63727,1,2,0:0:0:0:
214,118,63841,22,0,P|161:89|238:102,1,225.000008583069,4|0,1:2|0:0,0:0:0:0:
219,124,64295,6,0,P|154:96|246:102,1,269.999991760254,4|0,1:2|0:0,0:0:0:0:
99,171,71568,70,0,P|97:136|83:169,1,89.9999972534181,4|0,3:0|0:0,0:0:0:0:
21,299,71795,6,0,B|77:279|77:279|132:301|132:301|208:273,1,179.999994506836,2|0,1:0|0:0,0:0:0:0:
25,290,72136,6,0,B|81:270|81:270|136:292|136:292|212:264,1,179.999994506836,2|8,1:0|3:0,0:0:0:0:
291,173,72477,6,0,B|338:163|375:195|375:195|411:227|459:218,1,179.999994506836,2|4,1:0|3:0,0:0:0:0:
295,165,72818,6,0,B|342:155|379:187|379:187|415:219|463:210,1,179.999994506836,6|0,1:0|0:0,0:0:0:0:
462,210,73386,6,0,P|486:172|486:128,1,89.9999972534181,8|0,3:0|0:0,0:0:0:0:
301,11,73613,38,0,B|253:65|253:65|314:213,1,179.999994506836,2|4,1:0|3:0,0:0:0:0:
289,13,73954,6,0,B|241:67|241:67|302:215,1,179.999994506836,2|0,1:0|1:0,0:0:0:0:
460,288,74295,38,0,P|421:209|354:248,1,179.999994506836,2|4,1:0|3:0,0:0:0:0:
330,321,74636,6,0,P|254:350|226:275,2,179.999994506836,2|2|2,1:0|1:0|1:0,0:0:0:0:
0,177,75431,6,0,B|51:187|82:145|82:145|164:145|182:260,1,200,4|0,1:2|0:0,0:0:0:0:
81,287,75772,6,0,B|132:277|163:319|163:319|245:319|263:204,1,200,4|0,1:2|0:0,0:0:0:0:
277,132,76113,6,0,P|313:187|374:159,2,100,4|8|0,1:2|3:0|0:0,0:0:0:0:
352,97,76416,70,0,B|360:66|340:30|298:33|298:33|279:43|253:81|290:122,1,200,6|6,1:0|1:0,0:0:0:0:
99,228,78841,38,0,P|142:203|212:198,1,100,4|0,1:2|3:0,0:0:0:0:
208,31,79295,6,0,B|177:38|153:62|147:94|147:94|143:125|158:156|185:172|185:172|212:188|247:186|272:165|272:165|318:179|346:227|336:274|336:274|324:321|277:352|230:343,1,540,8|0,1:2|1:0,0:0:0:0:
242,334,80091,1,0,1:0:0:0:
239,322,80204,1,8,1:2:0:0:
148,93,80431,1,0,1:0:0:0:
2,280,80659,6,0,B|66:113|66:113|90:162|134:170,2,269.999991760254,2|2|0,1:2|0:0|1:0,0:0:0:0:
67,323,81454,2,0,P|91:316|112:303,2,50,2|0|2,0:0|3:0|0:0,0:0:0:0:
252,347,81795,6,0,B|176:263|193:200|226:173|226:173|283:195|290:264,1,269.999991760254,2|0,1:0|0:0,0:0:0:0:
278,233,82250,1,2,1:0:0:0:
355,312,82477,38,0,B|389:204|452:188|492:202|492:202|502:262|445:303,1,269.999991760254,4|0,1:2|0:0,0:0:0:0:
373,208,82931,6,0,B|408:100|366:50|325:38|325:38|282:81|304:147,1,269.999991760254,2|0,1:0|0:0,0:0:0:0:
413,147,83386,2,0,P|457:151|498:133,1,89.9999972534181,4|0,1:2|0:0,0:0:0:0:
302,356,83613,6,0,P|195:260|-13:325,1,359.999989013672,0|2,1:0|0:0,0:0:0:0:
139,220,84295,6,0,B|166:241|204:243|233:224|233:224|262:205|277:169|268:135|268:135|256:96|277:54|316:40|316:40|354:26|398:44|414:82,2,359.999989013672,4|4|4,1:2|1:0|1:0,0:0:0:0:
120,88,85431,1,4,0:0:0:0:
0,40,85659,2,0,P|8:89|133:71,1,179.999994506836,4|0,1:2|0:0,0:0:0:0:
209,27,86113,38,0,P|233:14|299:11,1,50,4|0,1:0|0:0,0:0:0:0:
266,85,86341,6,0,P|310:88|352:105,1,89.9999972534181,2|0,0:0|0:0,0:0:0:0:
456,153,86568,6,0,P|432:166|366:169,1,50,8|0,1:2|0:0,0:0:0:0:
331,178,86796,6,0,P|289:161|244:157,1,89.9999972534181,0|0,1:0|0:0,0:0:0:0:
205,351,87022,38,0,P|181:338|115:335,1,50,0|0,1:0|0:0,0:0:0:0:
134,187,87250,6,0,P|89:190|47:207,1,89.9999972534181,2|0,1:2|0:0,0:0:0:0:
0,101,87477,6,0,P|24:114|90:117,1,50,2|0,1:2|0:0,0:0:0:0:
24,306,87705,6,0,P|110:260|218:272,1,179.999994506836,4|2,1:2|0:0,0:0:0:0:
310,358,88159,37,0,3:0:0:0:
381,361,88272,1,2,3:0:0:0:
448,336,88386,1,8,1:2:0:0:
488,274,88500,1,2,3:0:0:0:
494,200,88613,2,0,L|474:10,1,179.999994506836,0|0,1:0|3:0,0:0:0:0:
322,42,89068,6,0,P|277:-3|226:16,1,119.999996337891,0|2,1:0|1:2,0:0:0:0:
225,24,89409,1,0,1:0:0:0:
221,36,89522,6,0,L|245:220,1,179.999994506836,4|0,1:2|0:0,0:0:0:0:
249,226,89977,6,0,P|283:216|327:212,1,55.0000016784668,0|0,1:0|0:0,0:0:0:0:
328,143,90204,38,0,P|388:155|438:195,1,89.9999972534181,4|0,1:0|0:0,0:0:0:0:
208,333,90431,6,0,P|253:306|304:292,1,104.999996795654,4|0,1:2|0:0,0:0:0:0:
448,306,90658,6,0,P|481:356|489:420,1,89.9999972534181,4|0,1:2|0:0,0:0:0:0:
134,283,90886,6,0,P|134:231|167:166,1,104.999996795654,4|0,1:2|0:0,0:0:0:0:
498,150,91113,38,0,P|486:210|446:260,1,89.9999972534181,4|0,1:2|0:0,0:0:0:0:
296,13,91341,6,0,B|369:64|328:144|328:144|276:110|302:45,1,209.999993591309,6|0,1:0|0:0,0:0:0:0:
145,181,91795,2,0,P|126:229|126:282,1,104.999996795654,0|2,3:0|0:0,0:0:0:0:
205,342,92022,5,0,3:0:0:0:
222,338,92136,1,2,3:2:0:0:
239,335,92250,1,2,3:2:0:0:
256,332,92363,1,2,3:0:0:0:
315,279,92477,6,0,L|373:292,1,37.5000014305115,0|2,3:0|0:0,0:0:0:0:
356,211,92704,38,0,L|457:196,1,75.0000028610231,0|2,3:0|3:0,0:0:0:0:
231,154,92931,6,0,L|173:167,1,37.5000014305115,2|2,3:0|0:0,0:0:0:0:
190,86,93158,6,0,L|89:71,1,75.0000028610231,4|0,3:0|0:0,0:0:0:0:
42,266,93386,6,0,P|86:246|134:259,1,100,4|0,1:2|0:0,0:0:0:0:
257,368,93841,38,0,B|209:373|164:342|152:296|152:296|140:249|165:201|211:183|211:183|255:165|306:184|329:226|329:226|373:226|410:197|420:156|420:156|431:114|412:71|376:50|376:50|338:29|293:35|262:65,1,720,12|0,1:0|1:0,0:0:0:0:
310,45,94636,1,2,2:0:0:0:
300,51,94750,1,8,1:2:0:0:
57,172,94977,1,0,1:0:0:0:
67,178,95091,1,2,3:2:0:0:
74,182,95204,6,0,P|206:159|375:150,2,269.999991760254,0|0|0,1:0|3:0|1:0,0:0:0:0:
71,190,96000,1,0,1:0:0:0:
68,198,96113,1,0,3:0:0:0:
277,223,96341,1,4,1:2:0:0:
265,216,96454,1,2,0:0:0:0:
254,209,96568,6,0,P|218:236|220:292,1,75.0000028610231,2|0,3:0|0:0,0:0:0:0:
312,343,96795,2,0,P|306:298|256:272,1,75.0000028610231,2|0,1:2|0:2,0:0:0:0:
169,327,97022,6,0,P|210:344|317:150,1,269.999991760254,2|0,1:0|0:0,0:0:0:0:
507,213,97477,38,0,P|465:230|381:20,2,359.999989013672,4|2|4,1:2|1:0|1:2,0:0:0:0:
401,26,98613,1,2,1:2:0:0:
401,26,98727,1,2,1:2:0:0:
401,26,98841,6,0,B|440:65|417:136|351:165|351:165|226:224|226:224|126:270|156:359,2,479.999985351563,4|4|4,1:0|1:2|1:2,0:0:0:0:
155,111,99977,5,4,3:0:0:0:
106,189,100204,2,0,P|41:192|0:173,1,100,8|6,3:0|3:0,0:0:0:0:
58,345,100659,6,0,P|101:325|131:326,1,50,4|0,1:0|0:0,0:0:0:0:
178,332,100886,38,0,P|223:334|259:295,1,89.9999972534181,2|0,0:0|3:0,0:0:0:0:
385,171,101113,6,0,P|361:177|340:191,1,50,8|0,1:2|0:0,0:0:0:0:
317,263,101341,6,0,P|272:265|235:226,1,89.9999972534181,0|0,1:0|0:0,0:0:0:0:
113,98,101568,6,0,P|136:104|157:118,1,50,2|0,1:2|0:0,0:0:0:0:
181,190,101796,38,0,P|226:192|262:153,1,89.9999972534181,2|0,1:3|0:0,0:0:0:0:
405,8,102022,6,0,P|381:14|360:28,1,50,2|0,1:3|0:0,0:0:0:0:
335,102,102250,6,0,P|261:139|280:48,1,179.999994506836,4|2,1:2|0:0,0:0:0:0:
307,10,102591,1,0,3:0:0:0:
307,10,102704,1,0,1:0:0:0:
419,197,102931,5,8,1:2:0:0:
259,339,103159,2,0,B|187:262|187:262|343:121|343:121|223:-8,1,419.999987182618,4|0,1:2|1:0,0:0:0:0:
117,183,103841,1,8,1:2:0:0:
193,116,104068,38,0,L|222:94,1,30,2|0,1:0|0:0,0:0:0:0:
193,116,104522,5,0,3:2:0:0:
58,251,104749,5,2,3:2:0:0:
101,92,104977,5,2,3:2:0:0:
150,275,105204,37,2,1:2:0:0:
34,159,105431,5,2,1:2:0:0:
217,208,105658,5,2,1:2:0:0:
217,98,105886,5,2,1:2:0:0:
34,269,106113,37,2,1:2:0:0:
97,62,106341,5,2,1:2:0:0:
154,305,106568,5,2,1:2:0:0:
6,147,106795,5,2,1:2:0:0:
245,220,107022,37,2,1:2:0:0:
250,67,107250,5,4,1:2:0:0:
0,299,107477,5,4,1:2:0:0:
86,18,107705,5,4,1:0:0:0:
148,20,109295,5,8,3:0:0:0:
154,38,109409,1,4,3:0:0:0:
161,57,109522,1,8,3:0:0:0:
168,75,109636,1,4,3:0:0:0:
175,95,109750,5,6,1:0:0:0:
202,58,109863,1,0,0:0:0:0:
246,43,109977,1,0,0:0:0:0:
293,50,110091,1,0,1:0:0:0:
329,78,110204,70,0,P|382:107|451:84,1,100,8|0,1:2|1:0,0:0:0:0:
326,89,110545,2,0,P|368:116|417:115,1,100,0|0,1:0|3:0,0:0:0:0:
474,5,110886,2,0,P|480:30|481:55,1,50,2|2,3:0|0:0,0:0:0:0:
418,102,111113,1,8,1:2:0:0:
402,121,111226,1,2,0:0:0:0:
392,144,111340,1,0,3:0:0:0:
389,169,111453,1,2,1:0:0:0:
393,193,111567,5,4,1:2:0:0:
445,303,111681,2,0,P|384:268|260:269,2,160,2|2|0,1:0|1:0|0:0,0:0:0:0:
431,384,112250,1,0,1:0:0:0:
411,307,112363,2,0,P|365:285|288:287,1,100,0|2,0:0|0:0,0:0:0:0:
261,187,112704,70,0,P|209:236|64:214,1,200,0|8,3:0|1:2,0:0:0:0:
100,228,113045,2,0,P|185:235|256:177,1,170.000003242493,0|2,1:0|0:0,0:0:0:0:
219,10,113386,5,6,1:2:0:0:
156,141,113537,1,8,1:2:0:0:
88,44,113689,1,2,1:2:0:0:
306,128,113841,70,0,B|398:107|375:205|497:154,1,160,8|0,1:2|3:0,0:0:0:0:
443,97,114181,2,0,B|351:120|416:198|285:205,1,160,8|2,1:2|3:0,0:0:0:0:
455,167,114522,6,0,P|425:141|386:143,1,80,0|2,1:0|1:3,0:0:0:0:
444,251,114750,2,0,P|473:276|512:274,1,80,0|8,1:0|3:0,0:0:0:0:
303,273,114977,1,4,3:0:0:0:
299,283,115053,1,8,3:0:0:0:
295,293,115128,1,8,3:0:0:0:
291,303,115204,70,0,L|203:287,1,80,4|2,1:3|0:0,0:0:0:0:
20,244,115431,1,0,3:0:0:0:
20,244,115545,1,2,0:0:0:0:
20,244,115659,22,0,L|108:228,1,80,4|0,1:2|0:0,0:0:0:0:
317,181,115886,1,0,1:0:0:0:
317,181,116000,1,0,1:0:0:0:
317,181,116114,6,0,L|238:166,1,80,2|0,1:0|0:0,0:0:0:0:
5,114,116341,1,2,1:2:0:0:
5,114,116454,1,2,1:2:0:0:
5,114,116569,6,0,B|58:104|58:104|107:121|107:121|147:89|147:89|237:72,1,209.999993591309,6|0,1:0|0:0,0:0:0:0:
413,50,116909,1,0,0:0:0:0:
327,52,117022,22,0,P|363:110|461:108,1,104.999996795654,4|2,1:2|0:0,0:0:0:0:
336,222,117250,6,0,P|303:240|281:270,1,75.0000028610231,2|0,0:0|1:0,0:0:0:0:
185,332,117477,6,0,P|148:273|50:275,1,104.999996795654,8|2,1:2|0:0,0:0:0:0:
192,174,117704,6,0,P|224:155|246:125,1,75.0000028610231,4|2,1:2|0:0,0:0:0:0:
228,51,117931,6,0,L|146:36,1,75.0000028610231,0|0,3:0|0:0,0:0:0:0:
271,124,118159,22,0,L|353:109,1,75.0000028610231,2|0,0:0|3:0,0:0:0:0:
206,251,118386,6,0,L|270:239,1,59.9999981689454,8|2,0:2|0:0,0:0:0:0:
321,339,118613,70,0,L|253:325,1,59.9999981689454,0|2,1:0|1:2,0:0:0:0:
71,329,118841,6,0,P|132:298|214:352,1,104.999996795654,4|2,1:2|0:0,0:0:0:0:
168,189,119069,70,0,P|149:156|146:119,1,75.0000028610231,2|0,0:0|1:0,0:0:0:0:
98,17,119295,6,0,P|35:47|-46:-6,1,104.999996795654,8|2,1:2|0:0,0:0:0:0:
21,153,119523,70,0,P|38:186|40:223,1,75.0000028610231,2|8,0:0|1:3,0:0:0:0:
168,189,119750,6,0,L|303:154,1,75.0000028610231,4|8,1:3|3:0,0:0:0:0:
338,233,119977,70,0,L|203:268,1,75.0000028610231,2|0,0:0|1:0,0:0:0:0:
210,56,120204,6,0,L|341:102,1,75.0000028610231,4|4,3:0|3:0,0:0:0:0:
312,358,120431,70,0,L|180:311,1,75.0000028610231,8|4,3:0|3:0,0:0:0:0:
97,236,120659,6,0,L|87:134,1,75.0000028610231,4|2,1:0|0:0,0:0:0:0:
36,87,120886,6,0,L|54:17,1,56.6666677474976,2|2,0:0|0:0,0:0:0:0:
132,131,121037,1,2,1:2:0:0:
132,131,121113,6,0,L|116:76,1,56.6666677474976,8|2,1:2|0:0,0:0:0:0:
241,123,121265,1,8,1:3:0:0:
241,123,121341,6,0,L|200:83,1,56.6666677474976,2|4,3:0|3:0,0:0:0:0:
358,67,121492,1,0,1:0:0:0:
358,67,121568,22,0,L|275:46,1,85.0000016212464,12|2,1:2|0:0,0:0:0:0:
202,200,121795,6,0,L|261:139,1,85.0000016212464,0|4,1:0|3:0,0:0:0:0:
310,264,122022,6,0,L|288:194,1,56.6666677474976,8|8,1:3|3:0,0:0:0:0:
430,231,122174,1,8,3:0:0:0:
430,231,122250,6,0,L|356:210,2,56.6666677474976,4|8|0,1:3|3:0|0:0,0:0:0:0:
373,344,122704,1,2,1:0:0:0:
378,351,122818,1,0,0:0:0:0:
384,357,122931,22,0,L|534:329,1,85.0000016212464,2|0,1:0|0:0,0:0:0:0:
242,313,123159,6,0,L|257:229,1,85.0000016212464,4|0,1:2|0:0,0:0:0:0:
44,341,123386,54,0,L|128:357,1,85.0000016212464,2|0,1:0|0:0,0:0:0:0:
257,229,123613,38,0,L|241:145,1,85.0000016212464,4|0,1:2|0:0,0:0:0:0:
476,251,123841,6,0,L|392:266,1,85.0000016212464,4|0,1:0|0:0,0:0:0:0:
241,145,124068,22,0,L|256:61,1,85.0000016212464,2|0,1:0|0:0,0:0:0:0:
269,49,124295,38,0,L|247:173,1,112.500004291535,0|0,3:0|3:0,0:0:0:0:
265,159,124750,6,0,L|220:149,1,37.5000014305115,0|0,1:0|0:0,0:0:0:0:
219,143,124977,6,0,L|175:156,1,37.5000014305115,2|0,1:2|0:0,0:0:0:0:
160,131,125204,6,0,L|114:179,1,42.5000008106232,2|0,1:2|0:0,0:0:0:0:
99,160,125431,38,0,L|83:225,1,42.5000008106232,2|0,1:2|0:0,0:0:0:0:
56,220,125659,6,0,L|77:299,1,50,2|0,1:2|0:0,0:0:0:0:
45,293,125886,6,0,L|102:350,1,50,2|0,1:2|0:0,0:0:0:0:
76,353,126113,6,0,L|165:375,1,59.9999981689454,2|0,1:2|0:0,0:0:0:0:
145,382,126341,38,0,L|233:356,1,59.9999981689454,2|0,1:2|0:0,0:0:0:0:
228,278,126568,6,0,L|293:339,1,69.9999978637696,2|0,1:2|0:0,0:0:0:0:
343,259,126795,6,0,L|368:344,1,69.9999978637696,2|0,1:2|0:0,0:0:0:0:
451,311,127022,6,0,L|435:384,1,75.0000028610231,2|0,1:2|0:0,0:0:0:0:
436,157,127250,38,0,L|419:230,1,75.0000028610231,2|0,1:2|0:0,0:0:0:0:
330,225,127477,6,0,L|278:279,1,75.0000028610231,2|0,1:2|0:0,0:0:0:0:
205,231,127704,6,0,L|133:250,1,75.0000028610231,2|0,1:2|0:0,0:0:0:0:
101,166,127931,6,0,L|13:145,1,80,2|0,1:2|0:0,0:0:0:0:
58,66,128159,38,0,L|-7:3,1,80,2|0,1:2|0:0,0:0:0:0:
6,3,128386,6,0,L|76:65,1,89.9999972534181,2|0,1:2|0:0,0:0:0:0:
93,155,128613,6,0,L|186:149,1,89.9999972534181,2|0,1:2|0:0,0:0:0:0:
276,183,128841,6,0,L|338:112,1,89.9999972534181,4|0,1:2|0:0,0:0:0:0:
426,112,129068,38,0,L|420:18,1,89.9999972534181,4|0,1:2|0:0,0:0:0:0:
433,19,129295,6,0,L|440:148,1,100,4|0,1:2|0:0,0:0:0:0:
512,235,129522,6,0,L|403:306,1,100,0|0,1:0|0:0,0:0:0:0:
229,357,130318,38,0,L|239:323,2,25,2|2|0,0:0|0:0|0:0,0:0:0:0:
179,274,130524,6,0,L|169:240,3,25,0|2|0|2,0:0|0:0|1:0|0:0,0:0:0:0:
