osu file format v14

[General]
AudioFilename: randomogg.ogg
AudioLeadIn: 0
PreviewTime: 77143
Countdown: 0
SampleSet: Normal
StackLeniency: 0.7
Mode: 1
LetterboxInBreaks: 0
WidescreenStoryboard: 1

[Editor]
DistanceSpacing: 0.2
BeatDivisor: 4
GridSize: 16
TimelineZoom: 1.699999

[Metadata]
Title:Random
TitleUnicode:Random
Artist:Sobrem x Silentroom
ArtistUnicode:Sobrem × Silentroom
Creator:rubies87
Version:Oni
Source:BOFXVII
Tags:english electronic jazz funk fusion Harkiadel Clue THE BMS OF FIGHTERS XVII -VISION THE RETRO FUTURE-
BeatmapID:3396772
BeatmapSetID:1627748

[Difficulty]
HPDrainRate:5
CircleSize:2
OverallDifficulty:5
ApproachRate:10
SliderMultiplier:1.4
SliderTickRate:1

[Events]
//Background and Video events
0,0,"bg.jpg",0,0
//Break Periods
//Storyboard Layer 0 (Background)
//Storyboard Layer 1 (Fail)
//Storyboard Layer 2 (Pass)
//Storyboard Layer 3 (Foreground)
//Storyboard Layer 4 (Overlay)
//Storyboard Sound Samples

[TimingPoints]
712,454.545454545455,4,1,0,60,1,0
712,-111.111111111111,4,1,0,60,0,0
910,-100,4,1,0,60,0,0
1138,-95.2380952380952,4,1,0,60,0,0
1365,-90.9090909090909,4,1,0,60,0,0
1592,-86.9565217391304,4,1,0,60,0,0
1820,-83.3333333333333,4,1,0,60,0,0
2047,-80,4,1,0,60,0,0
2274,-76.9230769230769,4,1,0,60,0,0
2501,-74.0740740740741,4,1,0,60,0,0
2729,-71.4285714285714,4,1,0,60,0,0
2956,-68.9655172413793,4,1,0,60,0,0
3183,-66.6666666666667,4,1,0,60,0,0
3411,-133.333333333333,4,1,0,60,0,0
10229,-117.647058823529,4,1,0,60,0,0
10683,-105.263157894737,4,1,0,60,0,0
11138,-95.2380952380951,4,1,0,60,0,0
11592,-86.9565217391304,4,1,0,60,0,0
11820,-100,4,1,0,60,0,0
17984,-102.564102564103,4,1,0,60,0,0
18212,-105.263157894737,4,1,0,60,0,0
18439,-108.108108108108,4,1,0,60,0,0
18666,-111.111111111111,4,1,0,60,0,0
18893,-114.285714285714,4,1,0,60,0,0
21771,-117.250015,4,1,0,60,0,0
21923,-120.311615,4,1,0,60,0,0
22074,-123.43221,4,1,0,60,0,0
22226,-126.655235,4,1,0,60,0,0
22377,-129.94038,4,1,0,60,0,0
22529,-133.33333,4,1,0,60,0,0
26052,-83.3333333333333,4,1,0,60,0,0
27757,-71.4285714285714,4,1,0,60,0,0
27984,-76.9230769230769,4,1,0,60,0,0
28666,-66.6666666666667,4,1,0,60,0,0
28893,-71.4285714285714,4,1,0,60,0,0
29802,-66.6666666666667,4,1,0,60,0,0
30257,-71.4285714285714,4,1,0,60,0,0
30712,-76.9230769230769,4,1,0,60,0,0
31166,-71.4285714285714,4,1,0,60,0,0
31393,-83.3333333333333,4,1,0,60,0,0
35257,-133.333333333333,4,1,0,60,0,0
40711,-133.33333,4,1,0,60,0,0
40938,-126.40366,4,1,0,60,0,0
41165,-119.83417,4,1,0,60,0,0
41392,-113.60608,4,1,0,60,0,0
41620,-107.67638,4,1,0,60,0,0
41847,-102.08016,4,1,0,60,0,0
42074,-96.77481,4,1,0,60,0,0
42301,-91.74519,4,1,0,60,0,0
42529,-86.95652,4,1,0,60,0,0
42757,-100,4,1,0,60,0,0
48865,-102.564102564103,4,1,0,60,0,0
49093,-105.263157894737,4,1,0,60,0,0
49320,-108.108108108108,4,1,0,60,0,0
49547,-111.111111111111,4,1,0,60,0,0
49774,-114.285714285714,4,1,0,60,0,0
57075,-133.333333333333,4,1,0,60,0,0
60712,-83.3333333333333,4,1,0,60,0,0
61280,-80,4,1,0,60,0,0
61507,-76.9230769230769,4,1,0,60,0,0
61621,-83.3333333333333,4,1,0,60,0,0
62189,-74.0740740740741,4,1,0,60,0,0
62416,-71.4285714285714,4,1,0,60,0,0
62530,-83.3333333333333,4,1,0,60,0,0
63098,-68.9655172413793,4,1,0,60,0,0
63325,-66.6666666666667,4,1,0,60,0,0
63439,-83.3333333333333,4,1,0,60,0,0
63893,-62.5,4,1,0,60,0,0
64348,-58.8235294117647,4,1,0,60,0,0
66166,-100,4,1,0,60,0,0
67984,-133.333333333333,4,1,0,60,0,0
71621,-114.285714285714,4,1,0,60,0,0
71848,-100,4,1,0,60,0,0
72189,-90.9090909090909,4,1,0,60,0,0
72530,-83.3333333333333,4,1,0,60,0,0
72871,-76.9230769230769,4,1,0,60,0,0
73439,-111.111111111111,4,1,0,60,0,0
73666,-100,4,1,0,60,0,0
74007,-90.9090909090909,4,1,0,60,0,0
74348,-83.3333333333333,4,1,0,60,0,0
74689,-76.9230769230769,4,1,0,60,0,0
74916,-73.8636447572324,4,1,0,60,0,0
75143,-71.4285714285714,4,1,0,60,0,0
75257,-90.9090909090909,4,1,0,60,0,0
75484,-83.3333333333333,4,1,0,60,0,0
75825,-78.0516436505378,4,1,0,60,0,0
76166,-73.3995593090459,4,1,0,60,0,0
76280,-71.9696806129514,4,1,0,60,0,0
76355,-71.0469982998453,4,1,0,60,0,0
76431,-70.1476748851683,4,1,0,60,0,0
76507,-69.2708344156901,4,1,0,60,0,0
76621,-67.9958957677315,4,1,0,60,0,0
76734,-66.7670843615464,4,1,0,60,0,0
77075,-10,4,1,0,60,0,0
78893,-100,4,1,0,60,0,0
82984,-90.9090909090909,4,1,0,60,0,0
83439,-83.3333333333333,4,1,0,60,0,0
83893,-76.9230769230769,4,1,0,60,0,0
84348,-71.4285714285714,4,1,0,60,0,0
84802,-66.6666666666667,4,1,0,60,0,0
85257,-62.5,4,1,0,60,0,0
85484,-66.6666666666667,4,1,0,60,0,0
85712,-71.4285714285714,4,1,0,60,0,0
86166,-100,4,1,0,60,0,0
89575,-95.2380952380952,4,1,0,60,0,0
89802,-90.9090909090909,4,1,0,60,0,0
90030,-86.9565217391304,4,1,0,60,0,0
90257,-83.3333333333333,4,1,0,60,0,0
90484,-80,4,1,0,60,0,0
90712,-76.9230769230769,4,1,0,60,0,0
90939,-74.0740740740741,4,1,0,60,0,0
91166,-71.4285714285714,4,1,0,60,0,0
91393,-68.9655172413793,4,1,0,60,0,0
91620,-66.6666666666667,4,1,0,60,0,0
91848,-69.5652173913043,4,1,0,60,0,0
92075,-72.7272727272727,4,1,0,60,0,0
92302,-76.1904761904762,4,1,0,60,0,0
92530,-80,4,1,0,60,0,0
92757,-84.2105263157895,4,1,0,60,0,0
92984,-88.8888888888889,4,1,0,60,0,0
93438,-100,4,1,0,60,0,0
97530,-90.9090909090909,4,1,0,60,0,0
97984,-83.3333333333333,4,1,0,60,0,0
98439,-76.9230769230769,4,1,0,60,0,0
98893,-71.4285714285714,4,1,0,60,0,0
99348,-66.6666666666667,4,1,0,60,0,0
99802,-74.9353869625915,4,1,0,60,0,0
100030,-79.8898159658199,4,1,0,60,0,0
100257,-85.5456873852619,4,1,0,60,0,0
100484,-92.0634832955413,4,1,0,60,0,0
100712,-99.6563847852604,4,1,0,60,0,0
104348,-100,4,1,0,60,0,0
104575,-95.2380952380952,4,1,0,60,0,0
104802,-90.9090909090909,4,1,0,60,0,0
105030,-86.9565217391304,4,1,0,60,0,0
105257,-83.3333333333333,4,1,0,60,0,0
105484,-80,4,1,0,60,0,0
105712,-76.9230769230769,4,1,0,60,0,0
105939,-74.0740740740741,4,1,0,60,0,0
106166,-71.4285714285714,4,1,0,60,0,0
106393,-68.9655172413793,4,1,0,60,0,0
106621,-66.6666666666667,4,1,0,60,0,0
106848,-64.5161290322581,4,1,0,60,0,0
107075,-62.5,4,1,0,60,0,0
107302,-60.6060606060606,4,1,0,60,0,0
107530,-58.8235294117647,4,1,0,60,0,0
107757,-57.1428571428571,4,1,0,60,0,0
107984,-55.5555555555556,4,1,0,60,0,0
109347,-85.106384,4,1,0,60,0,0
109461,-86.31543,4,1,0,60,0,0
109574,-87.53079,4,1,0,60,0,0
109688,-88.77427,4,1,0,60,0,0
109801,-90.02427,4,1,0,60,0,0
110029,-92.60021,4,1,0,60,0,0
110142,-93.904076,4,1,0,60,0,0
110256,-95.2381,4,1,0,60,0,0
110484,-100,4,1,0,60,0,0
122643,-90.9090909090909,4,1,0,60,0,0
122871,-86.9565217391304,4,1,0,60,0,0
122984,-83.3333333333333,4,1,0,60,0,0
123439,-76.9230769230769,4,1,0,60,0,0
123893,-71.4285714285714,4,1,0,60,0,0
124348,-66.6666666666667,4,1,0,60,0,0
124802,-64.5161290322581,4,1,0,60,0,0
125030,-62.5,4,1,0,60,0,0
125257,-60.6060606060606,4,1,0,60,0,0
125484,-58.8235294117647,4,1,0,60,0,0
125712,-57.1428571428571,4,1,0,60,0,0
125939,-55.5555555555556,4,1,0,60,0,0
126166,-54.054054054054,4,1,0,60,0,0
126393,-52.6315789473684,4,1,0,60,0,0
126621,-51.2820512820513,4,1,0,60,0,0
126848,-50,4,1,0,60,0,0
127075,-48.780487804878,4,1,0,60,0,0
127302,-47.6190476190476,4,1,0,60,0,0
127530,-46.5116279069767,4,1,0,60,0,0
127757,-45.4545454545455,4,1,0,60,0,0
127984,-44.4444444444445,4,1,0,60,0,0
128212,-43.4782608695652,4,1,0,60,0,0
128439,-42.5531914893617,4,1,0,60,0,0
128666,-41.6666666666667,4,1,0,60,0,0
128893,-40.8163265306122,4,1,0,60,0,0
129121,-40,4,1,0,60,0,0
129348,-39.2156862745098,4,1,0,60,0,0
129575,-38.4615384615385,4,1,0,60,0,0
129802,-37.7358490566038,4,1,0,60,0,0
130257,-66.6666666666667,4,1,0,60,0,0

[HitObjects]
256,192,939,5,4,0:0:0:0:
256,192,1166,1,4,0:0:0:0:
256,192,1393,1,4,0:0:0:0:
256,192,1621,1,4,0:0:0:0:
256,192,1848,1,4,0:0:0:0:
256,192,2075,1,4,0:0:0:0:
256,192,2302,1,4,0:0:0:0:
256,192,2530,1,4,0:0:0:0:
256,192,2757,1,4,0:0:0:0:
256,192,2984,1,4,0:0:0:0:
256,192,3212,1,4,0:0:0:0:
256,192,3666,1,8,0:0:0:0:
256,192,3780,1,8,0:0:0:0:
256,192,3893,1,8,0:0:0:0:
256,192,4121,1,8,0:0:0:0:
256,192,4348,1,4,0:0:0:0:
256,192,4802,1,8,0:0:0:0:
256,192,5257,1,8,0:0:0:0:
256,192,5712,1,8,0:0:0:0:
256,192,6166,1,8,0:0:0:0:
256,192,6280,1,0,0:0:0:0:
256,192,6507,1,0,0:0:0:0:
256,192,6621,1,8,0:0:0:0:
256,192,7075,1,8,0:0:0:0:
256,192,7530,1,8,0:0:0:0:
256,192,7984,1,0,0:0:0:0:
256,192,8325,1,0,0:0:0:0:
256,192,8439,1,8,0:0:0:0:
256,192,8893,1,8,0:0:0:0:
256,192,9348,1,8,0:0:0:0:
256,192,9802,1,8,0:0:0:0:
256,192,10257,1,4,0:0:0:0:
256,192,10712,1,4,0:0:0:0:
256,192,11166,1,4,0:0:0:0:
256,192,11621,1,4,0:0:0:0:
256,192,11848,1,8,0:0:0:0:
256,192,11962,1,8,0:0:0:0:
256,192,12075,1,0,0:0:0:0:
256,192,12302,1,0,0:0:0:0:
256,192,12530,1,8,0:0:0:0:
256,192,12757,1,0,0:0:0:0:
256,192,12871,1,0,0:0:0:0:
256,192,12984,1,8,0:0:0:0:
256,192,13212,1,8,0:0:0:0:
256,192,13439,1,0,0:0:0:0:
256,192,13552,1,8,0:0:0:0:
256,192,13780,1,8,0:0:0:0:
256,192,13893,1,0,0:0:0:0:
256,192,14121,1,0,0:0:0:0:
256,192,14348,1,8,0:0:0:0:
256,192,14575,1,8,0:0:0:0:
256,192,14689,1,8,0:0:0:0:
256,192,14802,1,0,0:0:0:0:
256,192,15030,1,0,0:0:0:0:
256,192,15257,1,8,0:0:0:0:
256,192,15712,1,0,0:0:0:0:
256,192,15939,1,0,0:0:0:0:
256,192,16166,1,8,0:0:0:0:
256,192,16393,1,8,0:0:0:0:
256,192,16621,1,0,0:0:0:0:
256,192,16848,1,0,0:0:0:0:
256,192,17075,1,8,0:0:0:0:
256,192,17302,1,8,0:0:0:0:
256,192,17530,1,0,0:0:0:0:
256,192,17984,1,0,0:0:0:0:
256,192,18212,1,0,0:0:0:0:
256,192,18439,1,0,0:0:0:0:
256,192,18666,1,0,0:0:0:0:
256,192,18893,1,8,0:0:0:0:
256,192,19234,1,0,0:0:0:0:
256,192,19575,1,8,0:0:0:0:
256,192,20030,1,0,0:0:0:0:
256,192,20371,1,0,0:0:0:0:
256,192,20712,1,8,0:0:0:0:
256,192,21052,1,0,0:0:0:0:
256,192,21393,1,8,0:0:0:0:
256,192,21772,1,0,0:0:0:0:
256,192,21924,1,0,0:0:0:0:
256,192,22075,1,8,0:0:0:0:
256,192,22227,1,8,0:0:0:0:
256,192,22378,1,8,0:0:0:0:
256,192,22530,1,8,0:0:0:0:
256,192,22833,1,8,0:0:0:0:
256,192,23136,1,8,0:0:0:0:
256,192,23439,1,0,0:0:0:0:
256,192,23742,1,0,0:0:0:0:
256,192,24045,1,0,0:0:0:0:
256,192,24348,1,8,0:0:0:0:
256,192,26166,1,8,0:0:0:0:
256,192,26393,1,0,0:0:0:0:
256,192,26507,1,0,0:0:0:0:
256,192,26621,1,0,0:0:0:0:
256,192,26848,1,8,0:0:0:0:
256,192,26962,1,8,0:0:0:0:
256,192,27075,1,8,0:0:0:0:
256,192,27302,1,0,0:0:0:0:
256,192,27416,1,0,0:0:0:0:
256,192,27530,1,8,0:0:0:0:
256,192,27757,1,4,0:0:0:0:
256,192,28212,1,0,0:0:0:0:
256,192,28325,1,8,0:0:0:0:
256,192,28439,1,0,0:0:0:0:
256,192,28666,1,12,0:0:0:0:
256,192,28893,1,8,0:0:0:0:
256,192,29007,1,8,0:0:0:0:
256,192,29121,1,0,0:0:0:0:
256,192,29234,1,0,0:0:0:0:
256,192,29348,1,8,0:0:0:0:
256,192,29575,1,0,0:0:0:0:
256,192,29802,1,12,0:0:0:0:
256,192,30257,1,4,0:0:0:0:
256,192,30712,1,8,0:0:0:0:
256,192,30825,1,8,0:0:0:0:
256,192,30939,1,8,0:0:0:0:
256,192,31166,1,4,0:0:0:0:
256,192,31393,12,0,33212,0:0:0:0:
256,192,33439,5,0,0:0:0:0:
256,192,35257,1,0,0:0:0:0:
256,192,35484,1,8,0:0:0:0:
256,192,36393,12,0,38666,0:0:0:0:
256,192,40939,5,4,0:0:0:0:
256,192,41166,1,4,0:0:0:0:
256,192,41393,1,4,0:0:0:0:
256,192,41621,1,4,0:0:0:0:
256,192,41848,1,4,0:0:0:0:
256,192,42075,1,4,0:0:0:0:
256,192,42302,1,4,0:0:0:0:
256,192,42530,1,12,0:0:0:0:
256,192,42757,1,8,0:0:0:0:
256,192,42871,1,0,0:0:0:0:
256,192,42984,1,8,0:0:0:0:
256,192,43212,1,0,0:0:0:0:
256,192,43439,1,8,0:0:0:0:
256,192,43666,1,0,0:0:0:0:
256,192,43780,1,0,0:0:0:0:
256,192,43893,1,8,0:0:0:0:
256,192,44121,1,0,0:0:0:0:
256,192,44348,1,8,0:0:0:0:
256,192,44462,1,0,0:0:0:0:
256,192,44689,1,0,0:0:0:0:
256,192,44802,1,8,0:0:0:0:
256,192,45030,1,0,0:0:0:0:
256,192,45257,1,8,0:0:0:0:
256,192,45484,1,0,0:0:0:0:
256,192,45598,1,0,0:0:0:0:
256,192,45712,1,8,0:0:0:0:
256,192,45939,1,8,0:0:0:0:
256,192,46166,1,0,0:0:0:0:
256,192,46393,1,8,0:0:0:0:
256,192,46507,1,0,0:0:0:0:
256,192,46621,1,8,0:0:0:0:
256,192,46848,1,0,0:0:0:0:
256,192,47075,1,8,0:0:0:0:
256,192,47302,1,0,0:0:0:0:
256,192,47530,1,8,0:0:0:0:
256,192,47757,1,0,0:0:0:0:
256,192,47984,1,0,0:0:0:0:
256,192,48212,1,0,0:0:0:0:
256,192,48439,1,8,0:0:0:0:
256,192,48893,1,0,0:0:0:0:
256,192,49121,1,0,0:0:0:0:
256,192,49348,1,0,0:0:0:0:
256,192,49575,1,0,0:0:0:0:
256,192,49802,1,8,0:0:0:0:
256,192,50257,1,8,0:0:0:0:
256,192,50712,1,8,0:0:0:0:
256,192,50939,1,0,0:0:0:0:
256,192,51166,1,8,0:0:0:0:
256,192,51393,1,8,0:0:0:0:
256,192,51621,1,8,0:0:0:0:
256,192,52075,1,8,0:0:0:0:
256,192,52530,1,0,0:0:0:0:
256,192,52757,1,0,0:0:0:0:
256,192,52984,1,0,0:0:0:0:
256,192,53212,1,0,0:0:0:0:
256,192,53439,1,8,0:0:0:0:
256,192,53893,1,8,0:0:0:0:
256,192,54348,1,8,0:0:0:0:
256,192,54575,1,0,0:0:0:0:
256,192,54802,1,8,0:0:0:0:
256,192,55030,1,8,0:0:0:0:
256,192,55257,1,8,0:0:0:0:
256,192,55712,1,8,0:0:0:0:
256,192,55939,1,0,0:0:0:0:
256,192,56166,1,8,0:0:0:0:
256,192,56393,1,8,0:0:0:0:
256,192,56621,1,0,0:0:0:0:
256,192,57075,1,0,0:0:0:0:
256,192,57530,1,8,0:0:0:0:
256,192,57757,1,0,0:0:0:0:
256,192,57984,1,0,0:0:0:0:
256,192,58212,1,8,0:0:0:0:
256,192,58439,1,0,0:0:0:0:
256,192,58893,1,0,0:0:0:0:
256,192,59348,1,8,0:0:0:0:
256,192,59575,1,0,0:0:0:0:
256,192,59802,1,0,0:0:0:0:
256,192,60257,1,8,0:0:0:0:
256,192,60712,1,4,0:0:0:0:
256,192,60939,1,8,0:0:0:0:
256,192,61052,1,8,0:0:0:0:
256,192,61280,1,4,0:0:0:0:
256,192,61507,1,4,0:0:0:0:
256,192,61848,1,8,0:0:0:0:
256,192,61962,1,8,0:0:0:0:
256,192,62189,1,4,0:0:0:0:
256,192,62416,1,4,0:0:0:0:
256,192,62757,1,8,0:0:0:0:
256,192,62871,1,8,0:0:0:0:
256,192,63098,1,4,0:0:0:0:
256,192,63325,1,4,0:0:0:0:
256,192,63893,1,4,0:0:0:0:
256,192,64348,1,12,0:0:0:0:
256,192,64575,8,0,67757,0:0:0:0:
256,192,67984,5,8,0:0:0:0:
256,192,68780,1,0,0:0:0:0:
256,192,69121,1,8,0:0:0:0:
256,192,69462,1,8,0:0:0:0:
256,192,69916,1,8,0:0:0:0:
256,192,70257,1,0,0:0:0:0:
256,192,70371,1,0,0:0:0:0:
256,192,70484,1,8,0:0:0:0:
256,192,70712,1,8,0:0:0:0:
256,192,70939,1,0,0:0:0:0:
256,192,71052,1,8,0:0:0:0:
256,192,71393,1,8,0:0:0:0:
256,192,71621,1,0,0:0:0:0:
256,192,71848,1,12,0:0:0:0:
256,192,72189,1,4,0:0:0:0:
256,192,72530,1,4,0:0:0:0:
256,192,72871,1,4,0:0:0:0:
256,192,73439,1,8,0:0:0:0:
256,192,73666,1,4,0:0:0:0:
256,192,74007,1,4,0:0:0:0:
256,192,74348,1,4,0:0:0:0:
256,192,74689,1,12,0:0:0:0:
256,192,74916,1,12,0:0:0:0:
256,192,75143,1,4,0:0:0:0:
256,192,75484,1,12,0:0:0:0:
256,192,75825,1,12,0:0:0:0:
256,192,76166,1,4,0:0:0:0:
256,192,76507,1,4,0:0:0:0:
256,192,76734,1,12,0:0:0:0:
256,192,78893,1,0,0:0:0:0:
256,192,79121,1,0,0:0:0:0:
256,192,79348,1,8,0:0:0:0:
256,192,79462,1,0,0:0:0:0:
256,192,79575,1,0,0:0:0:0:
256,192,79689,1,8,0:0:0:0:
256,192,80030,1,0,0:0:0:0:
256,192,80143,1,0,0:0:0:0:
256,192,80257,1,8,0:0:0:0:
256,192,80484,1,0,0:0:0:0:
256,192,80712,1,8,0:0:0:0:
256,192,80825,1,8,0:0:0:0:
256,192,80939,1,0,0:0:0:0:
256,192,81052,1,0,0:0:0:0:
256,192,81166,1,8,0:0:0:0:
256,192,81393,1,0,0:0:0:0:
256,192,81507,1,0,0:0:0:0:
256,192,81621,1,8,0:0:0:0:
256,192,81848,1,0,0:0:0:0:
256,192,82075,1,8,0:0:0:0:
256,192,82302,1,0,0:0:0:0:
256,192,82530,1,0,0:0:0:0:
256,192,82984,1,0,0:0:0:0:
256,192,83439,1,0,0:0:0:0:
256,192,83893,1,0,0:0:0:0:
256,192,84348,1,0,0:0:0:0:
256,192,84802,1,0,0:0:0:0:
256,192,85257,1,0,0:0:0:0:
256,192,85484,1,8,0:0:0:0:
256,192,85712,1,8,0:0:0:0:
256,192,86166,1,0,0:0:0:0:
256,192,86621,1,8,0:0:0:0:
256,192,86848,1,0,0:0:0:0:
256,192,87075,1,0,0:0:0:0:
256,192,87302,1,8,0:0:0:0:
256,192,87530,1,8,0:0:0:0:
256,192,87757,1,0,0:0:0:0:
256,192,88212,1,8,0:0:0:0:
256,192,88439,1,8,0:0:0:0:
256,192,88552,1,0,0:0:0:0:
256,192,88666,1,0,0:0:0:0:
256,192,89007,1,8,0:0:0:0:
256,192,89121,1,0,0:0:0:0:
256,192,89234,1,0,0:0:0:0:
256,192,89348,1,8,0:0:0:0:
256,192,89575,1,4,0:0:0:0:
256,192,90030,1,4,0:0:0:0:
256,192,90257,1,4,0:0:0:0:
256,192,90484,1,4,0:0:0:0:
256,192,90712,1,4,0:0:0:0:
256,192,90939,1,4,0:0:0:0:
256,192,91166,1,4,0:0:0:0:
256,192,91393,1,12,0:0:0:0:
256,192,91848,1,0,0:0:0:0:
256,192,92075,1,0,0:0:0:0:
256,192,92302,1,0,0:0:0:0:
256,192,92530,1,0,0:0:0:0:
256,192,92757,1,0,0:0:0:0:
256,192,92984,1,8,0:0:0:0:
256,192,93439,1,0,0:0:0:0:
256,192,93666,1,0,0:0:0:0:
256,192,93893,1,8,0:0:0:0:
256,192,94007,1,0,0:0:0:0:
256,192,94121,1,0,0:0:0:0:
256,192,94234,1,8,0:0:0:0:
256,192,94575,1,0,0:0:0:0:
256,192,94689,1,0,0:0:0:0:
256,192,94802,1,8,0:0:0:0:
256,192,95030,1,0,0:0:0:0:
256,192,95257,1,8,0:0:0:0:
256,192,95371,1,8,0:0:0:0:
256,192,95484,1,0,0:0:0:0:
256,192,95598,1,0,0:0:0:0:
256,192,95712,1,8,0:0:0:0:
256,192,95939,1,0,0:0:0:0:
256,192,96166,1,8,0:0:0:0:
256,192,96280,1,8,0:0:0:0:
256,192,96393,1,0,0:0:0:0:
256,192,96621,1,8,0:0:0:0:
256,192,96848,1,0,0:0:0:0:
256,192,97075,1,0,0:0:0:0:
256,192,97530,1,0,0:0:0:0:
256,192,97984,1,0,0:0:0:0:
256,192,98439,1,0,0:0:0:0:
256,192,98893,1,0,0:0:0:0:
256,192,99348,1,0,0:0:0:0:
256,192,99802,1,0,0:0:0:0:
256,192,100030,1,8,0:0:0:0:
256,192,100257,1,8,0:0:0:0:
256,192,100484,1,0,0:0:0:0:
256,192,100712,1,8,0:0:0:0:
256,192,100939,1,0,0:0:0:0:
256,192,101166,1,8,0:0:0:0:
256,192,101393,1,8,0:0:0:0:
256,192,101507,1,8,0:0:0:0:
256,192,101621,1,0,0:0:0:0:
256,192,101734,1,8,0:0:0:0:
256,192,101848,1,0,0:0:0:0:
256,192,102075,1,8,0:0:0:0:
256,192,102302,1,0,0:0:0:0:
256,192,102643,1,0,0:0:0:0:
256,192,102757,1,0,0:0:0:0:
256,192,102984,1,8,0:0:0:0:
256,192,103098,1,8,0:0:0:0:
256,192,103212,1,0,0:0:0:0:
256,192,103439,1,0,0:0:0:0:
256,192,103666,1,0,0:0:0:0:
256,192,103893,1,8,0:0:0:0:
256,192,104121,1,8,0:0:0:0:
256,192,104575,1,4,0:0:0:0:
256,192,104802,1,4,0:0:0:0:
256,192,105030,1,4,0:0:0:0:
256,192,105257,1,4,0:0:0:0:
256,192,105484,1,4,0:0:0:0:
256,192,105712,1,4,0:0:0:0:
256,192,105939,1,4,0:0:0:0:
256,192,106166,1,4,0:0:0:0:
256,192,106393,1,4,0:0:0:0:
256,192,106621,1,4,0:0:0:0:
256,192,106848,1,4,0:0:0:0:
256,192,107075,1,4,0:0:0:0:
256,192,107302,1,4,0:0:0:0:
256,192,107530,1,4,0:0:0:0:
256,192,107757,1,4,0:0:0:0:
256,192,109348,1,8,0:0:0:0:
256,192,109462,1,8,0:0:0:0:
256,192,109575,1,8,0:0:0:0:
256,192,109689,1,8,0:0:0:0:
256,192,109802,1,0,0:0:0:0:
256,192,110030,1,0,0:0:0:0:
256,192,110143,1,0,0:0:0:0:
256,192,110257,1,8,0:0:0:0:
256,192,110484,1,0,0:0:0:0:
256,192,110598,1,8,0:0:0:0:
256,192,110825,1,8,0:0:0:0:
256,192,110939,1,0,0:0:0:0:
256,192,111166,1,8,0:0:0:0:
256,192,111280,1,8,0:0:0:0:
256,192,111393,1,0,0:0:0:0:
256,192,111621,1,8,0:0:0:0:
256,192,111734,1,0,0:0:0:0:
256,192,111962,1,0,0:0:0:0:
256,192,112075,1,8,0:0:0:0:
256,192,112302,1,0,0:0:0:0:
256,192,112416,1,8,0:0:0:0:
256,192,112643,1,8,0:0:0:0:
256,192,112757,1,0,0:0:0:0:
256,192,112871,1,0,0:0:0:0:
256,192,112984,1,8,0:0:0:0:
256,192,113212,1,0,0:0:0:0:
256,192,113439,1,0,0:0:0:0:
256,192,113590,1,0,0:0:0:0:
256,192,113742,1,0,0:0:0:0:
256,192,113893,1,8,0:0:0:0:
256,192,114121,1,0,0:0:0:0:
256,192,114234,1,8,0:0:0:0:
256,192,114575,1,8,0:0:0:0:
256,192,114689,1,8,0:0:0:0:
256,192,114802,1,8,0:0:0:0:
256,192,114916,1,8,0:0:0:0:
256,192,115030,1,0,0:0:0:0:
256,192,115257,1,8,0:0:0:0:
256,192,115371,1,0,0:0:0:0:
256,192,115484,1,8,0:0:0:0:
256,192,115712,1,4,0:0:0:0:
256,192,116166,1,4,0:0:0:0:
256,192,116621,1,4,0:0:0:0:
256,192,116848,1,8,0:0:0:0:
256,192,117075,1,4,0:0:0:0:
256,192,117302,1,0,0:0:0:0:
256,192,117416,1,0,0:0:0:0:
256,192,117530,1,8,0:0:0:0:
256,192,117757,1,0,0:0:0:0:
256,192,117984,1,8,0:0:0:0:
256,192,118212,1,0,0:0:0:0:
256,192,118325,1,0,0:0:0:0:
256,192,118439,1,8,0:0:0:0:
256,192,118666,1,0,0:0:0:0:
256,192,118893,1,8,0:0:0:0:
256,192,119007,1,8,0:0:0:0:
256,192,119121,1,0,0:0:0:0:
256,192,119348,1,8,0:0:0:0:
256,192,119462,1,8,0:0:0:0:
256,192,119575,1,8,0:0:0:0:
256,192,119802,1,0,0:0:0:0:
256,192,119916,1,8,0:0:0:0:
256,192,120030,1,0,0:0:0:0:
256,192,120257,1,8,0:0:0:0:
256,192,120371,1,8,0:0:0:0:
256,192,120484,1,8,0:0:0:0:
256,192,120598,1,0,0:0:0:0:
256,192,120825,1,8,0:0:0:0:
256,192,120939,1,8,0:0:0:0:
256,192,121052,1,8,0:0:0:0:
256,192,121166,1,8,0:0:0:0:
256,192,121393,1,0,0:0:0:0:
256,192,121507,1,0,0:0:0:0:
256,192,121621,1,8,0:0:0:0:
256,192,121848,1,0,0:0:0:0:
256,192,122075,1,8,0:0:0:0:
256,192,122189,1,8,0:0:0:0:
256,192,122302,1,0,0:0:0:0:
256,192,122416,1,0,0:0:0:0:
256,192,122530,1,8,0:0:0:0:
256,192,122984,1,4,0:0:0:0:
256,192,123439,1,4,0:0:0:0:
256,192,123893,1,4,0:0:0:0:
256,192,124802,1,12,0:0:0:0:
256,192,125030,1,12,0:0:0:0:
256,192,125257,1,12,0:0:0:0:
256,192,125484,1,12,0:0:0:0:
256,192,125712,1,12,0:0:0:0:
256,192,125939,1,12,0:0:0:0:
256,192,126166,1,12,0:0:0:0:
256,192,126393,1,12,0:0:0:0:
256,192,126621,1,12,0:0:0:0:
256,192,126848,1,12,0:0:0:0:
256,192,127075,1,12,0:0:0:0:
256,192,127302,1,12,0:0:0:0:
256,192,127530,1,12,0:0:0:0:
256,192,127757,1,12,0:0:0:0:
256,192,127984,1,12,0:0:0:0:
256,192,128212,1,12,0:0:0:0:
256,192,128439,1,12,0:0:0:0:
256,192,128666,1,12,0:0:0:0:
256,192,128893,1,12,0:0:0:0:
256,192,129121,1,12,0:0:0:0:
256,192,129348,1,12,0:0:0:0:
256,192,129575,1,12,0:0:0:0:
256,192,130371,1,8,0:0:0:0:
256,192,130467,1,8,0:0:0:0:
256,192,130564,1,8,0:0:0:0:
256,192,130662,1,0,0:0:0:0:
